#TITLE:Laughin' Muffin;
#SUBTITLE:;
#ARTIST:Gowrock;
#TITLETRANSLIT:;
#SUBTITLETRANSLIT:;
#ARTISTTRANSLIT:;
#GENRE:;
#CREDIT:;
#BANNER:Laughin' Muffin.png;
#BACKGROUND:Laughin' Muffin-bg.png;
#LYRICSPATH:;
#CDTITLE:;
#MUSIC:Laughin' Muffin.mp3;
#OFFSET:-1.223000;
#SAMPLESTART:23.478069;
#SAMPLELENGTH:15.001568;
#SELECTABLE:YES;
#DISPLAYBPM:91.000000:182.000000;
#BPMS:0.000000=181.981003
,4.000000=90.990997
,35.500000=181.981995
,35.750000=90.990997
,36.000000=181.981003
,99.000000=363.960999
,100.000000=181.981003
,164.000000=90.989998
,196.000000=90.990997
,212.000000=181.981003
;
#STOPS:35.500000=0.082000,
99.000000=0.165000
;
#BGCHANGES:;
#KEYSOUNDS:;
#ATTACKS:;

//---------------dance-single - ----------------
#NOTES:
     dance-single:
     :
     Hard:
     17:
     0.881254,0.950293,0.317161,0.317161,1.129885,778.000000,738.000000,40.000000,40.000000,0.000000,0.000000,0.881254,0.950293,0.317161,0.317161,1.129885,778.000000,738.000000,40.000000,40.000000,0.000000,0.000000:
0000
0000
0000
0000
,
0000
0000
0000
0000
,
0000
0000
0000
0000
,
0010
0001
1000
0010
0100
0001
1000
0010
0100
0010
1000
0001
0010
0001
0100
0010
,
1000
0000
0001
0000
0100
0000
1000
0000
0100
0000
0001
0000
1000
0000
0100
0000
0010
0000
0010
0000
0001
0000
0100
0000
0010
0000
0100
0000
0001
0000
1000
0001
,
0010
0000
0110
0000
1100
0000
0000
0100
1000
0010
0001
0010
0100
0000
0001
1000
,
0100
0000
0000
0000
0110
0000
0000
0000
0011
0000
0000
0000
0000
0000
0100
0000
0010
0000
1000
0000
0100
0000
0001
0000
0100
0000
0000
0000
0000
0000
1000
0001
,
0100
0000
0110
0000
1010
0000
0000
0010
1000
0100
0001
0100
0010
0000
0001
1000
,
1001
0000
0000
0000
1000
0000
0001
0000
1001
0000
0000
0000
0000
0000
0100
0000
0001
0000
0000
1000
0000
0000
0100
0000
0010
0000
0000
0000
0110
0000
0010
0001
,
1000
0000
0001
1000
0000
0001
1000
0000
0010
0000
0100
0010
0000
0100
0010
0000
,
1000
0000
0100
1000
0000
0100
1000
0000
0001
0000
0010
0001
0100
0000
0010
0000
,
0100
0000
0001
0100
0000
0001
0100
0000
0010
0000
1000
0010
0000
1000
0010
1000
,
0001
1000
0001
1000
0100
0010
0100
0010
0100
0000
1000
0100
0010
0000
0001
0000
,
0001
0000
1000
0001
0000
1000
0001
0000
0100
0000
0010
0100
0000
0010
0100
0000
,
0001
0000
0010
0001
0000
0010
0001
0000
1000
0000
0100
1000
0010
0000
0100
0000
,
0020
0000
0000
0000
0030
0000
0100
0001
0010
0000
0100
0000
0001
0000
0100
0000
,
0010
0001
0010
0000
0100
0000
1000
0010
1000
0000
0010
0000
0010
0000
0000
0000
,
0100
0101
0000
1010
0000
1100
0000
0011
,
0000
0000
1001
0000
0000
0000
0110
0000
0010
0000
1000
0001
1000
0000
0010
0000
,
1000
0000
0001
1000
0000
0001
1000
0000
0100
0000
0010
0100
0000
0010
0100
1000
,
0010
0100
0010
0100
0001
1000
0001
1000
0001
0000
0010
0000
0010
0000
0100
0000
,
0010
0110
0000
1001
0000
1010
0000
0101
,
0000
0000
0011
0000
0000
0000
1100
0000
0100
0000
1000
0001
1000
0000
0010
0000
,
0200
0000
0300
0000
0010
1000
0001
0010
,
0100
0010
0100
0000
1000
0000
0010
0100
0010
0000
0000
0000
2002
3003
0000
0000
,
0100
0000
0010
1000
0010
0000
0100
0001
0100
0000
0001
0010
0001
0000
1000
0100
,
1000
0000
0001
1000
0010
0000
1000
0001
0100
0000
0001
1000
0100
0000
1000
0001
,
0010
0000
0100
1000
0010
0000
0100
0001
0010
0000
0010
0001
0100
0000
0010
1000
,
0100
0000
0010
0001
1000
0000
0001
0010
0100
0000
0010
0001
1000
0000
0100
1000
,
0001
0000
0010
0001
0100
0000
0010
1000
0001
0000
0100
0001
1000
0000
0001
0010
,
0100
0000
1000
0100
0010
0000
0001
0100
0010
0000
1000
0010
0100
0000
0001
0100
,
1000
0000
0100
0001
1000
0000
0100
0001
0100
0000
0010
0001
0100
0000
0010
1000
,
0200
0320
2030
3020
0032
0203
2300
3200
,
0301
0000
0010
0001
0010
0100
1000
0100
0010
0000
0001
0010
0100
1000
0100
0010
,
0001
0000
1000
0100
0010
0001
0010
0100
1000
0100
0010
0001
0010
0100
1000
0100
,
0010
0000
1000
0010
1000
0001
0100
0001
1000
0000
0010
1000
0001
0100
0001
1000
,
0010
0000
0100
0001
1000
0010
1000
0001
0100
0001
1000
0010
1000
0001
0100
0001
,
0200
2300
3200
0302
0023
2030
3020
0230
,
2300
3020
0230
2300
3200
0302
2003
3020
,
1030
0100
0001
0100
0010
0001
0100
1000
0100
0010
0100
0001
0010
0100
1000
0001
,
0100
0000
0001
1000
0010
0000
1000
0001
0010
0000
0001
0000
0100
0000
0010
0000
,
2000
0000
0000
0000
0000
0000
3001
1000
0002
0000
0000
0000
0000
0000
0103
0001
0200
0000
0000
0000
0000
0000
0000
0000
0310
0000
1000
0000
0100
0000
0010
0000
,
0002
0000
0000
0000
0000
0000
1003
0001
2000
0000
0000
0000
0000
0000
3010
1000
0010
0000
0100
0000
0100
0000
0010
0000
0000
0000
0100
0000
0001
0000
0010
0000
,
0020
0000
0000
0000
0000
0000
0000
0000
0000
0000
0000
0000
0000
0000
0000
0000
0000
0000
0000
0000
0000
0000
0000
0000
0000
0000
0000
0000
0000
0000
0000
0000
0000
0000
0000
0000
0130
0000
0000
0000
0000
0000
1000
0000
0000
0000
0000
0000
0020
0000
0000
0000
0000
0000
0000
0000
0000
0000
0000
0000
0000
0000
0000
0000
0000
0000
0000
0000
0000
0000
0000
0000
0000
0000
0000
0000
0000
0000
0000
0000
0000
0000
0000
0000
0130
0000
0000
0000
0000
0000
0001
0000
0000
0000
0000
0000
0010
0000
0000
0000
0000
0000
0000
0000
0000
0000
0000
0000
0001
0000
0000
0000
0000
0000
0000
0000
0000
0000
0000
0000
0100
0000
0000
0000
0000
0000
0000
0000
0000
0000
0000
0000
0010
0000
0000
0000
0000
0000
0000
0000
0000
0000
0000
0000
1000
0000
0000
0000
0000
0000
0000
0000
0000
0000
0000
0000
0001
0000
0000
0000
0000
0000
0100
0000
0000
0000
0000
0000
0010
0000
0000
0000
0000
0000
0000
0000
1000
0000
0000
0000
0000
0000
0000
0000
0100
0000
0000
0000
0000
0000
0000
0000
,
0010
0000
0000
0000
0000
0000
0000
0000
0001
0000
0000
0000
0000
0000
0000
0000
0200
0000
0000
0000
0000
0000
0000
0000
0000
0000
0000
0000
0000
0000
0000
0000
0000
0000
0000
0000
0000
0000
0000
0000
0000
0000
0000
0000
0000
0000
0000
0000
0000
0000
0000
0000
0000
0000
0000
0000
0000
0000
0000
0000
1300
0000
0000
0000
0000
0000
0000
0000
0000
0000
0000
0000
0100
0000
0000
0000
0000
0000
0000
0000
0000
0000
0000
0000
0001
0000
0000
0000
0000
0000
0000
0000
0000
0000
0000
0000
0010
0000
0000
0000
0000
0000
0001
0000
0000
0000
0000
0000
0020
0000
0000
0000
0000
0000
0000
0000
0000
0000
0000
0000
0000
0000
0000
0000
0000
0000
0000
0000
0000
0000
0000
0000
0000
0000
0000
0000
0000
0000
0000
0000
0000
0000
0000
0000
0030
0000
0000
0000
0000
0000
0000
0000
0000
0000
0000
0000
0000
0000
0000
0000
0000
0000
0000
0000
0000
0000
0000
0000
0000
0000
0000
0000
0000
0000
0000
0000
0000
0000
0000
0000
0001
0000
0000
0000
0000
0000
1000
0000
0000
0000
0000
0000
,
0010
0000
0110
0000
0101
0000
0000
0100
0001
0010
1000
0010
0100
0000
1000
0001
,
0100
0000
0000
0000
0110
0000
0000
0000
1010
0000
0000
0000
0000
0000
0100
0000
0010
0000
0001
0000
0100
0000
1000
0000
0100
0000
0000
0000
0000
0000
0001
1000
,
0100
0000
0110
0000
0011
0000
0000
0010
0001
0100
1000
0100
0010
0000
1000
0001
,
1001
0000
0000
0000
0000
0000
1000
0000
1001
0000
0000
0000
0000
0000
0010
0000
1000
0000
0100
0001
0100
0000
1000
0000
0001
0000
0001
0000
1000
0000
0000
0000
,
0100
0000
0110
0000
0011
0000
0000
0010
0001
0100
1000
0100
0010
0000
1000
0001
,
0010
0000
0000
0000
0110
0000
0000
0000
1100
0000
0000
0000
0000
0000
0010
0000
0100
0000
0001
0000
0010
0000
1000
0000
0010
0000
0001
0000
0100
0000
0001
1000
,
0010
0000
0110
0000
0101
0000
0000
0100
0001
0010
1000
0010
0100
0000
1000
0001
,
1001
0000
0000
0000
0000
0000
1000
0000
1001
0000
0000
0000
0000
0000
0100
0000
1000
0000
0010
1000
0000
1000
0100
0000
0010
0000
0001
0100
0000
0100
0010
0000
,
0100
0000
0001
0100
0000
0001
0100
0000
0010
0000
1000
0010
0000
1000
0010
0000
,
0100
0000
0010
0100
0000
0010
0100
0000
0001
0000
1000
0001
0010
0000
0100
0000
,
0010
0000
0001
0010
0000
0001
0010
0000
0100
0000
1000
0100
0000
1000
0100
0000
,
0010
0100
0010
0100
1000
0100
1000
0100
0001
0000
0100
1000
0001
0000
0100
0000
,
0010
0000
1000
0010
0000
1000
0010
0000
0100
0000
0001
0100
0000
0001
0100
0000
,
0010
0000
0100
0010
0000
0100
0010
0000
1000
0000
0001
1000
0100
0000
0010
0000
,
0200
0000
0000
0000
0000
0000
0310
0001
0100
0000
0010
0000
1000
0000
1000
0000
,
0001
1000
0010
0000
0100
0000
0010
1000
0100
0000
0010
0000
0010
0000
0001
1000
,
0001
0000
0100
0001
0000
0100
0001
0000
1000
0000
0010
1000
0000
0010
1000
0010
,
0100
0001
0100
0001
1000
0001
1000
0001
0100
0000
0010
1000
0001
0000
0010
0001
,
1000
0010
1000
0010
0100
0001
0100
0001
0010
0001
0010
0001
1000
0000
0001
0100
,
0010
0100
0010
0100
0010
1000
0010
1000
0001
0000
1000
0001
0010
0000
0001
1000
,
0010
0000
0100
0010
0000
0100
0010
0000
1000
0000
0001
1000
0000
0001
1000
0000
,
0010
0100
0010
0100
0001
1000
0001
1000
0010
0000
1000
0001
0100
0000
0001
1000
,
0010
1000
0100
0001
0100
0010
1000
0010
0001
0100
1000
0100
0001
1000
0010
0100
,
0001
0000
0010
0100
1000
0000
0010
0000
0100
0000
0000
0000
1001
0000
0000
0000
,
0220
0000
0000
0000
,
0000
0000
0330
0000
;

//---------------dance-single - ----------------
#NOTES:
     dance-single:
     :
     Medium:
     14:
     0.692090,0.838494,0.222013,0.364735,0.594676,611.000000,583.000000,28.000000,46.000000,0.000000,0.000000,0.692090,0.838494,0.222013,0.364735,0.594676,611.000000,583.000000,28.000000,46.000000,0.000000,0.000000:
0000
0000
0000
0000
,
0000
0000
0000
0000
,
0000
0000
0000
0000
,
0010
0000
1000
0010
0100
0001
1000
0000
0100
0000
1000
0001
0010
0001
0100
0000
,
0001
0001
1000
1000
0100
0100
0010
0010
0001
0001
0100
0100
0010
0000
0000
1000
,
0010
0000
1010
0000
1001
0000
0000
0010
0001
0100
1000
0100
0001
0000
0000
1000
,
0100
0000
1100
0000
1001
0000
0000
0100
0001
0010
1000
0010
0001
0000
0000
0001
,
0100
0000
0101
0000
1001
0000
0000
0010
1000
0100
0001
0100
1000
0000
0001
1000
,
0110
0000
0000
0000
1000
0000
0001
0000
0110
0000
0000
0000
0000
0000
0001
0000
0100
0000
0000
0100
0000
0000
0100
0000
0010
0000
0000
0000
0110
0000
1000
0000
,
0002
0000
0000
0100
0000
0000
0103
0000
0020
0000
0000
1000
0000
0000
1030
0000
,
2000
0000
0000
0100
0000
0000
3100
0000
0010
0000
0001
0100
0001
0000
1000
0000
,
0020
0000
0000
1000
0000
0000
1030
0000
0200
0000
0000
0010
0000
0000
0310
0000
,
0001
0000
0100
0001
0100
0000
0010
0100
0010
0000
1000
0000
0100
0000
0010
0000
,
0002
0000
0000
0010
0000
0000
0013
0000
0200
0000
0000
1000
0000
0000
1300
0000
,
2000
0000
0000
0010
0000
0000
3010
0000
0100
0000
0001
0100
0001
0000
0010
0000
,
0200
0000
0300
1000
0010
0100
0001
1000
,
0010
0010
0100
0001
0001
0010
0010
0000
,
0100
0100
0000
1000
0010
0010
0000
0100
,
0001
0000
0001
0000
0000
0000
0001
0000
0010
0000
0100
0010
0100
0000
1000
0000
,
0001
0001
0000
0100
0010
0010
0000
1000
,
0001
0000
0010
0100
0010
0000
0100
0010
0100
0000
1000
0000
0001
0000
0100
0000
,
0001
0001
0000
0010
0100
0100
0000
1000
,
0001
0000
0001
0000
0000
0000
0100
0000
0001
0000
1000
0001
1000
0000
0100
0000
,
0020
0000
0030
0000
0010
0001
0100
0010
,
0100
0000
0100
0000
0001
0000
0010
0000
0010
0000
0000
0000
0220
0330
0000
0000
,
0100
1000
0010
0100
0001
0010
0100
1000
,
0010
0100
1000
0100
0001
1000
0010
0100
,
0001
1000
0010
0100
0001
0010
0100
1000
,
0010
0100
1000
0100
0001
1000
0010
0010
,
0100
0001
0010
0100
1000
0010
0100
0001
,
0010
0100
0001
0100
1000
0001
0010
0100
,
1000
0001
0010
0100
1000
0010
0100
0001
,
0200
0320
2030
3200
0302
0203
0320
0032
,
1003
0000
0010
0100
0010
0000
1000
0001
1000
0000
0100
0000
0010
0000
0001
0000
,
0100
0000
0001
1000
0001
0000
0010
0100
0010
0000
0001
0000
1000
0000
0100
0000
,
0010
0000
0001
1000
0001
0000
0100
0010
0100
0000
0001
0000
1000
0000
1000
0000
,
0001
0000
0010
0100
0010
0000
0001
1000
0001
0000
0010
0000
0100
0000
1000
0000
,
0100
1000
0010
0100
0001
0010
0100
1000
,
0010
0100
1000
0100
0001
1000
0010
0100
,
0001
1000
0001
1000
0001
1000
0001
1000
0010
0100
0010
0100
0010
0100
0010
0100
,
0010
0010
0100
0100
0010
1000
0001
0010
,
0002
0000
0000
0000
0000
0000
1003
0010
0200
0000
0000
0000
0000
0000
0310
1000
0200
0000
0000
0000
0000
0000
0000
0000
0310
0000
0100
0000
1000
0000
0010
0000
,
2000
0000
0000
0000
0000
0000
3001
0100
0020
0000
0000
0000
0000
0000
0130
0001
0010
0000
0100
0000
1000
0000
0010
0000
0000
0000
1000
0000
0010
0000
0100
0000
,
0020
0000
0000
0000
0000
0000
0130
0001
2000
0000
0000
0000
0000
0000
3001
0100
0010
0000
1000
0000
0100
0000
0010
0000
0100
0000
0001
0000
0100
0000
1000
0000
,
0010
0000
0100
0000
0002
0000
0000
0000
0000
0000
0000
0000
0000
0000
0000
0103
0000
0000
0010
0000
0000
1000
0000
0000
0200
0000
0000
0000
0000
0000
0000
0000
0000
0000
0000
0000
0000
0000
0000
0000
0000
0000
0300
0000
0000
1000
0000
0000
,
0100
0000
1100
0000
1001
0000
0000
0100
0001
0010
1000
0010
0001
0000
0000
1000
,
0010
0000
1010
0000
1001
0000
0000
0010
0001
0100
1000
0100
0001
0000
0000
0001
,
0010
0000
0011
0000
1001
0000
0000
0100
1000
0010
0001
0010
1000
0000
0001
1000
,
0110
0000
1000
0001
0110
0000
0000
0001
1000
0010
0010
1000
0001
0001
1000
0000
,
0100
0000
1100
0000
1001
0000
0000
0100
0001
0010
1000
0010
0001
0000
0000
1000
,
0010
0000
1010
0000
1001
0000
0000
0010
0001
0100
1000
0100
0001
1000
0010
0100
,
0001
0000
0011
0000
0110
0000
0000
0100
1000
0001
0010
0001
0100
0000
0010
0100
,
1001
0000
0000
0000
0100
0000
0010
0000
1001
0000
0000
0000
0000
0000
0010
0000
0002
0000
0000
1000
0000
0000
1003
0000
2000
0000
0000
0001
0000
0000
3001
0000
,
0200
0000
0000
0001
0000
0000
0301
0000
2000
0000
0000
0010
0000
0000
3001
0000
,
0020
0000
0000
0001
0000
0000
0031
0000
0100
0000
0010
1000
0010
0000
0100
0000
,
0002
0000
0000
0010
0000
0000
0013
0000
0200
0000
0000
1000
0000
0000
0310
0000
,
0001
0000
0100
0010
0100
0000
0010
0100
0010
0000
1000
0000
0010
0000
0100
0000
,
0020
0000
0000
1000
0000
0000
1030
0000
0002
0000
0000
0100
0000
0000
1003
0000
,
0200
0000
0000
1000
0000
0000
1300
0000
0010
0000
0100
0001
0100
0000
0010
0000
,
2000
0000
0000
3000
0100
0010
0001
0001
,
0100
0010
1000
0010
0100
0001
0001
0000
,
0020
0000
0000
0001
0000
0000
0031
0000
2000
0000
0000
0100
0000
0000
3001
0000
,
0100
0000
0010
1000
0001
0000
0010
0001
1000
0000
0010
0000
0100
0000
0100
0000
,
0001
0010
0001
0010
0001
0000
0100
0001
0010
0000
0100
0000
1000
0000
0100
0000
,
1000
0010
1000
0010
1000
0000
0100
1000
0010
0000
0100
0000
0001
0000
0010
0000
,
0200
0000
0000
1000
0000
0000
1300
0000
0002
0000
0000
0010
0000
0000
1003
0000
,
0010
0000
0100
0001
0010
0000
0100
1000
0010
0000
1000
0000
0001
0000
0100
0000
,
0010
0100
0001
0010
0100
1000
0010
0100
,
0001
0000
0010
0001
1000
0000
0010
0000
0100
0000
0000
0000
1001
0000
0000
0000
,
0220
0000
0000
0000
,
0000
0000
0330
0000
;

//---------------dance-single - ----------------
#NOTES:
     dance-single:
     :
     Easy:
     12:
     0.538041,0.698745,0.436096,0.317161,0.174438,475.000000,420.000000,55.000000,40.000000,0.000000,0.000000,0.538041,0.698745,0.436096,0.317161,0.174438,475.000000,420.000000,55.000000,40.000000,0.000000,0.000000:
// measure 0
0000
0000
0000
0000
,  // measure 1
0000
0000
0000
0000
,  // measure 2
0000
0000
0000
0000
,  // measure 3
0010
0001
0100
0010
0100
0001
1000
0010
,  // measure 4
0100
0001
0010
0100
1000
0001
0010
0000
,  // measure 5
0011
0110
1100
0000
1000
0001
0100
0000
,  // measure 6
0101
0110
1010
0000
0010
0100
0001
0000
,  // measure 7
0101
1001
0011
0000
0010
0001
1000
0010
,  // measure 8
0110
0000
0000
0000
0000
0000
0000
0000
1001
0000
0000
0000
0000
0000
0000
0000
1000
0000
0000
0001
0000
0000
0001
0000
1000
0000
0000
0000
0000
0000
0000
0000
,  // measure 9
0010
0000
0000
0010
0000
0000
0010
0000
0100
0000
0000
0100
0000
0000
0100
0000
,  // measure 10
0001
0000
0000
0001
0000
0000
0001
0000
0100
0000
0001
0000
0010
0000
0100
0000
,  // measure 11
1000
0000
0000
1000
0000
0000
1000
0000
0010
0000
0000
0010
0000
0000
0010
0000
,  // measure 12
0100
0001
0100
0010
0100
0000
0010
0000
,  // measure 13
0100
0000
0000
0100
0000
0000
0100
0000
0010
0000
0000
0010
0000
0000
0010
0000
,  // measure 14
1000
0000
0000
1000
0000
0000
1000
0000
0001
0000
0100
0000
0010
0000
0100
0000
,  // measure 15
0002
0000
0003
0000
1000
0100
1000
0100
,  // measure 16
0010
0010
0001
0100
0100
0010
0010
0000
,  // measure 17
0100
0000
0000
0100
0000
0000
0100
0000
0010
0000
0000
0010
0000
0000
0010
0000
,  // measure 18
1000
0000
0000
1000
0000
0000
1000
0000
0010
0000
1000
0000
0100
0000
0010
0000
,  // measure 19
0001
0000
0000
0001
0000
0000
0001
0000
0100
0000
0000
0100
0000
0000
0100
0000
,  // measure 20
0010
1000
0010
0100
0010
0000
0100
0000
,  // measure 21
0010
0000
0000
0010
0000
0000
0010
0000
0100
0000
0000
0100
0000
0000
0100
0000
,  // measure 22
0001
0000
0000
0001
0000
0000
0001
0000
1000
0000
0010
0000
0100
0000
0010
0000
,  // measure 23
2000
0000
3000
0000
0001
0010
0001
0010
,  // measure 24
0100
0000
0100
0000
1000
0000
0010
0000
0010
0000
0000
0000
2002
3003
0000
0000
,  // measure 25
0100
0001
0010
0000
0100
1000
0010
0000
,  // measure 26
0100
0001
1000
0000
0100
1000
0001
0000
,  // measure 27
0010
0001
1000
0000
0010
1000
0001
0000
,  // measure 28
0100
0001
0010
0000
0110
0000
1100
0000
,  // measure 29
0100
1000
0010
0000
0100
0001
0010
0000
,  // measure 30
0001
0100
0010
0000
1000
0100
0010
0000
,  // measure 31
0100
0010
0001
0000
0100
0010
1000
0000
,  // measure 32
0220
0330
2002
3003
0220
0330
2002
3003
,  // measure 33
1000
0001
0010
0001
1000
0010
0100
0000
,  // measure 34
0001
1000
0010
1000
0001
0010
0100
0000
,  // measure 35
1000
0100
0010
0100
1000
0001
0100
0000
,  // measure 36
0001
0010
0100
0010
0001
1000
0010
0000
,  // measure 37
0200
0302
0023
0230
2300
3200
0320
0032
,  // measure 38
2003
3020
0230
0302
2003
3200
2300
3000
,  // measure 39
1010
1001
1100
1001
,  // measure 40
0101
0001
0010
0100
0010
0001
0100
0010
,  // measure 41
2000
0000
0000
0000
3002
0000
0000
0000
0203
0000
0000
0000
0310
1000
0100
0010
,  // measure 42
0002
0000
0000
0000
2003
0000
0000
0000
3001
0010
0100
1000
0000
1000
0100
0010
,  // measure 43
0002
0000
0203
0000
0310
0100
0001
0010
,  // measure 44
0200
0000
0000
2300
0002
0000
3003
0000
,  // measure 45
1001
0011
0110
0000
1000
0001
0100
0000
,  // measure 46
0110
0101
1001
0000
0010
0100
0001
0000
,  // measure 47
1001
1100
0110
0000
0001
1000
0010
1000
,  // measure 48
1001
0000
0000
0000
0110
0000
0000
0000
1000
0000
0001
0000
0010
0010
0100
0000
,  // measure 49
1001
0101
0110
0000
1000
0001
0010
0000
,  // measure 50
0110
0000
0011
0000
1001
0000
0000
0000
0100
0000
0010
0000
0001
0001
0100
0000
,  // measure 51
1001
0000
1010
0000
0110
0000
0000
0000
0001
0100
0010
1000
0100
0000
0010
0000
,  // measure 52
0110
0000
0000
0000
0000
0000
0000
0000
1001
0000
0000
0000
0000
0000
0000
0000
0001
0000
0000
0001
0000
0000
0100
0000
0010
0000
0000
0010
0000
0000
1000
0000
,  // measure 53
0100
0000
0000
0100
0000
0000
0100
0000
0010
0000
0000
0010
0000
0000
0010
0000
,  // measure 54
0001
0000
0000
0001
0000
0000
0001
0000
0010
0000
0001
0000
0100
0000
0010
0000
,  // measure 55
1000
0000
0000
1000
0000
0000
1000
0000
0100
0000
0000
0100
0000
0000
0100
0000
,  // measure 56
0010
0001
0010
0100
0010
0000
0100
0000
,  // measure 57
0010
0000
0000
0010
0000
0000
0010
0000
0100
0000
0000
0100
0000
0000
0100
0000
,  // measure 58
1000
0000
0000
1000
0000
0000
1000
0000
0001
0000
0010
0000
0100
0000
0010
0000
,  // measure 59
0002
0000
0003
0000
1000
0010
1000
0010
,  // measure 60
0100
0100
0001
0010
0010
0100
0100
0000
,  // measure 61
1000
0000
0000
1000
0000
0000
1000
0000
0001
0000
0000
0001
0000
0000
0001
0000
,  // measure 62
0100
0010
1000
0001
0100
0001
0010
0100
,  // measure 63
1100
0110
0011
1001
,  // measure 64
0010
1000
0100
0010
0001
0100
0010
0000
,  // measure 65
1000
0000
0000
1000
0000
0000
1000
0000
0001
0000
0000
0001
0000
0000
0001
0000
,  // measure 66
0100
0010
1000
0001
0100
0000
0010
0100
,  // measure 67
0101
0110
1010
1001
,  // measure 68
0001
1000
0001
1000
0100
0000
0110
0000
,  // measure 69
0220
0000
0000
0000
,  // measure 70
0000
0000
0330
0000
;

//---------------dance-single - ----------------
#NOTES:
     dance-single:
     :
     Beginner:
     8:
     0.236738,0.419247,0.150651,0.071361,0.000000,209.000000,190.000000,19.000000,9.000000,0.000000,0.000000,0.236738,0.419247,0.150651,0.071361,0.000000,209.000000,190.000000,19.000000,9.000000,0.000000,0.000000:
0000
0000
0000
0000
,
0000
0000
0000
0000
,
0000
0000
0000
0000
,
0001
0001
0001
0001
,
1000
1000
0100
0100
,
0010
0010
0100
0100
,
0010
0010
0100
0100
,
0001
0001
1000
1000
,
0001
0001
0010
0001
,
1000
0000
0010
0000
,
0100
0000
0010
0000
,
1000
0000
0010
0000
,
0100
0100
0100
0000
,
0001
0000
0010
0000
,
0100
0000
0010
0000
,
0001
0000
0001
0001
,
0001
0001
0010
0010
,
0001
0000
1000
0000
,
0100
0000
1000
0000
,
0001
0000
0100
0000
,
0001
0001
1000
0000
,
1000
0000
0001
0000
,
0010
0000
0001
0000
,
2000
3000
0010
0010
,
1000
1000
0001
0000
,
0010
0000
0010
0000
,
0001
0000
0001
0000
,
0100
0000
0100
0000
,
0010
0010
0010
0000
,
1000
0000
1000
0000
,
0010
0000
0010
0000
,
0100
0000
0100
0000
,
0110
0000
0110
0000
,
1000
0000
0001
0000
,
0010
0000
0001
0000
,
1000
0000
0010
0000
,
1000
1000
0001
0000
,
0001
0000
0100
0000
,
0010
0000
0100
0000
,
0110
0110
0220
0330
,
1001
1001
1001
1001
,
1000
1000
1000
1000
,
0001
0000
0001
0000
0001
1000
0001
0000
,
0010
0000
0010
0000
0010
0100
0010
0100
,
0020
0030
0220
0330
,
0100
0100
1000
1000
,
0001
0001
0010
0010
,
0001
0001
0010
0010
,
1001
0000
1001
0000
1001
0000
0001
1000
,
0100
0110
0010
0010
,
0010
0110
0100
0100
,
1000
1001
0001
0001
,
1001
1001
1000
1000
,
1000
0000
0010
0000
,
0100
0000
0010
0000
,
1000
0000
0010
0000
,
0100
0100
0100
0000
,
0001
0000
0010
0000
,
0100
0000
0010
0000
,
0001
0000
0001
0001
,
0001
0001
0010
0010
,
0001
0000
1000
0000
,
0100
0000
1000
0000
,
0001
0000
0100
0000
,
0001
0001
1000
0000
,
1000
0000
0001
0000
,
0010
0000
0001
0000
,
2000
3000
0010
0010
,
1000
1000
0001
0000
,
0220
0000
0000
0000
,
0000
0000
0330
0000
;
