#VERSION:0.83;
#TITLE:LOVE PHANTOM;
#SUBTITLE:;
#ARTIST:B'z;
#TITLETRANSLIT:;
#SUBTITLETRANSLIT:;
#ARTISTTRANSLIT:;
#GENRE:;
#CREDIT:;
#MUSIC:LOVE PHANTOM.ogg;
#BANNER:;
#BACKGROUND:;
#CDTITLE:;
#SAMPLESTART:13.985;
#SAMPLELENGTH:13.534;
#SELECTABLE:YES;
#OFFSET:-0.451;
#BPMS:0.000=133.000;
#STOPS:;
#BGCHANGES:;
#FGCHANGES:;

//--------------- dance-single - ----------------
#NOTEDATA:;
#STEPSTYPE:dance-single;
#DESCRIPTION:;
#DIFFICULTY:Hard;
#METER:12;
#RADARVALUES:0,0,0,0,0;
#NOTES:
0000
0000
0000
0000
,
0000
0000
0000
0000
,
0000
0000
0000
0000
,
0000
0000
0000
1000
,
1001
0000
0001
0000
1000
0010
0100
0000
,
0010
0000
0110
0000
1000
0001
0010
0000
,
0100
0110
1000
2002
,
0000
0000
3003
0000
0001
0100
0010
0000
,
0100
0000
0001
2000
0000
0000
0000
0000
3100
0000
0010
0000
0001
0000
0100
0000
,
0010
0100
0000
0100
0000
0000
0000
0000
0010
0000
1000
0000
0100
0000
0000
1000
,
0000
0001
0100
0001
0010
0100
1000
0100
,
2200
0000
0000
0000
3300
0000
0000
0000
1000
0000
0001
0200
0000
0000
0000
0000
,
0301
0000
1000
0200
0000
0000
0000
0000
1300
0000
0010
0000
0001
0000
0010
0000
,
2020
0000
0000
0000
3030
0000
0000
0000
0100
0000
0010
0000
0001
0000
0000
0100
,
0000
0100
0010
1000
0100
1000
0001
1000
,
0100
0100
0010
0010
0001
0001
1000
1000
,
0100
0000
0100
0000
0001
0000
0001
0000
0010
0000
0010
0000
1000
0000
0000
0100
,
0000
1000
0010
0100
0010
0100
0010
1000
,
0001
0010
0000
0002
0000
0000
0000
0000
0003
0000
0000
0000
0100
0000
0000
0010
,
0000
0000
1000
0000
0001
0000
0100
0000
1000
0000
0100
0001
0000
0000
1000
0100
,
0010
0000
0001
0100
0010
0000
1000
0100
1000
0000
0001
0000
0100
0000
0000
0010
,
0000
0000
1000
0000
0001
0010
0000
0010
0000
0000
1000
0000
0001
0000
0000
0010
,
0000
0100
1001
0000
1000
0001
0010
0000
,
0001
0000
0000
0000
1000
0000
0001
0000
1000
0000
0000
0010
0000
0000
1010
0000
,
0000
1100
0000
0000
0110
0000
0000
0000
1000
0000
0001
0000
1000
0000
0000
0000
,
0010
0000
0100
0020
0000
0000
0000
0000
1030
0000
0001
0000
0010
0000
0100
0000
,
1000
0010
0000
0100
0000
0000
0000
0000
0010
0000
0100
0000
0001
0000
0000
0010
,
0000
0010
0100
1000
0010
0001
0010
1000
,
2002
0000
0000
0000
3003
0000
0000
0000
0001
0000
0100
0020
0000
0000
0000
1030
,
0001
0010
0000
0011
0000
0000
0000
0000
0001
0000
0100
0000
1000
0000
0100
0000
,
0202
0000
0000
0000
0303
0000
0000
0000
0001
0000
0010
0000
1000
0000
0000
0010
,
0000
0001
1000
0001
0100
0010
1000
1000
,
0010
0010
0100
0100
0001
0001
0200
0000
,
1000
0000
0001
0000
1300
0100
0020
0000
,
1000
0000
0001
0000
1030
0100
2000
0000
,
0010
3020
0000
0100
0230
0000
0010
0000
,
0310
0000
0000
1000
0001
0000
1000
0000
0010
0000
0100
0000
0020
0000
0000
0000
,
1000
0001
1030
0200
,
0001
0000
1000
0000
0301
0100
0020
0000
,
0001
0000
1000
0000
0031
0010
0200
0000
,
0001
0000
0000
0000
1000
0000
0000
0000
0301
0000
0000
0000
1000
0000
0000
1000
,
0000
0000
1000
0000
0010
0000
0000
0010
0000
0000
0010
0000
0100
0000
0000
0100
,
0000
0000
0100
0000
0001
0000
0000
0001
0000
0000
0001
0000
1001
0000
0000
1100
,
0000
0000
1001
0000
0101
0000
0000
0110
0000
0000
1001
0000
1100
0000
0000
0011
,
0000
0000
0101
0000
0110
0000
0000
1010
0000
0000
1001
0000
0001
0010
0001
0000
,
1000
0100
1000
0000
0010
0100
0010
0000
0110
0000
0000
0000
1000
0100
1000
0000
,
0001
0100
0001
0000
1000
0001
1000
0000
1001
0000
0000
0000
0220
0000
0000
0000
,
0000
0000
0000
0000
,
0000
0000
0330
0000
0001
0100
0010
0000
,
1000
0100
0010
0000
0001
0100
1000
0010
,
0001
0000
1000
0000
0001
0000
0000
0000
1000
0000
0010
0000
0100
0000
0000
0100
,
0000
0100
0001
0010
1000
0010
0001
0100
,
2020
0000
0000
0000
3030
0000
0000
0010
1000
0100
0000
0100
0000
0000
0000
0000
,
1000
0010
0100
0000
0001
0010
0100
0010
,
0220
0000
0000
0000
0000
0000
0330
0000
0001
0000
0100
0000
0010
0000
1000
0100
,
0000
0000
1000
0000
0010
0000
0100
0000
0001
0000
0010
0200
0000
0000
0000
0000
,
0000
0000
0000
0000
0000
0300
0000
0000
0010
0000
0001
0000
0010
0000
0000
0000
,
0001
0000
0100
0010
0000
0000
0000
0000
1000
0000
0100
0000
0001
0000
0100
0000
,
1000
0001
0000
1000
0000
0000
0000
0000
0010
0000
0100
0000
0010
0000
0000
0010
,
0000
0010
1000
0100
0001
0100
1000
0100
,
2200
0000
0000
0000
3300
0000
0000
0000
1000
0000
0001
0200
0000
0000
0000
0000
,
0310
0000
1000
0002
0000
0000
0000
0000
0013
0000
0100
0000
0010
0000
0001
0000
,
0202
0000
0000
0000
0303
0000
0000
0000
0100
0000
0010
0000
0100
0000
0000
0110
,
0000
1000
0100
0010
0001
0100
1000
0100
,
0001
1000
0001
1000
1000
0100
0100
0001
,
0001
0010
0010
1000
1000
2002
0000
0000
,
3003
0000
0000
0000
;

//--------------- dance-single - ----------------
#NOTEDATA:;
#STEPSTYPE:dance-single;
#DESCRIPTION:;
#DIFFICULTY:Edit;
#METER:12;
#RADARVALUES:0,0,0,0,0;
#NOTES:
0000
0000
0000
0000
,
0000
0000
0000
0000
,
0000
0000
0000
0000
,
0000
0000
0000
1000
,
1001
0000
0001
0000
1000
0001
0100
0000
,
0010
0000
0110
0000
1000
0001
0010
0000
,
0100
0110
1000
2002
,
0000
0000
3003
0000
0001
0100
1000
0100
,
0001
0000
1000
0100
0000
0100
0001
0000
1000
0000
0010
0000
1000
0000
0100
0000
,
0010
0001
0000
1000
0000
0000
0000
0000
0001
0000
1000
0000
0100
0000
0000
0010
,
0000
1000
0001
0100
1000
0010
0001
0010
,
2020
0000
0000
0000
3030
0000
0000
0000
1000
0000
0010
0200
0000
0000
0000
0000
,
0310
0000
1000
0200
0000
0000
0000
0000
1300
0000
0010
0000
0001
0000
0010
0000
,
2000
0000
0000
0000
0000
0000
0000
0000
3100
0000
0010
0000
0001
0000
0000
0100
,
0000
0010
0001
1000
0100
0001
1000
1000
,
0100
0100
0010
0010
0001
0001
1000
1000
,
0100
0000
0100
0000
0001
0000
0001
0000
0010
0000
0010
0000
1000
0000
0000
0010
,
0000
0100
1000
0001
0010
1000
0001
1000
,
0001
0100
0000
0100
0000
0000
0010
0100
0010
0000
1000
0100
0010
0000
0000
0001
,
0000
0000
0100
0000
1000
0000
0100
0000
0001
0000
1000
0001
0000
0000
0010
0100
,
0010
0000
0001
0100
0010
0000
1000
0100
1000
0000
0001
0000
1000
0000
0000
0100
,
0000
0000
0001
0000
0100
1000
0000
0010
0000
0000
1000
0000
0001
0000
0000
0100
,
0000
0010
1001
0000
1000
0100
0010
0000
,
0001
0000
0000
0000
0100
0000
0010
0000
0100
0000
0000
0001
0000
0000
1000
0000
,
0000
0011
0000
0000
0110
0000
0000
0000
1000
0000
0100
0000
0001
0000
0100
0000
,
1000
0000
0001
0100
0000
0010
1000
0000
0001
0000
0100
0000
0010
0000
1000
0000
,
0001
0010
0000
0010
0000
0000
0000
0000
0001
0000
0010
0000
0100
0000
0000
0001
,
0000
1000
0010
0001
1000
0100
0001
0100
,
2200
0000
0000
0000
3300
0000
0000
0000
1000
0000
0010
0200
0000
0000
0000
0301
,
1000
0010
0000
0200
0000
0000
0000
0000
0310
0000
1000
0000
0100
0000
0010
0000
,
0022
0000
0000
0000
0033
0000
0000
0000
0001
0000
1000
0000
0100
0000
0000
0010
,
0000
1000
0001
0100
0010
1000
0010
0010
,
0001
0001
0100
0100
0010
0010
0200
0000
,
1000
0000
0001
0000
1300
0001
0020
0000
,
0001
0000
1000
0000
0031
1000
0002
0000
,
0100
0203
0000
0010
0320
0000
1000
0000
,
1030
0000
0000
0001
0100
0000
0010
0000
1000
0000
0100
0000
0020
0000
0000
0000
,
0001
0000
1000
0000
0031
0010
0200
0000
,
0001
0000
0000
0000
1000
0000
0000
0300
0001
0000
0100
0000
0002
0000
0000
0000
,
0010
0010
0013
2000
,
0100
0000
0000
0000
0100
0000
0000
0000
3100
0000
0000
0000
1000
0000
0000
0100
,
0000
0000
0001
0000
0010
0000
0000
1000
0000
0000
0001
0000
0100
0000
0000
1000
,
0000
0000
0010
0000
0001
0000
0000
1000
0000
0000
0100
0000
1000
0000
0000
1010
,
0000
0000
1000
0000
0001
0000
0000
0011
0000
0000
0100
0000
0001
0000
0000
0101
,
0000
0000
1000
0000
0010
0000
0000
0110
0000
0000
1001
0000
0010
1000
0100
0000
,
1000
0100
1000
0000
0010
0100
0010
0000
0110
0000
0000
0000
0010
0100
0010
0000
,
1000
0100
1000
0000
0001
0010
0001
0000
1001
0000
0000
0000
0220
0000
0000
0000
,
0000
0000
0000
0000
,
0000
0330
0010
0010
,
0010
0100
0100
0100
,
1000
1000
1000
0001
,
0001
0001
1000
0001
,
1000
0000
0010
0000
1000
0100
0010
0000
,
0001
0010
0100
0000
1000
0010
0001
0100
,
0220
0000
0000
0000
0000
0000
0330
0000
1000
0000
0010
0000
0100
0000
0010
1000
,
0000
0000
0001
0000
0010
0000
1000
0000
0010
0000
0001
0200
0000
0000
0000
0000
,
0000
0000
0300
0000
0001
0100
0010
1000
,
0100
0000
0010
0001
0000
0001
0010
0000
0100
0000
0010
0000
1000
0000
0100
0000
,
0001
0100
0000
1000
0000
0000
0000
0000
0001
0000
0100
0000
0010
0000
0000
0001
,
0000
1000
0100
0010
1000
0100
1000
0100
,
2200
0000
0000
0000
3300
0000
0000
0000
1000
0000
0001
0200
0000
0000
0000
0000
,
1300
0000
0001
2000
0000
0000
0000
0000
3100
0000
0001
0000
0010
0000
1000
0000
,
0220
0000
0000
0000
0330
0000
0000
0000
0001
0000
1000
0000
0010
0000
1000
0100
,
0000
1000
0100
0001
0100
1000
0010
0100
,
0100
0001
0001
1000
1000
0100
0100
0001
,
0001
0010
0010
1000
1000
2002
0000
0000
,
3003
0000
0000
0000
;
