#VERSION:0.83;
#TITLE:Knockout;
#SUBTITLE:;
#ARTIST:Tungevaag;
#TITLETRANSLIT:;
#SUBTITLETRANSLIT:;
#ARTISTTRANSLIT:;
#GENRE:;
#ORIGIN:;
#CREDIT:;
#BANNER:knockout-bn.png;
#BACKGROUND:knockout-bg.png;
#PREVIEWVID:;
#JACKET:knockout-jacket.png;
#CDIMAGE:;
#DISCIMAGE:;
#LYRICSPATH:;
#CDTITLE:;
#MUSIC:Knockout.ogg;
#OFFSET:-0.215000;
#SAMPLESTART:53.268002;
#SAMPLELENGTH:12.000000;
#SELECTABLE:YES;
#BPMS:0.000=95.000;
#STOPS:;
#DELAYS:;
#WARPS:;
#TIMESIGNATURES:0.000=4=4;
#TICKCOUNTS:0.000=4;
#COMBOS:0.000=1;
#SPEEDS:0.000=1.000=0.000=0;
#SCROLLS:0.000=1.000;
#FAKES:;
#LABELS:0.000=Song Start;
#BGCHANGES:;
#KEYSOUNDS:;
#ATTACKS:
;

//---------------dance-single - ----------------
#NOTEDATA:;
#CHARTNAME:;
#STEPSTYPE:dance-single;
#DESCRIPTION:;
#CHARTSTYLE:;
#DIFFICULTY:Beginner;
#METER:1;
#RADARVALUES:0.046340,0.054381,0.000000,0.000000,0.000000,85.000000,85.000000,0.000000,0.000000,0.000000,0.000000,0.000000,0.000000,0.000000,0.046340,0.054381,0.000000,0.000000,0.000000,85.000000,85.000000,0.000000,0.000000,0.000000,0.000000,0.000000,0.000000,0.000000;
#CREDIT:SHAYMIN;
#NOTES:
0000
0000
0000
0000
,
0000
0000
0000
0000
,
0000
0000
0000
0000
,
0000
0000
0000
0000
,
0000
0000
0000
0000
,
1000
0000
1000
0000
,
0001
0000
0001
0000
,
1000
0000
0000
0000
,
0001
0000
0000
0000
,
0010
0000
0010
0000
,
0100
0000
0100
0000
,
0010
0000
0000
0000
,
0100
0000
0000
0000
,
0010
0000
0000
0000
,
0010
0000
0000
0000
,
0100
0000
0000
0000
,
0100
0000
0000
0000
,
0001
0000
0001
0000
,
1000
0000
1000
0000
,
0001
0000
1000
0000
,
0001
0000
1000
0000
,
0010
0010
0000
0000
,
0100
0100
0000
0000
,
0010
0010
0000
0000
,
1000
0000
0001
0000
,
1000
1000
0000
0000
,
0001
0001
0000
0000
,
1000
1000
0000
0000
,
0001
0000
1000
0000
,
0001
0000
0001
0000
,
0010
0000
0100
0000
,
1000
0000
0000
0000
,
1000
0000
0000
0000
,
1000
0000
1000
0000
,
0010
0000
0100
0000
,
0001
0000
0000
0000
,
0001
0000
0000
0000
,
0010
0000
0000
0000
,
0010
0000
0000
0000
,
0100
0000
0100
0000
,
0010
0000
0010
0000
,
1000
1000
0000
0000
,
0001
0001
0000
0000
,
1000
1000
0000
0000
,
0001
0000
1000
0000
,
0100
0000
0000
0000
,
0010
0000
0000
0000
,
0001
0000
0000
0000
,
1000
0000
0000
0000
,
0000
0000
0000
0000
,
0100
0100
0000
0000
,
0010
0010
0000
0000
,
1000
0000
0001
0000
,
0010
0010
0000
0000
,
0100
0100
0000
0000
,
1000
1000
0000
0000
,
0001
0000
1000
0000
,
0001
0000
0000
0000
;

//---------------dance-single - ----------------
#NOTEDATA:;
#CHARTNAME:;
#STEPSTYPE:dance-single;
#DESCRIPTION:;
#CHARTSTYLE:;
#DIFFICULTY:Easy;
#METER:3;
#RADARVALUES:0.077415,0.108762,0.019081,0.015265,0.000000,142.000000,137.000000,5.000000,4.000000,0.000000,0.000000,0.000000,0.000000,0.000000,0.077415,0.108762,0.019081,0.015265,0.000000,142.000000,137.000000,5.000000,4.000000,0.000000,0.000000,0.000000,0.000000,0.000000;
#CREDIT:SHAYMIN;
#NOTES:
0000
0000
0000
0000
,
0000
0000
0000
0000
,
0000
0000
0000
0000
,
0000
0000
0000
0000
,
0000
0000
0000
0000
,
1000
1000
0000
0001
,
0100
0100
0000
0010
,
1000
0000
0001
0000
,
1000
0000
0001
0000
,
0010
0010
0000
0100
,
1000
1000
0000
0010
,
0100
0000
0010
0000
,
0100
0000
0010
0000
,
2000
0000
3000
0000
,
0002
0000
0003
0000
,
0010
0000
0100
0000
,
0010
0000
0100
0000
,
1001
0000
0010
0000
,
1001
0000
0100
0000
,
1000
0000
0001
0000
,
1000
0001
1000
0000
,
0010
0010
0100
0000
,
1000
1000
0001
0000
,
0100
0100
0010
0000
,
1000
1000
0001
0001
,
1000
0100
0010
0000
,
0001
0100
0010
0000
,
1000
0001
0010
0000
,
0100
0100
0100
0000
,
1000
1000
0000
0010
,
0100
0100
0000
0001
,
1000
0000
0001
0000
,
0010
0000
0001
0000
,
0100
0100
0000
0010
,
1000
1000
0000
0100
,
0001
0000
1000
0000
,
0010
0000
1000
0000
,
0110
0000
0001
0000
,
0110
0000
1000
0000
,
0001
0000
1000
0000
,
0001
1000
0001
0000
,
1000
1000
0100
0000
,
0001
0001
0100
0000
,
1000
1000
0010
0000
,
0001
0000
0010
0000
,
0200
0000
0300
0000
,
0020
0000
0030
0000
,
0100
0000
1000
0000
,
0001
0001
1000
0000
,
0000
0000
0000
1001
,
1000
0100
0010
0010
,
0001
0100
0010
0010
,
1000
1000
0001
0001
,
1000
0100
1000
0100
,
0010
0001
0010
0001
,
1000
0001
1000
0001
,
0010
0010
0100
0100
,
0010
0000
0000
0000
;

//---------------dance-single - ----------------
#NOTEDATA:;
#CHARTNAME:;
#STEPSTYPE:dance-single;
#DESCRIPTION:;
#CHARTSTYLE:;
#DIFFICULTY:Medium;
#METER:6;
#RADARVALUES:0.131387,0.141391,0.011449,0.030530,0.030530,241.000000,238.000000,3.000000,8.000000,0.000000,0.000000,0.000000,0.000000,0.000000,0.131387,0.141391,0.011449,0.030530,0.030530,241.000000,238.000000,3.000000,8.000000,0.000000,0.000000,0.000000,0.000000,0.000000;
#CREDIT:SHAYMIN;
#NOTES:
0000
0000
0000
0000
,
0000
0000
0000
0000
,
0000
0000
0000
0000
,
0000
0000
0000
0000
,
0000
0000
0000
0000
,
1000
1000
0000
0001
0001
0000
1000
0000
,
0001
0001
0000
1000
1000
0000
0001
0000
,
0010
0100
0020
0030
,
0001
1000
0002
0003
,
1000
0010
0000
1000
0010
0000
0100
0000
,
0001
0010
0000
0001
0010
0000
0100
0000
,
1000
0001
0020
0030
,
0001
1000
0200
1300
,
0010
0000
0000
0000
0000
0000
0100
0000
0000
0000
0000
0000
0010
0000
0000
0000
0000
0010
0000
0000
0000
0000
0000
0000
,
1000
0000
0000
0000
0000
0000
0001
0000
0000
0000
0000
0000
1000
0000
0000
0000
0000
1000
0000
0000
0000
0000
0000
0000
,
0100
0000
0000
0000
0000
0000
0010
0000
0000
0000
0000
0000
0001
0000
0000
0000
0000
1000
0000
0000
0000
0000
0000
0000
,
0010
0000
0100
0000
0010
0010
0010
0000
,
1000
0000
0000
0000
0000
0000
1001
0000
0000
0000
0000
0000
1000
0000
0000
0000
0000
1000
0000
0000
0000
0000
0000
0000
,
0001
0000
0000
0000
0000
0000
1001
0000
0000
0000
0000
0000
0001
0000
0000
0000
0000
0001
0000
0000
0000
0000
0000
0000
,
1000
0000
0000
0000
0000
0000
0100
0000
0000
0000
0000
0000
0010
0000
0000
0000
0000
0001
0000
0000
0000
0000
0000
0000
,
0100
0010
0100
0010
0100
0000
0000
0000
,
1000
0000
0001
0000
0100
0100
0010
0000
,
1000
0000
0001
0000
0010
0010
0100
0000
,
1000
0000
0100
0000
0010
0001
0010
0000
,
0001
0001
1000
1000
0001
0000
1000
0000
,
0001
0000
0100
0000
0010
1000
0100
0000
,
1000
0000
0010
0000
0100
0001
0010
0000
,
0001
0000
1000
0000
0001
1000
0100
0000
,
0010
0010
0100
0100
0010
0000
0000
0000
,
0001
0100
0000
1000
0100
0000
0010
0000
,
0001
0010
0000
1000
0010
0000
0100
0000
,
0001
1000
0200
0300
,
1000
0001
0020
0031
,
1000
0100
0000
0010
0001
0000
1000
0000
,
0001
0100
0000
0010
1000
0000
0001
0000
,
1000
0100
2000
3000
,
0001
0100
0002
1003
,
0100
0000
0000
0000
0000
0000
1000
0000
0000
0000
0000
0000
0010
0000
0000
0000
0000
0100
0000
0000
0100
0000
0000
0000
,
0001
0000
0000
0000
0000
0000
1000
0000
0000
0000
0000
0000
0001
0000
0000
0000
0000
1000
0000
0000
1000
0000
0000
0000
,
0010
0000
0100
0000
0001
0001
0001
0000
,
1000
0100
1000
0100
0010
0000
0000
0000
,
0001
0000
1000
0000
0010
1000
0010
0000
,
1000
0000
0001
0000
0010
0001
0010
0000
,
0100
0000
1000
0000
0001
1000
0100
0000
,
0010
0010
0100
0100
0010
0000
0001
0000
,
1000
0000
0000
0000
0000
0000
0000
0000
0000
0000
0000
0000
0010
0000
0000
0000
0000
0100
0000
0000
0100
0000
0000
0000
,
0001
0000
0000
0000
0000
0000
0000
0000
0000
0000
0000
0000
1000
0000
0000
0000
0000
0100
0000
0000
0100
0000
0000
0000
,
0010
0000
0001
0000
,
1000
0100
0010
0001
,
0000
1000
0000
1001
,
0001
0000
0010
0000
0100
0010
0100
0000
,
1000
0000
0010
0000
0100
0010
0100
0000
,
0001
1000
0100
0010
0001
0000
1000
0000
,
0001
0000
0100
0000
1000
0100
0001
0000
,
1000
0000
0100
0000
0001
0100
1000
0000
,
0010
0000
0100
0000
0010
0010
0100
0000
,
0001
0000
0000
0010
0000
0000
0100
0000
0000
1000
0000
0000
0001
0000
0000
0000
0000
0100
0000
0000
0010
0000
0000
0000
,
1000
0000
0000
0000
;

//---------------dance-single - ----------------
#NOTEDATA:;
#CHARTNAME:;
#STEPSTYPE:dance-single;
#DESCRIPTION:;
#CHARTSTYLE:;
#DIFFICULTY:Hard;
#METER:10;
#RADARVALUES:0.203895,0.261029,0.141200,0.068692,0.099222,374.000000,337.000000,37.000000,18.000000,0.000000,0.000000,0.000000,0.000000,0.000000,0.203895,0.261029,0.141200,0.068692,0.099222,374.000000,337.000000,37.000000,18.000000,0.000000,0.000000,0.000000,0.000000,0.000000;
#CREDIT:SHAYMIN;
#NOTES:
0000
0000
0000
0000
,
0000
0000
0000
0000
,
0000
0000
0000
0000
,
0000
0000
0000
0000
,
0000
0000
0000
0000
,
1000
0001
0000
0010
0001
0000
1000
0100
,
1000
0010
0000
0100
0001
0000
1000
0100
,
0010
0001
0000
0200
0000
0010
0300
0010
,
1000
0001
0000
0020
0000
0100
0130
0000
,
1000
0001
0000
0010
0100
0000
1000
0010
,
0100
0001
0000
1000
0100
0000
1000
0010
,
0100
0001
0000
0020
0000
0100
0030
0100
,
1000
0010
0000
0200
0000
0010
0310
0000
,
2000
0000
0000
0000
0000
0000
3001
0000
0000
0000
0000
0000
0100
0000
0000
0000
0000
0010
0000
0000
0100
0000
0000
0000
,
0002
0000
0000
0000
0000
0000
1003
0000
0000
0000
0000
0000
0100
0000
0000
0000
0000
0010
0000
0000
0100
0000
0000
0000
,
2000
0000
3010
0000
0100
0001
1000
0000
,
0100
0000
0000
0010
0000
0000
0100
0000
0000
0010
0000
0000
0001
0000
0000
0100
0000
0010
0000
0000
0010
0000
0000
0000
,
1000
0000
0000
0100
0000
0000
1000
0000
0000
0000
0000
0000
0010
0000
0000
0100
0000
0001
0000
0000
0001
0000
0000
0000
,
1000
0000
0000
0100
0000
0000
0010
0000
0000
0000
0000
0000
0100
0000
0000
1000
0000
0001
0000
0000
0001
0000
0000
0000
,
0100
0010
1000
0001
0010
0100
1000
0001
,
0010
0000
0000
0010
0000
0000
0100
0000
0000
0100
0000
0000
0010
0000
0000
0000
0000
0010
0000
0000
0010
0000
0000
0000
,
1001
0000
0000
0100
0000
0000
1001
0000
0000
0000
0000
0000
0010
0000
0000
1000
0000
0001
0000
0000
1000
0000
0000
0000
,
1100
0000
0000
0001
0000
0000
1100
0000
0000
0000
0000
0000
0001
0000
0000
0100
0000
0010
0000
0000
1000
0000
0000
0000
,
0110
0000
0000
0100
0000
0000
0110
0000
0000
0000
0000
0000
0010
0000
0000
0001
0000
1000
0000
0000
0010
0000
0000
0000
,
0100
0000
0000
0001
0000
0000
0100
0000
0000
0001
0000
0000
1000
0000
0000
0100
0000
0010
0000
0000
0010
0000
0000
0000
,
1001
0000
0000
0001
0000
0000
1001
0000
0000
1000
0000
0000
0100
0000
0000
0010
0000
0001
0000
0000
1000
0000
0000
0000
,
1010
0000
0000
0010
0000
0000
1010
0000
0000
1000
0000
0000
0001
0000
0000
0010
0000
0100
0000
0000
1000
0000
0000
0000
,
0101
0000
0000
0100
0000
0000
0110
0000
0000
0010
0000
0000
1000
0000
0000
0001
0000
0010
0000
0000
0000
0000
0000
0000
,
0010
0001
0010
0001
1000
0000
0000
0000
,
0100
1000
0000
0010
0100
0000
0001
1000
,
0100
1000
0000
0010
0100
0000
0001
0010
,
0001
0100
0010
2000
0000
0001
3000
0001
,
1000
0100
0000
0020
0000
0100
0130
0000
,
1000
0010
1000
0100
1000
0010
0100
0000
,
0001
0010
0001
0100
0001
0010
0100
0000
,
1000
0001
0100
0020
0000
1000
0030
1000
,
0001
0010
0000
0200
0000
0010
0310
0000
,
0002
0000
0000
0000
0000
0000
1003
0000
0000
0000
0000
0000
0100
0000
0000
0010
0000
0100
0000
0000
0010
0000
0000
0000
,
0002
0000
0000
0000
0000
0000
1003
0000
0000
0000
0000
0000
0010
0000
0000
0100
0000
0010
0000
0000
0100
0000
0000
0000
,
0001
0010
0001
1000
0010
1000
0001
0100
,
0010
0000
0000
0010
0000
0000
1000
0000
0000
1000
0000
0000
0001
0000
0000
1000
0000
0001
0000
0000
0001
0000
0000
0000
,
0110
0000
0000
1000
0000
0000
0110
0000
0000
0000
0000
0000
0001
0000
0000
1000
0000
0100
0000
0000
1000
0000
0000
0000
,
0110
0000
0000
0001
0000
0000
0110
0000
0000
0000
0000
0000
1000
0000
0000
0001
0000
0010
0000
0000
0001
0000
0000
0000
,
0110
0000
0000
0100
0000
0000
0101
0000
0000
0000
0000
0000
1000
0000
0000
0100
0000
0010
0000
0000
0001
0000
0000
0000
,
1000
0000
0000
0010
0000
0000
0100
0000
0000
0010
0000
0000
1000
0000
0000
0001
0000
0010
0000
0000
0010
0000
0000
0000
,
0100
1000
0020
0130
,
0100
0001
0020
0130
,
1000
0001
0020
0130
,
1000
0001
1000
0001
0010
0100
0010
0000
,
0001
1000
0001
0110
,
1001
0000
0000
1000
0000
0000
1100
0000
0000
0100
0000
0000
0010
0000
0000
0001
0000
1000
0000
0000
0001
0000
0000
0000
,
0110
0000
0000
0100
0000
0000
0101
0000
0000
0001
0000
0000
1000
0000
0000
0100
0000
1000
0000
0000
0000
0010
0000
0000
,
0110
0000
0000
0110
0000
0000
1001
0000
0000
1001
0000
0000
0001
0000
0000
1000
0000
0100
0000
0000
1000
0000
0000
0000
,
1010
0000
0000
1000
0000
0000
1010
0000
0000
0010
0000
0000
0100
0000
0000
0001
0000
1000
0000
0000
0001
0000
0000
0000
,
0011
0000
0000
0010
0000
0000
0011
0000
0000
0001
0000
0000
1000
0000
0000
0001
0000
1000
0000
0000
0001
0000
0000
0000
,
0110
0000
0000
0100
0000
0000
0110
0000
0000
0010
0000
0000
1000
0000
0000
0001
0000
0010
0000
0000
0100
0000
0000
0000
,
1100
0000
0000
1100
0000
0000
0011
0000
0000
0011
0000
0000
1000
0000
0000
0010
0000
0200
0000
0000
0020
0000
0000
0000
,
0330
0000
0000
0000
;

//---------------dance-single - ----------------
#NOTEDATA:;
#CHARTNAME:;
#STEPSTYPE:dance-single;
#DESCRIPTION:;
#CHARTSTYLE:;
#DIFFICULTY:Challenge;
#METER:12;
#RADARVALUES:0.266044,0.304534,0.194627,0.106854,0.248054,488.000000,437.000000,51.000000,28.000000,0.000000,0.000000,0.000000,0.000000,0.000000,0.266044,0.304534,0.194627,0.106854,0.248054,488.000000,437.000000,51.000000,28.000000,0.000000,0.000000,0.000000,0.000000,0.000000;
#CREDIT:SHAYMIN;
#NOTES:
// measure 0
0000
0000
0000
0000
,  // measure 1
0000
0000
0000
0000
,  // measure 2
0000
0000
0000
0000
,  // measure 3
0000
0000
0000
0000
,  // measure 4
0000
0000
0000
0000
,  // measure 5
1000
0000
0100
0000
0010
0000
0100
0000
1000
0000
0000
0000
0001
0100
0001
0000
,  // measure 6
0010
0000
0100
0000
1000
0000
0100
0000
0010
0000
0000
0000
0001
1000
0001
0000
,  // measure 7
0100
0010
1000
0200
0000
1000
0300
1000
,  // measure 8
0010
0100
0001
2000
0000
0100
3100
0000
,  // measure 9
0010
0000
0001
0000
0010
0000
0100
0000
0010
0000
0000
0000
0001
1000
0001
0000
,  // measure 10
0100
0000
0010
0000
1000
0000
0010
0000
0100
0000
0000
0000
0001
1000
0001
0000
,  // measure 11
0010
0100
1000
0020
0000
0100
0030
0100
,  // measure 12
0001
1000
0100
2000
0000
0010
3020
0000
,  // measure 13
0230
0000
0000
0000
0000
0000
0301
0000
0000
0000
0000
0000
0010
0000
0001
1000
0000
0001
0000
0000
0100
0000
0000
0000
,  // measure 14
0020
0000
0000
0000
0000
0000
1030
0000
0000
0000
0000
0000
0010
0000
1000
0001
0000
1000
0000
0000
0100
0000
0000
0000
,  // measure 15
0020
0000
0000
0000
0000
0000
0032
0000
0000
0000
0000
0000
1003
0000
0000
0010
0000
0200
0000
0000
0000
0300
0000
0000
,  // measure 16
1010
0000
0000
0100
0000
0000
1001
0000
0000
0100
0000
0000
0001
0000
0010
0100
0000
0010
0000
0000
0001
0000
0000
0000
,  // measure 17
1000
0000
0000
0010
0000
0000
1000
0000
0000
0100
0000
0000
1000
0000
1000
0010
0000
0100
0000
0000
0001
0000
0000
0000
,  // measure 18
0001
0000
0000
0010
0000
0000
0001
0000
0000
0100
0000
0000
0001
0000
0001
0010
0000
0100
0000
0000
1000
0000
0000
0000
,  // measure 19
0010
0000
0000
0100
0000
0000
0010
0000
0000
1000
0000
0000
0001
0000
0000
0010
0000
0100
0000
0000
0000
0000
0000
0000
,  // measure 20
1100
0000
0000
0010
0000
0000
1001
0000
0000
0010
0000
0000
0101
0000
1000
0100
0000
0010
0000
0000
0010
0000
0000
0000
,  // measure 21
0011
0000
0000
0001
0000
0000
1100
0000
0000
1000
0000
0000
0010
0000
0100
0001
0000
1000
0000
0000
1000
0000
0000
1000
,  // measure 22
0100
0000
0000
0010
0000
0000
0011
0000
0000
0001
0000
0000
0100
0000
0010
1000
0000
0100
0000
0000
0100
0000
0000
0010
,  // measure 23
0001
0000
0000
1000
0000
0000
1010
0000
0000
0010
0000
0000
0100
0000
0001
1000
0000
0001
0000
0000
0100
0000
0000
0000
,  // measure 24
1010
0000
0000
0110
0000
0000
0101
0000
0000
0110
0000
0000
1000
0000
0001
0100
0000
0001
0000
0000
0010
0000
0000
0100
,  // measure 25
1000
0000
0010
1000
0000
0000
1010
0000
0000
1000
0000
0000
0001
0000
0010
0001
0000
0100
0000
0000
0010
0000
0000
1000
,  // measure 26
0001
0000
0010
0001
0000
0000
0011
0000
0000
0001
0000
0000
0100
0000
0010
1000
0000
0001
0000
0000
1000
0000
0000
0100
,  // measure 27
0010
0000
0001
0100
0000
0000
0110
0000
0000
0010
0000
0000
1000
0000
0001
1000
0000
0020
0000
0000
0000
0030
0000
0000
,  // measure 28
0110
0000
0000
0101
0000
0000
0110
0000
0000
1010
0000
0000
0001
0000
0010
0100
0000
1000
0000
0000
0010
0000
0000
0000
,  // measure 29
0100
0000
0001
0000
1000
0000
0001
0000
0100
0000
0000
0000
0010
0100
0010
0000
,  // measure 30
1000
0000
0001
0000
0010
0000
0001
0000
1000
0000
0000
0000
0010
0100
0010
0000
,  // measure 31
1000
0100
0010
0002
0000
0100
0003
0100
,  // measure 32
0010
1000
0001
2000
0000
0001
3001
0000
,  // measure 33
1000
0000
0100
0000
0001
0000
0100
0000
1000
0000
0000
0000
0001
1000
0001
0000
,  // measure 34
1000
0000
0010
0000
0001
0000
0010
0000
1000
0000
0000
0000
0001
1000
0001
0000
,  // measure 35
0010
0100
1000
0020
0000
0100
0030
0100
,  // measure 36
0001
1000
0100
0020
0000
0001
0032
0000
,  // measure 37
2003
0000
0000
0000
0000
0000
3100
0000
0000
0000
0000
0000
1000
0000
0010
0100
0000
0010
0000
0000
1000
0000
0000
0001
,  // measure 38
0010
0000
0000
0100
0000
0000
1100
0000
0000
1000
0000
0000
0010
0000
0100
0001
0000
1000
0000
0000
0001
0000
0000
0010
,  // measure 39
0001
0100
0001
0010
0100
1000
0010
1000
,  // measure 40
1100
0000
0000
0101
0000
0000
1100
0000
0000
0101
0000
0000
1100
0000
0001
0100
0000
0010
0000
0000
0010
0000
0000
1000
,  // measure 41
0001
0000
0000
0010
0000
0000
0110
0000
0000
0100
0000
0000
1000
0000
0010
0100
0000
0001
0000
0000
1000
0000
0000
0001
,  // measure 42
0010
0000
0000
0100
0000
0000
1100
0000
0000
1000
0000
0000
0010
0000
0100
0010
0000
1000
0000
0000
0001
0000
0000
0010
,  // measure 43
0100
0000
0000
1000
0000
0000
1001
0000
0000
0001
0000
0000
1000
0000
0010
0100
0000
0001
0000
0000
0001
0000
0000
0000
,  // measure 44
0011
0000
0000
0110
0000
0000
1100
0000
0000
0110
0000
0000
0001
0000
1000
0010
0000
0100
0000
0000
0001
0000
0000
1000
,  // measure 45
0002
0000
0000
0000
0000
0000
1000
0000
0000
0000
0000
0000
0023
0000
0000
0000
0000
0100
0000
0000
0130
0000
0000
0000
,  // measure 46
2000
0000
0000
0000
0000
0000
0001
0000
0000
0000
0000
0000
3020
0000
0000
0000
0000
0100
0000
0000
0130
0000
0000
0000
,  // measure 47
2000
0000
0000
0000
0000
0000
3200
0000
0000
0000
0000
0000
1300
0000
0000
0010
0000
0200
0000
0000
0000
0300
0000
0000
,  // measure 48
0101
0000
0000
0110
0000
0000
1010
0000
0000
1001
0000
0000
1000
0000
0100
0010
0000
0001
0000
0000
1000
0000
0000
0000
,  // measure 49
0010
0000
0000
0000
0000
0000
0100
0000
0000
0000
0000
0000
0010
0000
1000
0001
0000
1000
0100
0000
0010
0000
0000
0000
,  // measure 50
0011
0000
0001
0100
0000
0000
1010
0000
1000
0100
0000
0000
0010
0000
0001
1000
0000
0001
0000
0000
0010
0000
0000
0100
,  // measure 51
1000
0000
1000
0010
0000
0000
0101
0000
0001
1000
0000
0000
0001
0000
0010
0100
0000
2000
0000
0000
0000
3010
0000
0000
,  // measure 52
0110
0000
0000
1001
0000
0000
0110
0000
0000
1001
0000
0000
0010
0000
1000
0001
0000
0010
0000
0000
0010
0000
0000
0001
,  // measure 53
1000
0000
0010
0100
0000
0000
1010
0000
1000
0100
0000
0000
0010
0000
0001
1000
0000
0001
0000
0000
0010
0000
0000
0001
,  // measure 54
0100
0000
0010
1000
0000
0000
1010
0000
1000
0100
0000
0000
1000
0000
0010
0100
0000
0001
0000
0000
0010
0000
0000
0001
,  // measure 55
0100
0000
0010
0100
0000
0000
0101
0000
0001
1000
0000
0000
0100
0000
1000
0010
0000
0200
0000
0000
0000
0301
0000
0000
,  // measure 56
0101
0000
0000
1010
0000
0000
1100
0000
0000
0011
0000
0000
0001
0000
1000
0010
0000
0200
0000
0000
0020
0000
0000
0000
,  // measure 57
0330
0000
0000
0000
;
