#VERSION:0.83;
#TITLE:Knight Rider;
#SUBTITLE:;
#ARTIST:USAO;
#TITLETRANSLIT:;
#SUBTITLETRANSLIT:;
#ARTISTTRANSLIT:;
#GENRE:;
#ORIGIN:;
#CREDIT:;
#BANNER:;
#BACKGROUND:;
#PREVIEWVID:;
#JACKET:Knight Rider-jacket.png;
#CDIMAGE:;
#DISCIMAGE:;
#LYRICSPATH:;
#CDTITLE:;
#MUSIC:Knight Rider.ogg;
#OFFSET:-0.230000;
#SAMPLESTART:88.996368;
#SAMPLELENGTH:15.000004;
#SELECTABLE:YES;
#BPMS:0.000=200.000,
104.000=100.000,
120.000=200.000,
215.000=100.000,
231.000=200.000,
287.000=100.000,
291.000=200.000;
#STOPS:120.000=0.150,
183.500=0.150,
323.000=0.150,
354.500=0.150;
#DELAYS:;
#WARPS:;
#TIMESIGNATURES:0.000=4=4;
#TICKCOUNTS:0.000=4;
#COMBOS:0.000=1;
#SPEEDS:0.000=1.000=0.000=0;
#SCROLLS:0.000=1.000;
#FAKES:;
#LABELS:0.000=Song Start;
#BGCHANGES:;
#KEYSOUNDS:;
#ATTACKS:
;

//---------------dance-single - ----------------
#NOTEDATA:;
#CHARTNAME:;
#STEPSTYPE:dance-single;
#DESCRIPTION:;
#CHARTSTYLE:;
#DIFFICULTY:Hard;
#METER:16;
#RADARVALUES:0.809238,1.090185,0.350151,0.505774,0.322917,728.000000,683.000000,45.000000,65.000000,0.000000,0.000000,0.000000,0.000000,0.000000,0.809238,1.090185,0.350151,0.505774,0.322917,728.000000,683.000000,45.000000,65.000000,0.000000,0.000000,0.000000,0.000000,0.000000;
#CREDIT:;
#NOTES:
0000
0000
0000
0000
,
0000
0000
0000
0000
,
2002
0000
0000
3003
,
0220
0000
0000
0330
,
2020
0000
0000
3030
,
0202
0000
0300
0013
,
1001
1000
0100
0000
1001
0001
0100
0000
,
0110
0010
1000
0000
0110
0100
0001
0000
,
1000
0000
0100
0000
0010
0000
0100
0000
1000
0000
0001
0000
0100
0010
0100
0010
,
0200
0000
0320
0000
2030
0000
3001
0001
,
1001
1000
0010
0100
0001
0010
0100
0000
,
1000
0010
0100
0001
0010
0100
0010
0000
,
0001
0100
0010
1000
0100
1000
0010
0000
,
0001
0010
0100
1000
0100
0000
1001
0000
,
1000
0010
0100
0010
1000
0100
0010
0001
,
0100
0010
1000
0100
1000
0001
0100
0010
,
0220
0330
2002
3003
,
1000
0000
0001
0000
0100
0000
0010
0000
1000
0001
1000
0001
0010
0000
0000
0000
,
0001
0000
0010
0000
0100
1000
0100
0000
0010
0000
0001
0000
0100
0000
0000
0000
,
0010
0000
1000
0000
0001
0010
0001
0000
0100
0000
0100
0000
0010
0000
0100
0001
,
1000
0000
0000
0000
0101
0000
0000
0000
1000
0000
0010
0000
0100
0010
1000
0000
,
0100
0010
0001
0100
0010
0001
0010
0100
,
0001
0001
0001
0000
1000
0010
0100
0010
,
1000
0100
0001
0100
1000
0010
0100
0000
,
0001
0010
0100
1000
0001
0100
0010
1000
,
0001
0010
0001
0000
1000
0010
1000
0000
0200
0000
0000
0000
0310
0000
0000
0000
,
2001
0000
0000
0000
3010
0000
0000
0000
0100
0000
0001
0000
0100
0000
0001
0100
0010
0000
0000
0000
1000
0000
0100
0000
1000
0000
0000
0000
0020
0000
0000
0000
,
0130
0000
0000
0000
0100
0000
0001
0000
0010
0000
0000
0000
0001
0000
1000
0010
1000
0000
0000
0000
0100
0000
0010
0001
0010
0000
0100
0000
1000
0000
0000
0000
,
0010
0000
0100
0000
0010
0000
1000
0000
0000
0000
1000
0000
0100
0000
1000
0100
0010
0000
0000
0000
0001
0000
0000
0000
0100
0000
0000
0000
0010
0000
0000
0000
,
1000
0000
0010
0000
0000
0000
1000
0000
0010
0000
0100
0000
0001
0000
0010
0001
0010
0000
0000
0000
0100
0000
0000
0000
1000
0010
1000
0000
0100
0000
0100
0000
,
0110
1001
0000
1000
0010
0100
0010
1000
,
0100
0001
0100
1000
0010
0001
0010
1000
,
0000
0000
0001
0000
0100
0000
0010
0000
0100
0000
0001
0000
0010
0100
0010
0000
,
0100
0000
0010
0000
0000
0000
1000
0001
1000
0000
0001
0000
0100
0010
0100
0000
,
0000
1000
0010
0100
0001
0010
0000
0001
,
0100
0010
1000
0100
0010
0100
1000
0001
,
0100
1000
0001
0010
1000
0001
0100
0020
,
0000
1000
0000
0230
0000
0301
0001
1001
,
0000
1000
0010
0100
0001
0010
0000
2000
,
0010
3010
1000
0002
0100
0103
0001
1000
,
0010
1000
0100
0010
0100
1000
0000
0020
,
1000
0000
1030
0000
0010
0000
0200
0000
0001
0000
0301
0000
0100
0001
0010
0000
,
0010
0010
0000
0001
0100
1000
0001
1000
,
0100
0001
0010
1000
0010
0100
1000
0010
,
0000
0100
0001
0010
0100
1000
0010
0200
,
0000
0000
0301
0000
0000
0000
1000
0100
0010
0000
0110
0000
0000
0000
1001
0000
,
0110
0000
1000
0010
0100
0001
0020
0001
,
0031
0010
0200
1000
1300
0000
1000
0010
,
0100
0001
0010
0100
0010
0001
0100
1000
,
0100
0001
0010
0100
0010
0000
0001
0100
,
0010
0000
1000
1000
0010
0000
0100
0001
,
0010
0000
0000
0000
0100
0000
0100
0000
0010
0000
0100
1000
0010
0000
0100
0000
,
0001
0010
0100
1000
0010
0100
0002
0000
,
0000
0000
0000
0000
0003
0000
0000
0000
0000
0000
0000
0000
1000
0020
0000
0100
,
0000
0130
0010
1000
0100
0020
0000
0001
0000
0031
0010
0000
0001
0200
0000
0010
,
0000
0310
0100
0001
0010
0200
0000
1000
0000
1300
0100
0000
2000
0000
0000
3002
,
0000
1003
0001
0100
0010
2000
0000
0100
0000
3100
1000
0000
0001
0000
0100
0000
,
0010
0000
1000
0000
0100
0010
0001
0010
0100
1000
0010
0100
0120
0000
0000
0000
,
1000
0000
0000
0100
1030
0000
0210
0000
,
0001
0000
0000
0010
0301
0000
2001
0000
,
0010
0000
0000
0001
3010
0000
1002
0000
,
0010
0000
0000
1000
0013
0000
2001
0000
,
3100
0102
0013
2100
,
3010
0210
0301
1100
,
0101
0000
0000
0000
1000
0000
0100
0000
0010
0001
0010
0001
0200
0000
0000
0000
,
0320
0000
2030
0000
3001
0001
1001
1000
,
0010
0100
0001
0010
1000
0010
0001
0100
,
0010
0000
1000
0000
0100
0000
0001
0000
0100
1000
0100
0000
1000
0000
0010
0000
,
0100
0001
0010
0100
0001
0100
1000
0010
,
0001
0010
0100
0001
1001
0000
1000
0100
,
0010
1000
0010
0100
0110
0000
0001
0100
,
0010
0001
0010
0100
1000
0100
0002
0000
,
0013
0000
0100
0000
0010
0000
0001
0100
0001
0000
0000
0000
1000
0000
0000
0000
0010
0100
0010
0000
0100
0000
0100
0000
0001
0000
0000
0000
0100
0000
0000
0000
,
1000
0100
0010
1000
0100
0010
0001
0100
,
0010
0001
0010
0100
0001
1000
0100
0010
,
0100
1000
0001
0100
0010
0001
0010
0100
,
1000
0100
0001
0010
0100
0100
1000
0000
,
0001
0100
0010
0100
1000
0100
0001
0000
,
1000
0000
0010
0000
0001
0000
0010
0000
0100
0000
0010
0100
0002
0000
0000
0000
,
0000
0000
1003
0000
0020
0000
0000
0000
0000
0000
1030
0010
0100
0000
0001
0000
,
1000
0000
0100
0000
0010
0001
0010
0000
0011
0000
0000
0000
0110
0000
1001
0000
,
1000
0100
0010
0001
0100
0020
1000
0130
,
0010
2000
0100
3010
0000
0001
0100
0010
,
1000
0000
0100
0000
0010
0000
0001
0100
0001
0000
2000
0000
0000
0000
0001
0000
,
0000
0000
0100
0000
3100
0000
1100
0000
1000
0100
0010
0000
0010
0000
0011
0000
,
0000
0100
0010
1010
0000
1000
0100
0110
,
0000
0001
1000
1100
0000
2020
0000
3030
,
0000
0202
0000
0303
0000
1000
0100
0010
,
0001
0000
1000
0000
1000
0000
0001
0100
0001
0100
0010
0000
1001
0000
0000
0000
,
1000
0100
0010
0100
1000
0001
0010
1000
,
0010
0001
0100
0000
0010
1000
0100
0001
,
0100
0010
0001
0100
0020
0000
2030
0000
,
3002
0000
0103
0000
1000
0010
0100
0002
,
0000
1003
0001
0010
1000
0010
0001
0200
,
0000
0310
1000
0100
0010
0100
1000
0001
,
0100
0000
0010
0000
1000
0000
0100
0000
0010
0001
0010
0001
0010
0100
0010
0100
,
2000
3020
0130
0000
2002
3003
0000
0000
;

//---------------dance-single - ----------------
#NOTEDATA:;
#CHARTNAME:;
#STEPSTYPE:dance-single;
#DESCRIPTION:;
#CHARTSTYLE:;
#DIFFICULTY:Challenge;
#METER:18;
#RADARVALUES:1.011547,1.428519,0.334589,0.482430,0.785894,910.000000,867.000000,43.000000,62.000000,0.000000,0.000000,0.000000,0.000000,0.000000,1.011547,1.428519,0.334589,0.482430,0.785894,910.000000,867.000000,43.000000,62.000000,0.000000,0.000000,0.000000,0.000000,0.000000;
#CREDIT:;
#NOTES:
0000
0000
0000
0000
,
0000
0000
0000
0000
,
2002
0000
0000
3003
,
0220
0000
0000
0330
,
2020
0000
0000
3030
,
0202
0000
0300
0013
,
1100
1000
0100
0010
0011
0001
0100
0010
,
1010
1000
0100
0010
0110
0100
0010
0001
,
1000
0000
0010
0000
0100
0000
0001
0000
1000
0000
0100
0000
0010
0001
0010
0001
,
0200
0000
0000
0000
0320
0000
0000
0000
2030
0000
0000
0000
3002
0003
0002
0003
,
1001
1000
0100
0010
0100
1000
0010
0100
,
0010
0000
1000
0000
0100
1000
0100
0000
0010
0000
0001
0000
0010
0100
0010
0000
,
0001
1000
0010
0100
0010
1000
0100
0010
,
0001
0000
0100
0010
1000
0000
0100
0010
0001
0000
1000
0000
0001
0100
0010
1000
,
0100
1000
0001
0010
0100
0010
0001
1000
,
0010
0000
0100
0000
0010
1000
0010
0000
1000
0000
0100
0000
0010
0001
0010
0000
,
0220
0330
2002
3003
,
1000
0000
1000
0000
0100
0000
0100
0000
0010
0001
0010
0001
0100
0000
0000
0000
,
0001
0000
0010
0000
0100
1000
0100
0000
1000
0000
0010
0000
0100
0001
0100
0000
,
0010
0000
1000
0100
1000
0000
0001
0100
0001
0000
1000
0000
1000
0000
0001
0010
,
0100
0000
1000
0000
0010
0100
0010
0000
1000
0000
0001
0000
0010
0100
0010
0000
,
0001
0000
1000
0010
0001
0000
0001
0010
1000
0000
0100
0000
0010
0001
0010
0100
,
1000
0000
1000
0000
1000
0000
0010
0000
0100
0000
0001
0010
0001
0000
0100
0000
,
0001
0000
0100
0000
0010
0000
1000
0000
0100
0000
0010
0001
0010
0000
0100
0000
,
1000
0100
0010
0000
0001
0100
0010
0000
1000
0010
0100
0000
0001
0010
0100
0000
,
1000
0100
1000
0100
0010
0001
0010
0001
0200
0000
0000
0000
0310
0000
0000
0000
,
1001
0000
0000
0000
1000
0000
0010
0000
0100
0000
0100
0000
0100
0000
0010
1000
0100
0000
0010
0000
0001
0000
0001
0000
2000
0000
0000
0000
3002
0000
0000
0000
,
1003
0000
0010
0000
0100
0000
0000
0000
0001
0000
0010
0000
0100
1000
0010
0100
0001
0000
0100
0000
0001
0000
0010
0000
0100
1000
0100
0000
0010
0000
0001
0100
,
0010
0000
1000
0000
0100
0000
0001
0000
0000
0000
0001
0000
0100
0000
1000
0010
0100
0000
0001
0000
0010
0000
0100
0000
0001
0000
0100
0000
0010
0000
0001
0000
,
1000
0000
0010
0000
0001
0000
1000
0000
0100
0000
0001
0000
1000
0100
0010
0001
0100
0000
0010
0000
1000
0000
0100
0010
0100
0000
1000
0000
0010
0000
0010
0000
,
0110
1001
0001
0100
0010
1000
0010
0100
,
0001
0100
1000
0000
1000
0100
0001
0000
1000
0000
0100
0010
0001
0010
0100
0000
,
1000
0000
0010
0000
0100
0000
0001
0000
0010
0000
0001
0100
0010
1000
0100
0000
,
0100
0000
0110
0000
0000
0000
0001
0010
0100
0000
1100
0000
1000
0001
0100
0000
,
0010
1000
0100
0001
0100
1000
0001
0010
,
1000
0000
0010
0000
0001
0000
0100
0000
0010
0000
1000
0000
0100
0000
1000
0010
,
1000
0000
0001
0010
0001
0000
1000
0100
1000
0000
0001
0100
0001
0000
2000
0000
,
0000
0010
0000
3200
0000
0310
0010
0110
,
0100
0000
1000
0000
0001
0000
0010
0000
0001
0000
1000
0100
0010
0001
1000
0000
,
0010
0000
1000
0010
0100
0001
0010
0000
0100
0000
0010
0001
0010
0100
1000
0000
,
0010
1000
0100
0001
0100
1000
0010
0200
,
0001
0000
0301
0000
0100
0000
0020
0000
1000
0000
1030
0000
0010
1000
0100
0000
,
0100
0000
0110
0000
0000
0000
0001
0000
1000
0000
0010
0100
0010
0100
0001
0000
,
0100
0000
0010
1000
0010
1000
0001
0000
0100
0000
0010
1000
0010
0100
0001
0000
,
1000
0100
0001
0100
1000
0010
0100
0001
,
0100
0000
1000
0000
0100
0000
0001
0010
0100
0000
0110
0000
0000
0000
1001
0000
,
0110
0100
0002
0010
0013
0001
1000
0010
,
0100
0000
0001
0000
2000
0000
0010
0000
3010
0000
1000
0010
0100
0000
0001
0000
,
0010
1000
0010
0001
0100
0010
0200
0001
,
0301
0000
0100
0000
0020
0000
1000
0000
1030
0000
0010
1000
0001
0000
1000
0000
,
1100
0100
0010
0001
0101
0100
0010
1000
,
1010
0000
0010
0000
0100
0000
0001
0000
0011
0000
0010
0100
1000
0000
0001
0000
,
0100
0010
0100
0000
0001
0010
0001
0010
0100
0010
0100
1000
0020
0000
0000
0000
,
0000
0000
0000
0000
0030
0000
0000
0000
0000
0000
0000
0000
1000
0020
0000
0100
,
0000
0000
0130
0000
0010
0000
1000
0000
0100
0000
0020
0000
0000
0000
0001
0000
0000
0000
0031
0000
0010
0100
1000
0100
0010
0000
0002
0000
0000
0000
0100
0000
,
0000
0000
0103
0000
0001
0000
1000
0000
0010
0000
0200
0000
0000
0000
0001
0000
0000
0000
0301
0000
0010
0001
0100
0001
0020
0000
0000
0000
0000
0000
0230
0000
,
0000
0000
1300
0000
0010
0000
0100
0000
0001
0000
0010
0000
0100
0000
0010
0000
0001
0000
1000
0000
0010
0100
0001
0100
0010
0000
1000
0000
0100
0000
0010
0000
,
0100
0000
0010
0000
0001
0000
0100
0000
0010
0000
1000
0000
0001
0000
0010
0000
0100
1000
0100
0010
0001
0100
0010
1000
0200
0000
0000
0000
0010
0000
0000
0000
,
0000
1000
0000
0310
0001
0100
0020
0001
,
0000
0000
0100
0000
0000
0000
1030
0000
0010
0100
0001
0100
0020
0000
1000
0000
,
0000
0001
0000
1030
0010
0100
0002
0010
,
0000
0000
1000
0000
0000
0000
0103
0000
0001
0010
0100
1000
0010
0000
1000
0000
,
0100
0000
0011
0100
0001
0000
1010
0100
,
1000
0000
0101
0010
0001
0000
1000
0100
,
0001
0000
0100
0000
1000
0000
1000
0000
0100
0010
0100
0010
0002
0000
0000
0000
,
0023
0000
0000
0000
0031
0010
0100
0010
0001
0100
0010
1000
0001
0000
1000
0000
,
0010
0200
0001
0310
1000
0100
0010
0001
,
1000
0000
0020
0000
1000
0000
0130
0000
0001
0010
0100
1000
0010
0000
0100
0000
,
0001
2000
0010
3100
1000
0010
0100
0001
,
0010
0002
0100
0013
1001
0000
0010
0010
,
0010
0200
0001
0310
0100
0001
1000
0010
,
0100
0000
0002
0000
0100
0000
1003
0000
0010
0000
0100
0000
0101
0000
1000
0001
,
0010
0000
0010
0000
0010
0000
0001
1000
0010
0000
0100
0000
0010
0000
1000
0000
0100
0010
0100
0010
0001
0010
0100
1000
0001
0000
0000
0000
0100
0000
0000
0000
,
1000
0001
1000
0100
0001
0010
0001
0100
,
0010
0001
0010
0100
1000
0100
0001
0010
,
0100
0000
0010
0000
0001
0000
1000
0000
0100
1000
0100
0010
0001
0000
0010
0000
,
0001
0100
0010
1000
0100
0000
0010
0000
0001
0100
0010
1000
0010
0000
0000
0000
,
0100
0001
0010
1000
0010
0001
0100
0010
,
1000
0000
0100
0000
0010
0000
1000
0000
0010
0000
0100
1000
0020
0000
0000
0000
,
0130
0000
0010
0000
0110
0000
0000
0000
0010
0000
1000
0100
0010
0000
0001
0000
,
1000
0000
0010
0000
0100
0001
0100
0001
0020
0000
0000
0000
0130
0000
1001
0000
,
1000
0100
1000
0010
0100
0002
0010
0013
,
0001
2000
0010
3010
1000
0100
0001
0100
,
1000
0000
0010
0000
0100
0000
0010
1000
0010
1000
0001
0000
0010
0000
0001
0000
,
0100
0000
0010
0000
0010
0000
1010
0000
1000
0010
0100
0000
0001
0000
0101
0000
,
0100
0010
1000
1100
0100
0010
0001
0011
,
0010
0100
1000
1001
0001
0202
0000
0303
,
0000
0000
2020
0000
0000
0000
3030
0000
0000
0000
1000
0100
0010
0100
0010
0001
,
0100
0010
0100
0010
1000
0100
0010
0001
0010
0001
0100
0000
1001
0000
0001
0000
,
0100
0000
0010
0000
1000
0000
0100
0000
0010
0000
0001
0000
0100
0010
0100
0000
,
0001
0000
1000
0000
0100
0010
0100
0000
1000
0000
0010
0000
0100
0000
0010
0000
,
1000
0000
0001
0000
0100
0000
0010
0000
1000
0000
0100
0010
0001
0000
0100
0010
,
1000
0100
0110
0000
1001
0001
0100
0020
,
0000
1000
0100
1030
0010
0100
0001
0020
,
0000
0000
0001
0000
0100
0000
0031
0000
0010
0001
0100
0000
0010
1000
0100
0000
,
0010
0001
1000
0000
0010
1000
0001
0000
1000
0100
0010
0001
0100
0010
1000
0100
,
2000
3020
0230
0300
2002
3003
0000
0000
;

//---------------dance-single - ----------------
#NOTEDATA:;
#CHARTNAME:;
#STEPSTYPE:dance-single;
#DESCRIPTION:;
#CHARTSTYLE:;
#DIFFICULTY:Medium;
#METER:13;
#RADARVALUES:0.693632,0.938599,0.427962,0.233434,0.147842,624.000000,569.000000,55.000000,30.000000,0.000000,0.000000,0.000000,0.000000,0.000000,0.693632,0.938599,0.427962,0.233434,0.147842,624.000000,569.000000,55.000000,30.000000,0.000000,0.000000,0.000000,0.000000,0.000000;
#CREDIT:;
#NOTES:
0000
0000
0000
0000
,
0000
0000
0000
0000
,
2002
0000
0000
3003
,
0220
0000
0000
0330
,
2002
0000
0000
3003
,
0220
0000
0030
0301
,
1000
0100
0010
0000
0001
0100
0010
0000
,
1000
0010
0100
0000
0001
0010
0100
0000
,
1000
0100
0010
0001
1000
0010
0100
0001
,
2000
0000
3200
0000
0320
0000
0031
0001
,
1001
0000
1000
0010
0100
0010
1000
0000
,
0001
0100
0010
0100
0001
0000
1000
0000
,
1001
0000
0001
0010
0100
0010
0001
0000
,
1000
0100
0010
0100
1000
0000
1010
0000
,
0101
0000
0001
0010
0100
1000
0010
0000
,
1000
0100
0010
0001
0100
0000
0110
0000
,
2200
3300
0022
0033
,
1000
0100
0010
0001
0100
0010
0110
0000
,
1001
0000
1000
0100
1000
0010
0100
0001
,
0010
0000
0001
0100
0010
0100
0001
1000
,
0010
0000
1000
0100
0010
0100
1000
0001
,
0100
0000
0010
1000
0010
0001
0010
0000
,
1000
1000
0010
0000
0100
0001
0100
0000
,
0001
0010
0100
0010
0001
0100
0010
0000
,
1000
0100
0001
0100
1000
0010
0001
0010
,
1000
0100
0010
0001
0200
0000
0310
0000
,
1001
0000
1000
0000
0010
0100
0010
0000
1000
0000
0100
0010
0001
0000
1000
0000
,
0001
0000
0100
0000
0010
0000
1000
0100
1000
0000
0001
0000
0100
0010
0100
0001
,
0010
0000
0001
0100
0000
0001
0100
0000
0010
0000
1000
0100
0010
0100
1000
0000
,
0001
0000
0100
0010
0100
0001
0010
0000
0100
0000
1000
0100
0010
0000
0001
1000
,
0010
1001
0000
1000
0010
1000
0000
0001
,
0010
0100
0010
0100
1000
0010
0000
0100
,
0000
0110
0000
1000
0010
0100
0000
0001
,
0001
0010
0000
1000
1000
0010
1000
0100
,
0000
0010
0100
0000
1000
0100
0000
0010
,
0000
0001
0100
0010
0100
0001
0000
1000
,
0100
1000
0010
0100
0001
0010
0100
1000
,
0000
0010
0000
0100
0000
0001
1000
1001
,
0000
1000
0100
1000
0000
0001
0010
0100
,
0010
0001
0000
0011
0000
1100
0000
1001
,
0000
0100
0010
0100
0000
0001
0010
0100
,
1000
0010
0000
1010
0000
0101
0000
1000
,
0010
1000
0000
0001
0010
0100
0000
0011
,
0000
1010
0000
1100
0000
0001
0100
0001
,
0000
2000
0000
3020
0000
0230
0000
0302
,
0000
1003
0010
0100
0010
1000
0000
0001
,
1001
1000
0000
0100
0000
1000
0001
0100
,
0000
0010
0000
0100
0001
0100
0010
1000
,
0000
0100
0000
0010
0100
1000
0100
0010
,
0001
0011
1010
1000
,
0110
0001
0110
0100
,
1001
0000
0010
0000
1001
0000
1000
0100
,
0010
0100
1000
0010
0100
0001
0020
0000
,
0000
0000
0000
0000
0030
0000
0000
0000
0000
0000
0000
0000
1000
0010
0000
0010
,
0000
1000
0100
0000
1000
0001
0000
0001
0000
0100
0010
0000
1000
0100
0000
0100
,
0000
0010
0001
0000
0001
0100
0000
0100
0000
0010
1000
0000
0001
0000
0000
0100
,
0000
0010
1000
0000
0100
0010
0000
0010
0000
0100
1000
0000
0001
0000
0100
0000
,
0100
0010
0000
0010
1000
0000
0100
0000
0010
0001
0010
0100
1000
0000
0000
0000
,
0010
0000
0000
1000
0010
0000
0001
0000
,
0010
0000
0000
0001
0010
0000
1000
0000
,
0100
0000
0000
1000
0100
0000
0001
0000
,
0100
0000
0000
0001
0100
0000
1010
0000
,
0100
0011
0100
1100
,
0010
0101
0010
1000
,
0100
0000
0010
0001
0010
0100
2000
0000
,
3020
0000
0230
0000
0301
1000
0010
0100
,
0000
0110
0000
0010
1000
0100
0010
0001
,
0000
0011
0000
0010
0100
1000
0010
0100
,
0000
0110
0000
0100
0001
0010
0001
1000
,
0000
1010
0000
1000
0100
0000
0010
0001
,
0100
0010
0000
0010
0100
0010
1000
0100
,
0010
0001
0000
0100
0010
0100
0002
0000
,
1003
0001
1000
0001
0100
0000
0010
0000
1000
0100
0010
0001
1000
0000
0000
0000
,
0001
0100
0001
0000
1000
0100
0010
0001
,
0100
0110
1001
1000
,
0001
0100
0000
0001
0100
0010
1000
0100
,
0010
0000
0011
0000
1100
0000
0001
0100
,
0010
0000
1000
0100
0010
0000
0001
1000
,
0010
0000
1000
0001
0010
0000
0200
0000
,
0300
0100
0010
0100
0000
0100
1000
0010
,
0001
0010
1000
0100
0010
0000
0110
1001
,
0000
0001
0100
0001
0000
1000
0010
1000
,
0010
0001
0010
1000
0000
0100
0000
0110
,
0000
1000
0100
1000
0000
0001
0100
0001
,
0100
1000
0100
0001
0000
1000
0100
0001
,
0000
1000
0010
0001
0000
0001
0010
1000
,
0000
0001
0100
1000
0000
2002
0000
3003
,
0000
0220
0000
0330
0000
1001
0000
0110
,
0000
1000
0100
0010
0001
1000
0001
0010
,
0000
0001
0100
0000
0010
1000
0000
1100
,
0000
1000
0010
0100
0001
0010
0000
0110
,
0000
0010
0001
0100
0010
1000
0000
1001
,
0000
1000
0010
0000
0100
0001
0100
0001
,
1000
0100
1000
0100
0010
0100
1000
0001
,
0100
0010
0100
0000
0001
0010
0100
0010
,
0001
0100
0010
1000
0010
0100
0001
0010
,
0100
1000
0010
0000
1001
0000
0000
0000
;

//---------------dance-single - ----------------
#NOTEDATA:;
#CHARTNAME:;
#STEPSTYPE:dance-single;
#DESCRIPTION:;
#CHARTSTYLE:;
#DIFFICULTY:Easy;
#METER:10;
#RADARVALUES:0.569134,0.675791,0.404619,0.264558,0.027234,512.000000,460.000000,52.000000,34.000000,0.000000,0.000000,0.000000,0.000000,0.000000,0.569134,0.675791,0.404619,0.264558,0.027234,512.000000,460.000000,52.000000,34.000000,0.000000,0.000000,0.000000,0.000000,0.000000;
#CREDIT:;
#NOTES:
0000
0000
0000
0000
,
0000
0000
0000
0000
,
2002
0000
0000
3003
,
0220
0000
0000
0330
,
2002
0000
0000
3003
,
0220
0000
0030
0301
,
0101
0001
1100
1000
,
0011
0001
1010
1000
,
0001
0000
0010
0000
0100
1000
0100
0010
,
0002
0203
0320
1030
,
1001
0000
0001
0000
0100
0010
0100
0000
,
0001
0000
1000
0000
0100
0010
0100
0000
,
1000
0000
0010
0000
0100
0001
0100
0000
,
0010
1000
0100
0001
,
1001
0000
0010
0000
1000
0100
1000
0000
,
0001
0000
0100
0000
0001
0010
0001
0000
,
1001
0000
0110
0000
,
1000
0000
0100
0000
0010
0001
0010
0000
,
0110
1000
0010
0100
,
0001
0010
0001
0000
1000
0010
1000
0000
,
0001
0100
0010
1000
,
0001
0100
0001
0000
1000
0100
1000
0000
,
0010
0100
0010
0000
1000
0000
0010
0000
,
0001
0010
0001
0000
1000
0010
1000
0000
,
0001
0100
0010
1000
,
0001
1000
0001
1000
0002
0000
0103
0000
,
1001
1000
0010
1000
0100
0100
0010
0001
,
1000
1000
0010
0100
0001
0010
0001
0100
,
1000
0010
0100
0100
0001
0010
0100
0100
,
1000
0010
0100
0001
0010
0001
0100
0010
,
1000
1001
0000
0001
0000
0100
0000
0010
,
0000
1000
0000
0100
0010
0100
0010
0100
,
0000
1000
0000
0001
0000
0100
0000
0010
,
1000
0010
0000
0010
0001
0010
0000
1000
,
0000
0001
0010
0000
0010
0001
0000
1000
,
0000
0010
0100
0000
0100
0010
0000
1000
,
0000
0001
0000
0100
0000
0010
0000
1000
,
0000
0100
0000
0010
0000
0001
0000
1001
,
0000
0001
0000
0010
0000
0001
0000
0100
,
0010
0100
0000
0110
0000
1001
0000
1000
,
0000
0010
0000
0100
0000
0001
0010
0001
,
0000
1000
0000
1010
0000
0101
0000
1001
,
0000
2000
0000
3001
0010
0001
0000
1000
,
0000
0010
0000
0100
0000
0001
0100
0001
,
0000
0020
0000
2030
0000
3002
0000
0203
,
0000
0310
0000
1000
0100
1000
0000
0001
,
1001
0000
1000
0010
1000
0000
0001
0000
,
0100
0000
0001
0010
0001
0000
1000
0000
,
0010
0000
0100
0000
0010
0000
1000
0100
,
0010
0011
1100
0001
,
0101
1000
1100
0001
,
0011
0000
1000
0000
1010
0000
0001
0010
,
0001
0010
0100
1000
0100
1000
0200
0000
,
0000
0000
0000
0000
0300
0000
0000
0000
0000
0000
0000
0000
2000
0000
0000
0010
,
0000
0000
3010
0000
0002
0000
0000
0010
0000
0000
0013
0000
2000
0000
0000
0100
,
0000
0000
3100
0000
0002
0000
0000
0100
0000
0000
0103
0000
2000
0000
0000
0001
,
0000
0000
3010
0000
0002
0000
0000
1000
0000
0000
0013
0000
1000
0000
0001
0000
,
0010
0100
1000
0100
0010
0001
1001
0000
,
0100
0000
0000
1000
0100
0000
0001
0000
,
0100
0000
0000
0001
0100
0000
0010
0000
,
1000
0000
0000
0010
1000
0000
0010
0000
,
0001
0000
0000
0010
0001
0000
2001
0000
,
3010
1002
0013
2010
,
3001
0012
1003
0001
,
1000
0000
0001
1000
0001
1000
0020
0000
,
0000
0000
0030
0110
,
0010
0000
1000
0100
1000
0000
0010
0000
,
0100
0000
0001
0010
0001
0000
1000
0000
,
0010
0000
0100
0001
0100
0000
0010
0000
,
1000
0000
0100
0000
0110
0000
0001
1000
,
0001
0000
1000
0000
0010
0000
0100
0010
,
0100
0010
1000
0002
,
1003
0001
1000
0000
0010
0000
0100
0000
0001
0000
1000
0000
1001
0000
0000
0000
,
0100
1000
0100
0000
0010
0000
0001
0100
,
0001
0101
1010
1000
,
0001
0010
0001
0000
1000
0010
1000
0000
,
0100
0110
1001
1000
,
0001
0000
0100
0010
0100
0000
0001
0000
,
1000
0000
0100
0010
0100
0010
0001
0000
,
0000
1000
0001
0000
0000
0100
0010
0000
,
0100
0000
1000
0010
0100
0000
0110
1001
,
0000
0001
0000
1000
0010
1000
0000
0001
,
0000
0010
0001
0010
0000
0001
0000
0100
,
0000
0010
0000
1000
0100
0010
0000
0001
,
0100
0010
0000
0110
0000
1000
0000
1010
,
0000
0001
0000
0011
0000
1000
0000
1100
,
0000
0001
0000
0101
0000
2002
0000
3003
,
0000
0220
0000
0330
0000
1000
0000
0010
,
0000
0100
0001
0100
0001
0010
1001
0000
,
1000
0100
1000
0000
0010
0000
0100
0001
,
0010
0001
0100
0000
0010
0000
1000
0000
,
0100
0010
0100
0000
1000
0000
0001
0010
,
0100
0010
0001
0000
1001
0000
0001
0000
,
0100
0010
0100
0000
0001
0000
0010
0100
,
1000
0100
0010
0000
0001
0100
0001
0000
,
1000
0100
1000
0000
0001
0010
0001
0010
,
0100
1000
0100
0000
1001
0000
0000
0000
;

//---------------dance-single - ----------------
#NOTEDATA:;
#CHARTNAME:;
#STEPSTYPE:dance-single;
#DESCRIPTION:;
#CHARTSTYLE:;
#DIFFICULTY:Beginner;
#METER:7;
#RADARVALUES:0.340147,0.525615,0.287902,0.272340,0.000000,306.000000,269.000000,37.000000,35.000000,0.000000,0.000000,0.000000,0.000000,0.000000,0.340147,0.525615,0.287902,0.272340,0.000000,306.000000,269.000000,37.000000,35.000000,0.000000,0.000000,0.000000,0.000000,0.000000;
#CREDIT:;
#NOTES:
// measure 0
0000
0000
0000
0000
,  // measure 1
0000
0000
0000
0000
,  // measure 2
2002
0000
3003
0000
,  // measure 3
0220
0000
0330
0000
,  // measure 4
2002
0000
3003
0000
,  // measure 5
0220
0000
0330
0000
,  // measure 6
1001
0000
0110
0000
,  // measure 7
1001
0000
0110
0000
,  // measure 8
1000
1000
0001
0001
,  // measure 9
2002
0000
0000
3003
,  // measure 10
1000
1000
1000
0000
,  // measure 11
0001
0001
0001
0000
,  // measure 12
0100
0100
0100
0000
,  // measure 13
0010
0010
0010
0000
,  // measure 14
1000
1000
0100
0000
,  // measure 15
0001
0001
0100
0000
,  // measure 16
0110
0000
1001
0000
,  // measure 17
0010
0010
0100
0100
,  // measure 18
0010
0010
1000
0000
,  // measure 19
0010
0010
0001
0000
,  // measure 20
0100
0100
1000
0000
,  // measure 21
0100
0100
0001
0000
,  // measure 22
1000
0010
1000
0000
,  // measure 23
0001
0010
0001
0000
,  // measure 24
1000
0100
1000
0000
,  // measure 25
0001
0100
0001
0000
,  // measure 26
1001
0100
0010
0100
,  // measure 27
0001
0100
0010
0100
,  // measure 28
0110
1000
0001
1000
,  // measure 29
0010
1000
0001
1000
,  // measure 30
0010
0010
0000
0010
0000
0000
0000
0100
,  // measure 31
0000
0100
0000
0100
0000
0000
0000
0001
,  // measure 32
0000
0001
0000
0001
0000
0000
0000
1000
,  // measure 33
0000
1000
0000
1000
0000
0010
0000
1000
,  // measure 34
0000
0100
0000
1000
0000
0000
0000
0001
,  // measure 35
0000
0100
0000
0001
0000
0000
0000
1000
,  // measure 36
0000
1000
0000
0001
0000
0001
0000
2000
,  // measure 37
0000
0000
0000
0002
0000
3003
0000
1001
,  // measure 38
0000
0000
0000
0010
0000
0000
0000
0100
,  // measure 39
0000
0100
0000
0100
0000
0000
0000
0010
,  // measure 40
0000
0000
0000
1000
0000
0000
0000
0100
,  // measure 41
0000
0100
0000
0100
0000
0100
0000
0010
,  // measure 42
0000
0000
0000
1000
0000
0000
0000
0001
,  // measure 43
0000
0001
0000
0001
0000
0000
0000
0100
,  // measure 44
0000
0000
0000
0010
0000
0000
0000
1000
,  // measure 45
0000
1000
0000
0001
0000
0001
0000
0100
,  // measure 46
0100
0100
0000
0010
,  // measure 47
1000
0010
0000
0001
,  // measure 48
0001
0001
0000
1000
,  // measure 49
0001
1000
0000
0000
,  // measure 50
0110
0000
1001
0000
,  // measure 51
0110
0000
1001
1000
,  // measure 52
1000
0001
0001
0200
,  // measure 53
0000
0300
0000
2000
,  // measure 54
3000
0002
0003
0200
,  // measure 55
0300
0020
0030
2000
,  // measure 56
3000
0200
0300
0020
,  // measure 57
0030
0002
0003
2002
,  // measure 58
0000
0000
3003
0220
,  // measure 59
0000
0000
0330
2002
,  // measure 60
0000
0000
3003
0220
,  // measure 61
0000
0000
0330
1001
,  // measure 62
0000
0110
0000
1001
,  // measure 63
0000
0110
0000
1001
,  // measure 64
1001
0110
0110
2002
,  // measure 65
0000
0000
3003
1000
,  // measure 66
0100
1000
0100
0010
,  // measure 67
0100
0010
0000
0001
,  // measure 68
0100
0001
0100
0010
,  // measure 69
0100
0010
0000
1000
,  // measure 70
0010
1000
0010
0100
,  // measure 71
0010
0100
0000
1000
,  // measure 72
0001
0010
0100
1000
,  // measure 73
1000
0010
0010
1000
,  // measure 74
0010
1000
0000
0001
,  // measure 75
0001
0010
0010
0001
,  // measure 76
0010
0001
0000
0100
,  // measure 77
0100
0010
0010
0100
,  // measure 78
0010
0100
0000
0001
,  // measure 79
0000
0100
0000
0002
,  // measure 80
0000
0000
0000
0000
1003
0000
0100
0100
,  // measure 81
0000
0100
0000
0010
0000
0100
0000
0010
,  // measure 82
0000
1000
0000
0000
0000
0001
0000
0001
,  // measure 83
0000
0001
0000
0010
0000
0001
0000
0010
,  // measure 84
0000
0100
0000
0010
0000
0001
0000
1001
,  // measure 85
0000
0000
0000
0110
0000
0000
0000
1001
,  // measure 86
0000
0000
0000
0110
0000
2000
0000
0000
,  // measure 87
0000
0002
0000
3003
0000
1000
0000
1000
,  // measure 88
0000
0001
0000
0001
0000
0100
0100
0000
,  // measure 89
0100
0000
0010
0010
,  // measure 90
0010
0000
1000
1000
,  // measure 91
1000
0000
0001
0001
,  // measure 92
0001
1001
1000
0010
,  // measure 93
1000
0000
0001
0010
,  // measure 94
0001
0000
1000
0100
,  // measure 95
1000
0100
0010
0001
,  // measure 96
0020
0030
1001
0000
;
