#TITLE:キヤロラ衛星の軌跡;
#SUBTITLE:;
#ARTIST:工藤吉三(ベイシスケイプ);
#TITLETRANSLIT:Kiyarora eisei no kiseki;
#SUBTITLETRANSLIT:;
#ARTISTTRANSLIT:Yoshimi Kudo;
#GENRE:;
#CREDIT:;
#MUSIC:Kiyarora eisei no kiseki.ogg;
#BANNER:Kiyarora eisei no kiseki.png;
#BACKGROUND:;
#CDTITLE:;
#SAMPLESTART:91.979;
#SAMPLELENGTH:15.000;
#SELECTABLE:YES;
#OFFSET:0.021;
#BPMS:0.000=300.000
,176.000=150.000
,232.000=300.000
,344.000=75.000
,360.000=300.000
;
#STOPS:;
#BGCHANGES:;
#FGCHANGES:;

//--------------- dance-single - PenTA_ ----------------
#NOTES:
     dance-single:
     PenTA_:
     Hard:
     17:
     0.77262,1.609119,0.188938,0.118086,0.16532,687,663,24,15,0,0,0.77262,1.609119,0.188938,0.118086,0.16532,687,663,24,15,0,0:
0000
0000
0000
0000
,
0000
0000
0000
0000
,
0000
0000
0000
0000
,
0000
0000
0000
0000
,
0000
0000
0000
0000
,
0000
0000
0000
0000
,
0000
0000
0000
0000
,
0000
0000
0000
0000
,
0000
0000
0000
0000
,
0000
0000
0000
0000
,
0001
0100
0010
1000
,
0001
0100
0010
0110
,
1000
0100
0010
0001
,
0010
0100
1000
0001
1000
0100
0010
0001
,
0100
0010
1000
0010
,
0100
0001
1000
1001
,
0100
0010
0001
1000
,
0010
0100
0001
1000
0001
0100
0001
1000
,
0100
0010
0001
0010
,
1000
0001
0100
0110
,
1000
0010
0001
0010
,
0100
0001
1000
0010
0100
0001
1000
0100
,
0010
0001
1000
0010
,
0001
0010
1000
1001
,
0100
0010
0001
0100
,
1000
0100
1000
0100
0001
0100
0001
0010
,
0100
1000
0001
1000
0000
0100
0000
0010
,
0000
0001
0000
0100
0001
0010
0100
1000
,
0001
1000
0100
1000
0000
0010
0000
0100
,
0001
1000
0001
0010
0100
0000
0000
0000
,
1000
0010
1000
0001
0000
0100
0000
0001
,
0000
0010
0000
0100
1000
0001
1000
0010
,
0100
0001
0010
0100
0000
1000
0000
0001
,
0100
1000
0100
0010
1000
0010
0100
0001
,
1000
0100
0010
0001
0000
0100
0000
1000
,
0000
0001
0000
0010
1000
0010
0100
0001
,
1000
0100
0010
0100
0000
0001
0000
0100
,
0010
0001
1000
0001
0100
0000
0000
0000
,
0010
1000
0010
0100
0000
0001
0000
1000
,
0000
0010
0000
1000
0001
1000
0100
0001
,
0100
1000
0010
0100
0000
0001
0000
0001
,
0100
0010
1000
0001
1000
0001
1000
0100
,
0010
0001
0010
0001
1000
0100
1000
0100
,
0010
0001
1000
0100
0010
0001
1000
0010
,
0200
0001
0310
1000
,
0002
0010
1003
0100
,
0020
0000
0001
0000
0130
1000
0000
1000
,
0200
0000
0000
0000
1000
0000
0000
0310
0001
0000
0010
0001
0010
0000
0100
0000
,
1000
0001
2000
0000
0000
3010
0100
0001
,
0200
1000
0001
0320
,
1030
0100
0002
0000
0000
0000
0000
0103
,
1000
0000
0010
0000
1000
0000
0100
0000
0010
0000
0001
1000
0001
0000
0100
0000
,
0020
0000
0000
0000
0100
0000
0130
0000
1001
0000
0000
0000
0010
0001
0100
0010
,
2000
0000
0001
3100
1000
0000
1001
0000
,
0200
0000
0000
0000
1000
0000
1300
0000
0011
0000
0000
0000
0100
1000
0001
0100
,
0010
1000
0001
1000
0100
1000
0001
0010
,
0100
0000
0100
0000
0200
0000
0000
0000
0000
0000
0000
0000
0310
0100
0010
0100
,
0010
0000
1001
0000
0000
0101
0000
0000
1001
0000
0000
1100
0000
0000
1000
0000
,
0002
0000
0000
0000
,
0000
0000
0000
0000
,
0000
0000
0000
0000
,
0000
0000
0000
0000
,
2003
0000
0000
0000
,
0000
0000
0000
0000
,
3010
0100
0000
0100
0001
0000
0010
0100
,
0000
0100
1000
0000
0010
0100
0000
0100
,
0010
1000
0001
0010
,
0001
0100
1000
0100
,
0001
0010
0100
1000
,
0001
0000
0100
0000
0010
1000
0001
1000
,
0100
0010
0001
1000
,
0100
0001
1000
0010
,
0010
0001
1000
0000
0001
1000
0000
0001
,
1000
0001
1000
0010
0100
0010
0100
0001
,
1000
0100
1000
0100
0010
0001
0010
0100
,
1000
0001
0010
0100
1000
0001
0100
0000
,
0010
1000
0010
1000
0001
0100
0010
0100
,
0010
1000
0001
0100
0010
1000
0100
0010
,
0001
1000
0001
1000
0100
0010
0001
1000
,
0100
1000
0001
0010
0001
0100
0010
1000
,
0100
0001
0100
1000
0001
0010
1000
0010
,
0001
0100
0010
1000
0100
0010
0001
0000
,
1000
0010
0100
0001
0000
0001
1000
0100
,
0010
0000
0110
0000
0001
1000
0001
0100
,
0000
0010
1000
0010
0100
0001
1000
0100
,
1000
0001
1000
0100
0010
0000
0000
0000
,
0000
0001
0100
0001
1000
0001
0100
0010
0000
1000
0100
1000
0001
1000
0100
0010
,
0000
0001
0100
0001
1000
0001
0100
0010
1000
0100
0001
1000
0010
0001
0010
0100
,
0000
1000
0001
0100
0010
0001
0010
1000
0000
0001
0100
0010
1000
0100
0001
0100
,
0010
0000
1000
0000
0001
0000
0100
0000
1000
0000
0010
0000
0110
0000
0000
0000
1001
0000
0000
0000
0000
0000
0000
0000
0001
0000
0000
0001
0000
0000
0001
0000
,
1000
0100
1000
0100
1000
0100
1000
0100
,
0010
0001
0010
0001
0010
0001
0010
0001
,
1000
0001
1000
0001
1000
0001
1000
0001
,
1000
0001
1000
0001
0100
0010
0100
0010
,
0100
0001
0100
0001
0100
0010
0100
0010
,
1000
0100
1000
0100
0010
0001
0010
0001
,
1000
0001
1000
0001
1000
0100
1000
0100
,
1000
0010
1000
0010
0100
0001
0100
0001
,
1000
0100
0011
0100
,
1000
0001
0110
1000
,
0001
0100
1010
0100
,
0001
1000
0001
0010
0001
1000
0001
0010
,
0001
1000
0001
0100
,
1010
0000
0000
1100
0000
0000
1001
0000
,
0001
0100
0010
1000
,
0010
0100
0001
1000
0100
0010
0001
0100
,
0110
0000
1000
0100
0000
0000
0000
0000
,
0000
0000
0010
0001
0010
0100
0000
1000
,
0001
0000
0001
0100
0000
0000
0000
0000
,
0000
0000
0010
1000
0001
1000
0000
0100
,
1000
0000
1000
0001
0000
0000
0000
0000
,
0000
0000
0100
0010
1000
0010
0000
0100
,
0001
0000
0001
0010
0000
0000
0000
0000
,
0100
1000
0001
1000
0100
1000
0001
1000
,
0010
0000
1001
0000
1000
0100
0000
0010
,
0001
0000
0100
0001
0000
1000
0100
0010
,
0001
0000
1001
0000
0001
0100
0000
0010
,
1000
0000
0100
0000
0010
0001
1000
0001
,
1000
0010
0100
0001
1000
0100
0001
1000
,
0010
0001
1000
0010
0001
0010
0100
0001
,
1000
0100
0010
0001
0000
0001
0010
0100
,
1000
0000
0000
1001
0000
0000
1000
0000
0010
0000
0200
0000
,
0000
0000
0000
0000
,
0000
0000
0000
0000
,
0000
0000
0000
0000
,
0000
0000
0000
0000
,
0000
0000
0000
0000
,
0000
0000
0000
0300
;
