#VERSION:0.83;
#TITLE:ジャガー人間の受難;
#SUBTITLE:;
#ARTIST:工藤吉三(ベイシスケイプ);
#TITLETRANSLIT:Jaguar ningen no junan;
#SUBTITLETRANSLIT:;
#ARTISTTRANSLIT:Yoshimi Kudo;
#GENRE:;
#CREDIT:;
#MUSIC:Jaguar ningen no junan.ogg;
#BANNER:Jaguar ningen no junan.png;
#BACKGROUND:;
#CDTITLE:;
#SAMPLESTART:85.256;
#SAMPLELENGTH:15.000;
#SELECTABLE:YES;
#OFFSET:-0.182;
#BPMS:0.000=134.000
,226.000=201.000
;
#STOPS:;
#SPEEDS:0.000=1.000=0.000=0;
#SCROLLS:0.000=1.000;
#TICKCOUNTS:0.000=4;
#TIMESIGNATURES:0.000=14=4,
3.500=9=4,
8.000=7=4,
11.500=14=4,
15.000=7=4,
18.500=14=4,
22.000=7=4,
25.500=14=4,
29.000=7=4,
32.500=14=4,
36.000=7=4,
39.500=14=4,
43.000=7=4,
46.500=14=4,
50.000=7=4,
53.500=14=4,
57.000=7=4,
60.500=14=4,
64.000=3=4,
226.000=5=4,
241.000=3=4,
247.000=5=4,
262.000=3=4,
268.000=4=4
;
#LABELS:0.000=Song Start;
#COMBOS:0.000=1;
#ORIGIN:;
#PREVIEWVID:;
#JACKET:Jaguar ningen no junan-jacket.png;
#CDIMAGE:;
#DISCIMAGE:;
#BGCHANGES:;
#FGCHANGES:;

//--------------- dance-single - PenTA_ ----------------
#NOTEDATA:;
#STEPSTYPE:dance-single;
#DESCRIPTION:PenTA_;
#DIFFICULTY:Beginner;
#METER:7;
#RADARVALUES:0.21682,0.285613,0.066349,0.140992,0,183,175,8,17,0,0,0,0,0,0.21682,0.285613,0.066349,0.140992,0,183,175,8,17,0,0,0,0,0;
#CHARTNAME:;
#CHARTSTYLE:;
#CREDIT:;
#NOTES:
0000
0000
0000
0000
,
0000
0000
0000
0000
,
1000
0000
0000
0000
0000
0010
0000
0010
,
0000
0000
0001
1000
,
0000
0000
0000
0100
0000
0010
0000
0000
,
0000
0001
0001
0000
,
0000
0000
0000
0010
0000
0100
0000
0000
,
1000
0000
1000
0000
0000
0000
0000
0100
,
0000
0010
0000
0000
0000
0000
0001
0000
,
1000
0000
0100
0001
,
0000
0000
1000
0010
,
0000
0001
0100
0000
,
0000
1000
0100
0000
,
0001
0010
0000
0000
,
1000
0010
0000
0001
,
1000
0000
0000
1000
,
0001
0000
0010
0100
,
0000
0010
1000
0000
,
0010
0001
0001
0001
,
1000
1000
0010
0100
,
0100
0010
0001
0001
,
0010
0000
1000
0000
0000
0001
0000
1001
,
0000
0000
0000
1000
,
0100
0010
0010
1000
,
0001
0100
0000
0000
,
1000
0100
0100
0010
,
0001
0001
1000
0010
,
0001
0010
0000
1000
,
0001
0000
0000
0100
,
0010
0000
0001
1000
,
1000
0100
0001
0000
,
0010
1000
0001
0100
,
0000
0010
0100
0000
,
1000
0001
0000
0100
,
0010
0000
0010
0000
0010
0020
0000
0000
,
0030
0000
2000
0000
,
0000
3001
0010
0001
,
0002
0000
0000
1003
,
0100
0100
0020
0000
,
0000
0031
1000
0100
,
0200
0000
0000
1300
,
0001
0100
0020
0000
,
0000
1030
0100
0010
,
0002
0000
0003
2000
,
0000
3000
0200
0000
,
0000
0300
0000
0000
,
1000
0010
0010
0100
,
0100
0001
0002
0000
,
0000
0013
0010
0100
,
2000
0000
0000
3100
,
0010
0010
0002
0000
,
0003
0200
0000
0300
,
2000
0000
3000
0020
,
0000
0030
0001
0001
,
0100
0010
0010
0100
,
0001
0001
0010
0220
,
0000
0000
0330
0000
1000
0000
0000
1000
,
0000
0000
0000
0010
,
0000
0010
0000
0000
0000
0000
0000
0000
,
0001
0000
0000
0001
0000
0000
0000
0000
,
1000
1000
0100
0010
,
0001
0001
0100
0001
,
0000
1001
0000
0000
0000
0000
0000
0000
,
0010
0000
0000
0110
0000
0000
0000
0000
,
0000
0000
1000
0000
0000
1001
0000
0000
,
0000
0000
0001
0100
,
0010
1000
1000
0100
,
0010
0000
0010
0000
0000
1001
0000
0000
,
0100
0000
0100
0000
0110
0000
0000
1001
;

//--------------- dance-single - PenTA_ ----------------
#NOTEDATA:;
#STEPSTYPE:dance-single;
#DESCRIPTION:PenTA_;
#DIFFICULTY:Easy;
#METER:10;
#RADARVALUES:0.347149,0.42842,0.15758,0.331746,0,293,274,19,40,0,0,0,0,0,0.347149,0.42842,0.15758,0.331746,0,293,274,19,40,0,0,0,0,0;
#CHARTNAME:;
#CHARTSTYLE:;
#CREDIT:;
#NOTES:
0000
0000
0000
0000
,
0000
0000
0000
0000
,
0001
0000
0000
0000
0000
0100
0000
1000
,
0000
0000
0100
0001
,
0000
0000
0000
1000
0000
0010
0000
0000
,
0000
0100
0001
0000
,
0000
0010
0000
1000
0000
0000
0000
0000
,
0010
0000
0001
0000
0000
0000
0000
1000
,
0000
0100
0000
0000
0000
0000
0010
0000
,
0001
0000
1000
0000
0010
0000
0000
0100
,
0000
1000
0000
0100
0000
0000
0010
0000
,
1000
0000
0001
0000
0000
0010
0000
1000
,
0000
0010
0000
0000
0001
0000
0100
0000
,
0010
0000
0000
1000
0000
0100
0000
0001
,
0000
0100
0010
0001
,
0000
1000
0000
0010
0000
0100
0000
0000
,
0002
0000
0000
0000
0013
0100
0002
0000
,
0000
0000
0103
1000
0020
0000
0000
0000
,
0130
0001
1000
0000
0001
0000
0010
0000
,
0200
0000
0000
1300
0010
0100
2000
0000
,
0000
3100
0010
1000
0002
0000
0000
0013
,
1000
0010
0001
0000
0000
0100
0010
1000
,
0000
0000
0000
1000
,
0100
0001
0000
0010
0001
0000
0100
0000
,
1000
0000
0001
0000
0100
1000
0000
0010
,
1000
0100
0001
0010
,
0100
0010
0000
0010
1000
0000
0001
0000
,
0100
0000
0010
0000
0010
0001
0000
0100
,
1000
0100
0010
0001
,
0010
1000
0000
1000
0100
0010
0001
0000
,
0010
0000
1000
0000
0010
0001
0000
0001
,
0100
0010
1000
0000
0001
0000
1000
0000
,
1000
0000
0100
0010
0100
0000
0001
0000
,
0010
0000
0001
0000
0001
0000
0100
0010
,
0100
0000
1000
0010
0100
0002
0000
0000
,
0003
0000
2000
0000
,
3001
0010
0002
0000
0203
0000
1000
0000
,
0302
0000
0000
0000
1003
0100
2000
0000
,
3020
0000
0001
0000
0130
0001
1000
0200
,
0000
0000
0300
0000
0000
0000
0010
0001
,
1000
0000
1100
0000
1000
0100
0010
0000
,
0011
0000
1000
0010
0200
0000
0001
0000
,
0320
0000
2030
0000
0100
0000
3001
0010
,
0200
0000
0000
0320
0000
0000
0031
0000
,
0001
0000
1000
0010
2000
0000
3200
0000
,
0000
0000
0300
0010
0001
0000
0010
0000
,
0100
1000
0001
0100
,
0010
0110
2000
0100
,
3001
0000
0020
0000
0001
0000
0130
1000
,
0002
0010
0103
0020
,
1000
0000
0130
0000
0001
0010
0100
1000
,
0100
0000
1000
0001
0100
1000
0100
0000
,
0010
1000
0100
1000
0001
0100
0020
0000
,
0000
0000
0030
0000
1000
0001
0100
0000
,
1000
0000
0001
0010
0100
0000
0010
0000
,
1000
0100
0001
0000
0001
0100
0010
0000
,
1001
0000
1100
0000
0110
0000
0000
0011
,
0000
0000
0001
1000
0001
0000
0110
0000
,
0000
1100
0000
0000
1000
0001
1000
0000
,
0110
0000
0000
0011
0000
0000
0002
0000
,
2003
3020
0032
2003
,
3200
0001
0301
0110
,
0000
1010
0000
0000
1000
0001
1000
0000
,
0110
0000
0000
0011
0000
0000
0001
1000
,
0001
0000
0110
0000
0000
1010
0000
0000
,
2000
3002
0203
2300
,
3002
0023
2030
3200
,
0310
0000
0010
0001
0000
1001
0000
1000
,
0010
0000
0100
0000
0001
0010
0000
0110
;

//--------------- dance-single - PenTA_ ----------------
#NOTEDATA:;
#STEPSTYPE:dance-single;
#DESCRIPTION:PenTA_;
#DIFFICULTY:Medium;
#METER:13;
#RADARVALUES:0.534349,0.542665,0.199048,0.364921,0.223929,451,427,24,44,0,0,0,0,0,0.534349,0.542665,0.199048,0.364921,0.223929,451,427,24,44,0,0,0,0,0;
#CHARTNAME:;
#CHARTSTYLE:;
#CREDIT:;
#NOTES:
0000
0000
0000
0000
,
0000
0000
0000
0000
,
0001
0000
0000
0100
0000
0010
0000
1000
0000
0000
0100
0000
0010
0000
0001
0000
,
0000
0100
0000
1000
0000
0010
0000
0000
1000
0000
0100
0000
0010
0000
0000
1000
,
0000
0100
0000
0010
0000
0000
0001
0000
0010
0000
0100
0000
0000
1000
0000
0010
,
0000
0001
0000
0000
1000
0000
0100
0000
0001
0000
0000
1000
0000
0001
0000
0010
,
0000
0000
0100
0000
0010
0000
1000
0000
0000
0010
0000
0001
0000
1000
0000
0000
,
0010
0000
0100
0000
0010
0000
0000
0100
0000
0001
0000
0010
0000
0000
0100
0000
,
1000
0000
0001
0000
0000
0010
0000
0001
0000
0100
0000
0000
0010
0000
1000
0000
,
0200
0000
0000
0010
0000
0000
0310
0000
0001
0000
1000
0000
0100
0000
2000
0000
,
0000
0010
0000
0000
3001
0000
0100
0000
0010
0000
0000
0000
0200
0000
0000
0010
,
0000
0000
0310
0000
1000
0000
0001
0000
0010
0000
0002
0000
0000
0100
0000
0000
,
1003
0000
0010
0000
0100
0000
0001
0000
2000
0000
0000
3200
0000
0000
1300
0000
,
0001
0000
0010
0000
1000
0000
0020
0000
0000
0032
0000
0000
0103
0000
0010
0000
,
1000
0000
0000
0000
0200
0000
0000
0302
0000
0000
0013
0000
0001
0000
0100
0000
,
1000
0000
0020
0000
0000
0230
0000
0000
1300
0000
0100
0000
0010
0000
1000
0000
,
0001
0000
0000
0010
1100
0001
0100
0000
,
0000
0010
0101
1000
0001
0000
0000
0010
,
1001
0100
1000
0010
0001
1000
0100
0001
,
0010
0000
0000
0100
0000
0000
1000
0000
0011
0000
0100
0000
0010
0000
0000
0100
,
0000
0000
1000
0000
0101
0000
0010
0000
1000
0000
0000
0100
0000
0000
0010
0000
,
1001
0200
0010
0010
0310
0001
2000
0002
,
0000
0000
0000
3003
0000
0000
2000
0000
,
0010
0000
0000
0001
0000
0000
3200
0000
0000
0000
1300
0000
1000
0000
0001
0000
,
0010
0000
0001
0000
0200
0000
0000
0000
1000
0000
0000
0010
0000
0000
0302
0000
,
0000
0103
0010
0100
0001
1000
0200
0000
,
0001
0000
0000
0010
0000
0000
2300
0000
0000
0000
3100
0000
0100
0000
0010
0000
,
0001
0000
1000
0000
0020
0000
0000
0000
0230
0000
0000
0302
0000
0000
1003
0000
,
0100
0000
1000
0000
0010
0000
0100
0000
0001
0000
0010
0000
0100
1000
0100
0000
,
0010
1002
0000
0100
0103
0010
0100
0000
,
1000
0000
0100
0000
0001
0010
0001
0000
0100
0000
0210
0000
0000
0000
0310
0000
,
1000
0001
0010
0100
1000
0100
0010
0001
,
0010
0001
0100
0001
0010
1000
0010
0001
,
0100
0010
1000
0100
1000
0100
0001
0100
,
1000
0000
0000
0010
0000
0000
0100
0000
0010
0000
1001
0000
0000
0000
0000
0000
,
0000
0000
0100
0000
1000
0000
0001
0000
0100
0010
0200
0000
0000
0000
0000
0000
,
0310
0010
1001
0000
0000
0000
1000
0100
,
0010
0001
0020
0000
0000
0000
0000
0000
0100
0000
0130
0000
1000
0000
0001
0000
,
1000
0010
1000
0100
0002
0000
0000
0000
,
0103
0010
0210
0000
0000
0000
1300
0100
,
0010
0000
0001
0000
0100
0000
0001
0000
0010
0000
0100
0000
1000
0001
1000
0000
,
0100
0000
1000
0000
0010
0000
0001
0000
0010
1000
0020
0000
0000
0000
0000
0000
,
0130
0001
1001
0000
0010
0001
1000
0001
,
0200
0000
0000
0000
0000
0000
2300
0000
0000
0000
3100
0001
0100
0000
0010
0000
,
1000
0001
0010
0100
0010
0000
0100
1000
,
0001
0000
0100
0000
0010
0000
0000
0000
0000
1000
0000
0000
0010
0000
0000
0100
0000
0000
0001
0000
0000
1000
0000
0000
,
0100
0010
0100
0010
1000
0010
0001
0100
,
0010
0000
1000
0000
0001
0000
0010
0000
0100
1000
0200
0000
0000
0000
0000
0000
,
0310
0001
1000
0010
2000
0000
3100
0010
,
0002
0000
0000
0013
0100
1000
1000
0000
,
0110
0000
1001
0000
0001
0100
0001
0100
,
1000
0100
0010
1000
0001
0010
1000
0001
,
0100
1000
0100
0010
0001
0100
0020
0000
,
2030
0000
0000
0000
3100
0010
0100
0010
,
1000
0001
0100
0010
0001
0100
1000
0010
,
1000
0100
0010
1000
0001
0010
0110
0000
,
0010
0000
0001
0000
1000
0000
0001
0000
1000
0000
0001
0000
1000
0000
0000
0100
0000
0000
0010
0000
0000
0001
0000
0000
,
0000
0000
0110
0000
1001
0000
0001
0100
,
0010
1000
0000
0000
1001
0000
0110
0000
,
0001
0010
0100
1000
0000
0000
0110
0000
,
1001
0002
0010
2003
,
0100
0000
3002
0000
0010
0000
1003
0010
,
0000
0100
0001
0100
0010
1000
0010
0000
,
1000
0100
0000
0010
0001
0010
0100
1000
,
0100
0010
0001
0100
0000
0010
1000
0010
,
0100
0001
0100
0000
0020
0000
0100
0000
,
2030
0100
3002
0010
,
1003
0000
1000
0100
0000
0101
0000
0001
,
0010
0000
1010
0000
1000
0010
0000
0011
;

//--------------- dance-single - PenTA_ ----------------
#NOTEDATA:;
#STEPSTYPE:dance-single;
#DESCRIPTION:PenTA_;
#DIFFICULTY:Hard;
#METER:14;
#RADARVALUES:0.646906,0.685471,0.165873,0.281985,0.398096,546,526,20,34,0,0,0,0,0,0.646906,0.685471,0.165873,0.281985,0.398096,546,526,20,34,0,0,0,0,0;
#CHARTNAME:;
#CHARTSTYLE:;
#CREDIT:;
#NOTES:
0000
0000
0000
0000
,
0000
0000
0000
0000
,
0001
0000
0100
0010
0000
1000
0000
0100
0000
0010
0100
0000
1000
0000
0010
0000
,
0001
0010
0000
0100
0000
0010
1000
0100
0010
0000
0001
0000
0010
0000
0100
1000
,
0000
0001
0000
0100
0000
1000
0100
0000
0010
0000
1000
0000
0001
0010
0000
0100
,
0000
1000
0001
0100
0010
1000
0001
1000
0100
0000
0001
0100
0000
0010
0000
0001
,
0000
0100
1000
0000
0010
0000
1000
0000
0100
0010
0000
1000
0000
0001
0000
0010
,
0001
0000
1000
0100
0010
0000
0001
1000
0000
0100
0000
0010
0000
1000
0010
0000
,
0001
0000
0100
0000
0010
0100
0000
0010
0000
0100
0000
0001
1000
0000
0100
0000
,
0010
0000
0001
1000
0000
0100
0000
1000
0001
0000
0010
0000
0100
0000
1000
0000
,
0001
0100
0000
0010
0000
1000
0010
0000
0220
0000
0330
0000
0001
0000
1000
0010
,
0000
0100
0000
0001
0100
0000
0010
0000
1000
0000
0100
0000
0010
0001
0000
1000
,
0010
0000
0100
1000
0100
0000
0001
0000
0010
0000
0100
1000
0000
0001
0100
0000
,
1000
0000
0001
0000
0010
0000
1000
0000
0100
0010
0000
0001
1000
0000
0010
0000
,
0220
0000
0330
0000
0001
0000
0100
0010
0000
0100
1000
0000
0001
0000
0010
0000
,
1000
0000
0100
0000
0010
0100
0000
0010
1000
0000
0010
0000
0001
0000
0100
0000
,
2000
0000
0000
3200
0000
0000
0310
0000
1000
0000
1001
0000
0200
0000
0000
0320
,
0000
0000
1030
0000
0001
0000
0101
0000
0020
0000
0000
0032
0000
0000
0103
0000
,
0010
0000
0110
0000
1000
0010
0100
0000
0001
0000
1000
0001
0100
0000
0010
0000
,
1000
0000
1000
0100
0000
1000
0010
0000
0001
0000
0011
0000
0100
0000
0001
0010
,
0000
1000
0010
0000
0100
0000
1100
0000
0010
0000
0001
0100
0000
0010
1000
0000
,
0001
0000
1000
0000
0100
0010
0100
0010
0100
0010
0100
0000
2000
0000
0002
0000
,
0000
0000
0000
3003
0000
0000
0001
0100
,
0001
1000
0010
0100
1000
0001
0010
1000
,
0100
0010
1000
0001
1000
0010
0001
1000
,
0010
0100
1000
0100
0001
1000
0100
0010
,
0100
0001
1000
0010
0001
0100
1000
0001
,
0010
1000
0001
0010
0001
1000
0001
0100
,
1000
0100
0010
1000
0100
0010
0001
0010
,
0110
2100
0000
3010
0110
0001
0020
0100
,
0100
0130
1000
0100
0110
0012
0000
0103
,
1000
0100
0010
0001
0010
1000
0001
0010
,
0001
0010
1000
0010
0001
1000
0100
0010
,
1000
0010
0001
1000
0010
0100
0010
0100
,
0001
0000
0000
0010
0000
0000
0100
0000
2000
0000
0002
0000
0000
0000
0000
0000
,
0000
0000
0000
0000
3003
0000
0000
0000
0001
0010
0002
0000
0000
0000
1003
0000
,
0100
0001
0010
0001
0100
1000
0001
0010
,
1000
0100
2000
0000
0000
0000
3010
0000
0001
0000
1000
0000
0010
0100
0001
0000
,
0100
0010
1000
0100
0020
0001
0130
2000
,
0000
3001
0200
0000
0010
0000
0310
0010
,
1002
0000
1003
0010
1000
0100
0001
0010
,
0001
0000
0100
0000
0010
0001
1000
0000
0010
0100
2000
0000
0000
0000
3100
0000
,
0010
0001
1000
0100
0001
1000
0100
0010
,
0100
1000
0002
0000
0000
0000
0023
0000
0000
0000
0000
0000
1030
0000
0100
0000
,
1000
0001
0100
0010
0001
0000
0100
0010
,
1000
0000
0001
0000
1000
0000
0000
0000
0000
0001
0000
0000
0100
0000
0000
0001
0000
0000
0010
0000
0000
0001
0000
0000
,
0100
1000
0100
0010
1000
0100
0001
0010
,
0001
0000
0100
0000
1000
0000
0001
0000
0010
1000
0200
0000
0000
0000
1300
0000
,
0010
0001
1000
0010
0100
1000
0100
0001
,
0010
0100
0002
0000
0000
0000
1003
0000
0010
0000
0001
0000
0010
0000
0100
0000
,
1000
0000
0001
0000
0100
0000
0010
0000
0100
1000
0100
0000
0010
0000
1000
0000
,
0001
0000
0010
0000
0100
0001
0100
0000
0010
0000
0001
0000
1000
0000
0010
0000
,
0001
0010
0001
0000
1000
0000
0100
0000
0001
0000
0010
0000
0110
0000
0000
0000
,
1001
0000
0000
0000
1001
0000
0000
0000
1000
0010
0100
0000
1000
0000
0001
0000
,
0010
0000
1000
0000
0001
0010
0100
0000
0001
0000
1000
0000
0010
0000
0100
0000
,
0010
0001
1000
0000
0010
0000
0001
0000
0100
0000
0001
0000
0020
0000
0000
0000
,
1030
0000
0100
0000
0010
0000
0100
0000
0010
0000
0001
0000
0100
0000
0000
0010
0000
0000
1000
0000
0000
0002
0000
0000
,
0000
0103
0010
1000
0100
0010
0001
1000
,
0001
0200
0000
0301
1000
0010
1000
0001
,
0010
0100
1000
0200
0000
0000
0310
0001
,
1001
0000
0000
0001
0000
0100
0010
0000
1000
0001
0000
0100
,
0010
0000
0000
0000
1000
0000
0100
0000
0000
0000
0010
0000
0001
0000
0000
0000
0000
0000
0100
0000
0000
0010
0000
0000
,
0100
0010
0001
0010
1000
0001
0100
0010
,
1000
0001
1000
0001
0010
1000
0001
0100
,
1000
0000
0100
0010
0100
0010
0001
0100
,
1000
0100
0010
0100
0002
0000
1000
0000
,
0013
0200
1000
0310
,
1001
0000
0001
0010
0000
1010
0000
1000
,
0100
0000
0101
0000
0001
0100
0000
1100
;

//--------------- dance-single - PenTA_ ----------------
#NOTEDATA:;
#STEPSTYPE:dance-single;
#DESCRIPTION:PenTA_;
#DIFFICULTY:Challenge;
#METER:17;
#RADARVALUES:0.978652,0.971084,0.472739,0.190754,1.422363,826,769,57,23,0,0,0,0,0,0.978652,0.971084,0.472739,0.190754,1.422363,826,769,57,23,0,0,0,0,0;
#CHARTNAME:;
#CHARTSTYLE:;
#CREDIT:;
#NOTES:
0000
0000
0000
0000
,
0000
0000
0000
0000
,
0001
0100
0001
1000
0000
0110
0000
1000
0100
1000
0001
0000
0110
0000
0001
0100
,
0001
1000
0000
0110
0000
0001
0100
0001
1000
0100
0001
1000
0010
0001
0010
0100
,
0000
1001
0000
0010
1000
0010
0100
0000
1001
0000
0010
0001
0010
0100
0000
1001
,
0000
1001
0000
1000
0010
0100
0010
0001
1000
0100
0001
0010
0000
0110
0000
0001
,
0100
1000
0010
0000
0110
0000
1000
0100
0001
0010
0000
0110
0000
0001
0100
1000
,
0001
1000
0001
0100
0010
0001
0010
0100
0000
1010
0000
0100
0001
1000
0100
0000
,
0110
0000
0000
0000
0000
0000
0010
0000
0000
1000
0000
0000
0010
0000
0000
0100
0000
0000
0000
0000
0000
0011
0000
0000
0000
0000
0000
0001
0000
0000
0100
0000
0000
0010
0000
0000
1000
0000
0001
0000
1000
0000
0001
0000
1000
0000
0001
0000
,
1000
0100
0100
0010
0000
1000
0100
0100
0001
0000
0010
0000
0110
0000
1000
0100
,
0100
0010
0000
1000
0100
0010
0001
0000
2002
0000
3003
0000
0001
0100
0100
0010
,
0000
0001
0100
0100
1000
0000
0010
0000
0110
0000
0001
0010
0100
1000
0000
1000
,
0010
0000
0000
0100
0000
0000
0001
0000
0000
0010
0000
0000
0001
0000
1000
0000
0001
0000
1000
0000
0001
0000
0100
0000
0010
0000
0000
1000
0000
0000
0100
0000
0000
0100
0000
0000
0000
0000
0000
0010
0000
0000
1000
0000
0000
0100
0000
0000
,
0100
0000
0001
0000
1001
0000
1000
0100
0100
0010
0000
1000
0100
0010
0001
0000
,
0001
0010
0100
1000
0010
1000
0001
0100
0000
0100
1000
0010
0100
0000
1001
0000
,
0001
0000
0100
0000
0010
0000
1000
0000
0000
0001
0000
0000
1000
0000
0000
0100
0000
0000
0000
0000
0000
0100
0000
0000
0001
0000
0000
0010
0000
0000
0001
0000
0000
0100
0000
0000
0010
0000
1000
0000
0001
0000
0010
0000
0000
0100
0000
0000
,
0220
0000
0000
0000
0330
1000
0010
1000
0100
0000
0011
0000
0220
0000
0000
0000
,
0330
0000
0000
0001
0000
0000
0010
0000
0000
0001
0000
0000
0100
0000
0000
0000
0000
0000
1010
0000
0000
0000
0000
0000
0220
0000
0000
0000
0000
0000
0000
0000
0000
0000
0000
0000
0330
0000
0000
0001
0000
0000
1000
0000
0100
0000
1000
0000
,
0100
0000
0010
0000
0001
0000
0010
0000
0000
0001
0000
0000
0100
0000
0000
0010
0000
0000
1000
0000
0000
0010
0000
0000
0100
0000
0000
1000
0000
0000
0100
0000
0000
0001
0000
0000
1000
0000
0000
0010
0000
0000
1000
0000
0000
0100
0000
0000
,
0001
1000
0010
0001
0000
0001
0010
0100
0110
0000
1001
0000
1000
0010
0001
1000
,
0000
1000
0100
0010
0110
0000
1001
0000
0010
1000
0100
1000
0000
0001
0100
0001
,
0010
0000
0000
0000
0000
0000
0110
0000
0000
0000
0000
0000
1000
0000
0000
0100
0000
0000
0010
0000
0000
0100
0000
0000
1000
0000
0000
0010
0000
0000
0100
0000
0001
0000
1000
0000
0001
0000
0100
0000
0001
0000
2000
0000
0000
0000
0000
0000
,
0000
0000
0000
0000
0000
0000
3000
0000
0000
0000
0000
0000
0001
0010
0000
0100
,
1000
0000
0010
0100
0000
1000
0100
0000
0010
0001
0010
0000
0100
0001
0000
1000
,
0010
0000
0000
0000
0100
0000
0000
0000
0001
0000
0000
0000
1000
0000
0000
0100
0000
0000
0000
0000
0000
0010
0000
0000
0001
0000
0000
0000
0000
0000
0100
0000
0000
0010
0000
0000
0000
0000
0000
0001
0000
0000
0010
0000
0000
0000
0000
0000
,
0100
0000
0000
1000
0000
0000
0100
0000
0000
0001
0000
0000
0010
0000
0100
0000
0010
0000
0100
0000
1000
0000
0001
0000
0100
0000
0010
0000
0100
0000
0010
0000
1000
0000
0001
0000
0010
0000
0000
0100
0000
0000
0000
0000
0000
1000
0000
0000
,
0100
0000
0010
1000
0000
0001
0100
0000
0010
0100
0010
0000
0001
0100
0000
1000
,
0100
0000
0000
0000
0001
0000
0000
0000
0010
0000
0000
0000
0100
0000
0000
1000
0000
0000
0000
0000
0000
0001
0000
0000
1000
0000
0000
0000
0000
0000
0010
0000
0000
1000
0000
0000
0000
0000
0000
0100
0000
0000
0010
0000
0000
0001
0000
0000
,
0010
0100
1000
0010
0100
1000
0100
0010
0001
1000
0100
0001
0010
0100
0010
0100
,
0010
1000
0002
0000
0000
0000
0103
1000
0100
1000
0100
0010
0002
0000
0013
0100
,
1000
0010
1000
0100
0010
0001
0100
0001
0100
0001
0020
0000
0000
0000
0130
1000
,
0100
0000
0010
0000
0001
0000
0010
0100
1000
0001
1000
0001
0100
0001
0010
0100
,
1000
0010
1000
0001
0010
0100
0001
1000
0010
0100
1000
0010
0001
0010
0100
1000
,
0100
0010
1000
0001
0010
0100
1000
0001
0010
0100
0001
0100
1000
0010
0100
0001
,
0010
0000
0000
1000
0000
0000
0010
0000
0000
0001
0000
0000
1000
0000
0000
0010
0000
0000
0100
0000
0000
0000
0000
0000
0110
0000
0000
0000
0000
0000
1001
0000
0000
0000
0000
0000
1000
0000
0001
0000
1000
0000
0001
0000
1000
0000
0100
0000
,
0010
0000
0000
0000
0000
0000
0000
0000
0001
1000
0001
0100
0020
0000
0000
0000
,
0031
0000
1000
0000
0100
0001
1000
0001
0020
0000
0000
0000
1000
0000
0001
0000
,
0130
1000
0001
1000
0020
0000
0000
0000
0130
0000
0001
0000
1000
0100
1000
0001
,
1000
0100
0010
0001
0010
0100
0010
0001
0100
1000
0100
0010
0002
0000
0000
0000
,
0013
0000
1000
0000
0100
0010
1000
0010
0200
0000
0000
0000
1300
0000
0001
0000
,
0100
0001
0010
0001
0200
0000
0000
0000
0010
0000
0010
0000
0310
1000
0001
1000
,
0100
0000
0000
1000
0000
0000
0001
0000
0000
1000
0000
0000
0100
0000
0010
0000
0001
0000
1000
0000
0010
0000
0100
0000
0001
0000
0000
1000
0000
0000
0001
0000
0000
1000
0000
0000
0200
0000
0000
0000
0000
0000
0000
0000
0000
0000
0000
0000
,
0310
0000
1000
0000
0001
0100
0001
0100
0010
0000
0001
0000
1000
0000
0010
0000
,
0100
0001
0000
0001
1000
0000
0200
0000
0000
0000
0000
0000
0310
0001
0010
0001
,
1000
0010
1000
0010
0100
0001
1000
0001
0020
0000
0000
0000
0130
0000
0100
0000
,
1000
0000
0001
0000
1000
0000
0000
0000
0000
0010
0000
0000
0001
0000
0000
0010
0000
0000
0100
0000
0000
0010
0000
0000
,
1000
0000
0000
0000
0000
0000
1000
0000
0000
0000
0000
0000
0101
0000
0000
0000
0000
0000
1000
0000
0000
0000
0000
0000
0101
0000
0000
0000
0000
0000
0010
0000
0000
0000
0000
0000
1000
0000
0100
0000
0010
0000
0001
0000
0000
1000
0000
0000
,
0010
0000
0100
0000
0001
0000
1000
0000
0000
0100
0000
0000
0010
0000
0000
0001
0000
0000
1000
0000
0000
0001
0000
0000
0100
0000
0000
1000
0000
0000
0100
0000
0000
1000
0000
0000
0100
0000
0000
0001
0000
0000
0100
0000
0000
0001
0000
0000
,
0010
0000
1001
0000
1000
0100
0010
0001
2000
0000
0000
0000
0010
0000
0001
0000
,
3100
0010
0100
0010
0001
1000
0100
0010
0001
0000
1001
0000
0001
0010
0000
0010
,
1000
0000
1100
0000
1010
0000
1001
0000
0200
0000
0000
0000
0310
0001
0010
0100
,
0010
1000
0010
0001
0100
0000
0000
0110
0000
0000
1000
0010
1000
0100
1000
0010
,
0001
0000
0000
0010
0000
0000
0100
0000
0000
0010
0000
0000
0001
0000
0000
1000
0000
0000
0100
0000
0000
0001
0000
0000
0010
0000
0100
0000
1000
0000
0001
0000
0010
0000
0100
0000
1000
0000
0000
0000
0000
0000
0000
0000
0000
0000
0000
0000
,
0110
0000
0000
0000
0110
0000
0000
0000
0001
0010
0100
1000
0010
0100
1000
0100
,
0010
0001
1000
0100
0001
0010
0100
0010
1000
0001
0100
1000
0010
1000
0100
0010
,
0001
0100
1000
0001
0010
1000
0010
0100
0001
1000
0100
0000
0110
0000
0000
0000
,
0001
0000
0010
0000
0100
0000
1000
0000
0001
0000
0100
0000
1001
0000
0000
0000
0000
0000
0010
0000
0000
1100
0000
0000
,
0000
0000
0000
1001
,
0010
0000
0000
0101
0000
0000
0000
0000
0000
0000
0000
0000
0010
0000
1000
0000
0001
0000
1000
0000
0010
0000
1000
0000
,
0100
0000
0000
0000
0000
0000
0010
0000
0000
1001
0000
0000
0000
0000
0000
0000
0000
0000
0001
0000
0100
0000
0010
0000
,
1000
0000
0000
0001
0000
0000
1000
0000
0100
0000
0010
0000
0001
0000
0010
0000
1000
0000
0001
0000
0100
0000
1000
0000
,
0010
0000
0100
0000
1000
0000
0100
0000
0010
0000
0001
0000
1000
0000
0100
0000
0001
0000
0010
0000
0000
0100
0000
0000
,
0010
0000
1000
0000
0001
0000
0100
0000
1000
0000
0010
0000
0100
0001
1000
0010
,
0100
0001
1000
0100
0001
1000
0010
0001
,
0100
0001
1000
0010
0100
0010
0001
1000
,
0100
0000
0001
0000
1000
0000
0001
0000
1000
0100
0010
0001
1000
0100
0010
0001
,
0100
0010
1000
0001
0100
0010
1000
0001
0010
0100
1000
0001
0010
0100
1000
0001
,
0100
0000
1010
1100
0000
0101
0000
0011
,
1010
0000
0011
0000
0101
0110
0000
1001
;
