#TITLE:異世界かるてっと;
#SUBTITLE:;
#ARTIST:アインズ(CV 日野 聡)、カズマ(CV 福島 潤)、スバル(CV 小林裕介)、ターニャ(CV 悠木 碧);
#TITLETRANSLIT:Isekai Quartet;
#SUBTITLETRANSLIT:;
#ARTISTTRANSLIT:Ainz (CV Satoshi Hino), Kazuma (CV Jun Fukushima), Subaru (CV Yusuke Kobayashi), Tanya (CV Aoi Yuki);
#GENRE:;
#CREDIT:;
#BANNER:Isekai Quartet.png;
#BACKGROUND:Isekai Quartet-bg.png;
#LYRICSPATH:;
#CDTITLE:;
#MUSIC:Isekai Quartet.ogg;
#OFFSET:-0.860000;
#SAMPLESTART:57.549934;
#SAMPLELENGTH:12.972973;
#SELECTABLE:YES;
#BPMS:0.000000=148.000000
;
#STOPS:
;
#BGCHANGES:;
#KEYSOUNDS:;
#ATTACKS:;

//---------------dance-single - ----------------
#NOTES:
     dance-single:
     :
     Hard:
     12:
     0.538346,0.576316,0.294737,0.094737,0.110526,358.000000,330.000000,28.000000,9.000000,3.000000,0.000000,0.538346,0.576316,0.294737,0.094737,0.110526,358.000000,330.000000,28.000000,9.000000,3.000000,0.000000:
0000
0000
0000
0000
,
0000
0000
0000
0000
,
0001
0100
0010
0100
1000
0100
0010
0100
,
0001
0000
1000
0000
0001
0000
0010
0000
0100
0000
0000
0100
0000
0000
0010
0000
,
0100
0000
0000
0100
0000
0000
0100
0000
0010
0000
0010
0000
0002
0000
0000
0000
,
1003
0000
0000
1000
0000
0000
M010
0000
0010
0000
0001
0000
1000
0000
0000
0000
,
0001
0000
0000
0001
0000
0000
010M
0000
0100
0000
1000
0000
0001
0000
0001
0000
,
1000
0000
0000
1000
0000
0000
M100
0000
0100
0000
0001
0000
1000
0000
0000
0000
,
1000
0100
0010
0001
1000
0000
1001
0000
,
1000
0100
0010
0100
0001
0100
0010
0001
,
1000
0001
0010
0100
0000
0100
1000
0001
,
0100
0010
1000
0100
1000
0010
0100
0001
,
1001
0011
0110
1001
,
0001
0100
0010
0100
1000
0100
0010
1000
,
0001
1000
0010
0100
0000
0100
0001
1000
,
0100
0010
0001
0100
0001
0010
0100
1000
,
1100
0110
0011
0000
,
1000
0000
0000
1000
0000
0000
0010
0000
0100
0000
0000
0100
0000
0000
0010
0000
,
0001
0000
0000
0001
0000
0000
0010
0000
0100
0000
0001
0000
0010
0000
0010
0000
,
0001
0000
0000
0001
0000
0000
0010
0000
0100
0000
0000
0100
0010
0000
0100
0000
,
1000
1000
0001
0010
0100
0000
0110
0000
,
1000
0010
0100
0010
0001
0010
0000
0010
,
0100
0010
1000
0001
0000
0001
0010
0100
,
0010
0000
0000
0010
0001
0000
0000
0001
0100
0000
0000
0100
0010
0000
0100
0000
,
0110
1010
1001
0011
,
2000
0010
0001
0100
,
3002
0000
0100
0000
1003
0100
0001
0100
,
2000
0000
0001
0000
3010
0100
0100
0100
,
0002
0000
1000
0000
0013
0001
1000
0010
,
0200
0000
0000
0000
0001
0000
0000
0000
0310
0000
0000
0100
0000
0000
0001
0000
,
1000
0000
0001
1000
0001
0010
1000
0010
,
0001
0100
0001
0000
0100
1000
0100
0000
,
1000
0010
1000
0000
0010
0001
0010
0000
,
2002
0000
0000
3003
,
1000
0000
0000
1000
0000
0000
1000
0000
1000
0000
0000
0000
0110
0000
0110
0000
,
0010
0100
0001
0000
1000
0100
0010
0100
,
0001
0000
0001
0100
0000
0100
0100
0010
,
0001
0100
0010
0100
0001
0010
0100
1000
,
1010
1100
0101
0011
,
1010
0000
1001
0000
0001
0100
0010
0100
,
1000
0000
1000
0100
0010
0000
0010
0010
,
1000
0000
0001
0010
0100
0000
0010
0000
,
1000
0010
0100
1000
0001
0000
0000
0000
,
1000
0001
0100
0010
0000
0000
0100
0001
,
0010
0100
0001
1000
0010
0100
1000
0001
,
1000
0100
0010
0100
0001
0100
0010
0100
,
1000
0001
1000
0010
0100
0000
0000
0000
,
0001
0000
0000
1000
0000
0000
0100
0000
0010
0000
1000
0000
0010
0000
0100
0000
,
1000
0000
0000
0001
0000
0000
0100
0000
0010
0000
0001
0000
0010
0000
0100
0000
,
0001
0000
0000
1000
0000
0000
0010
0000
0100
0000
1000
0000
0100
0000
0010
0000
,
1000
0000
0000
0001
0000
0000
0010
0000
0200
0000
0000
0000
0000
0000
0000
0000
,
1300
0100
0010
0100
0001
0100
0110
0000
,
0001
0100
0010
0100
1000
0100
0110
0000
,
1010
0000
0000
1001
0000
0000
0011
0000
0010
0000
0100
0000
1000
0000
0001
0000
,
1000
0001
1000
0000
0010
0000
0100
0000
0000
0000
0000
0000
1001
0000
0000
0000
;

//---------------dance-single - ----------------
#NOTES:
     dance-single:
     :
     Challenge:
     14:
     0.756391,0.839474,0.484211,0.084211,0.494737,503.000000,457.000000,46.000000,8.000000,0.000000,0.000000,0.756391,0.839474,0.484211,0.084211,0.494737,503.000000,457.000000,46.000000,8.000000,0.000000,0.000000:
// measure 0
0000
0000
0000
0000
,  // measure 1
0000
0000
0000
0000
,  // measure 2
1000
0001
1000
0001
0010
0001
0010
0001
1000
0001
1000
0001
0100
0001
0100
0001
,  // measure 3
1000
0000
0010
0000
0100
0000
0001
0000
1001
0000
0000
1100
0000
0000
0110
0000
,  // measure 4
0001
0000
0000
0001
0000
0000
0001
0000
0001
0000
0011
0000
1002
0000
0000
0000
,  // measure 5
1003
0000
0000
0010
0000
0000
0001
0000
0001
0000
0010
0000
1000
0000
0000
0000
,  // measure 6
0001
0000
0000
0010
0000
0000
1000
0000
1000
0000
0010
0000
0001
0000
0001
0000
,  // measure 7
1000
0000
0000
0010
0000
0000
0001
0000
0001
0000
0010
0000
1000
0000
0001
0000
,  // measure 8
1000
0100
0001
0010
1000
0000
1001
0000
,  // measure 9
0001
0000
0010
0000
0100
0000
0010
0000
1000
0000
0010
0000
0100
0000
1000
0100
,  // measure 10
0010
1000
0010
0100
1000
0001
0100
0010
,  // measure 11
1000
0001
0010
0100
0001
1000
0010
0100
,  // measure 12
1100
0000
0101
0000
1100
0001
1001
0000
,  // measure 13
1000
0000
0010
0000
0100
0000
0010
0000
0001
0000
0010
0000
0100
0000
0001
0100
,  // measure 14
0010
0000
0001
0000
0010
0000
0100
0000
0001
0000
0010
0001
0010
0000
0100
0010
,  // measure 15
0100
0000
1000
0000
0100
0000
0010
0000
0001
0000
1000
0000
0010
0100
0010
0000
,  // measure 16
0110
0000
0000
0000
1010
0000
0000
0000
1001
0000
0100
1000
0100
1000
0100
1000
,  // measure 17
0100
0010
0001
1000
0000
0010
0100
0000
0100
0010
1000
0001
0000
0010
0100
0000
,  // measure 18
0100
1000
0100
1000
0000
1000
0001
0010
0100
1000
0001
0100
0010
0000
0100
0000
,  // measure 19
0010
0100
0001
1000
0000
0100
0010
0000
0010
0100
1000
0001
0010
0100
1000
0000
,  // measure 20
1100
1100
0110
0011
1001
0000
0110
0000
,  // measure 21
1000
0000
0100
0000
0010
0000
0001
1000
0010
0000
0100
0000
0000
0100
0010
1000
,  // measure 22
0001
0000
0010
0000
0100
0000
1000
0000
0001
0000
0100
0010
0100
0000
0100
0010
,  // measure 23
1000
0000
1000
0100
0010
0000
0010
0001
1000
0000
0010
0100
0001
1000
0001
0010
,  // measure 24
0100
0011
1001
0110
,  // measure 25
0100
0010
1000
0001
0010
0001
1000
1000
,  // measure 26
0010
0000
0100
0000
0001
0000
1000
0000
0100
0000
1000
0100
0010
0001
0100
0000
,  // measure 27
0100
0010
1000
0001
0010
0001
0001
0001
,  // measure 28
0010
0000
0100
0000
1000
0000
0010
0100
0001
0000
0010
0000
0100
0000
1000
0000
,  // measure 29
0010
0000
0100
0000
0001
0000
1000
0000
0100
0000
0100
0010
0000
0010
0100
1000
,  // measure 30
0001
0000
0010
0000
0100
0000
0010
0000
0001
0010
0001
0010
0100
1000
0010
0100
,  // measure 31
0010
0000
0010
0100
0002
0000
1000
0000
1000
0000
1003
0001
0020
0000
0100
0000
,  // measure 32
0100
0000
0130
0010
0002
0000
1000
0000
1000
0000
1003
0001
0200
0000
0010
0000
,  // measure 33
0320
0100
0100
0100
0100
0100
0100
0130
,  // measure 34
0110
0000
0000
0110
0000
0000
0110
0000
0110
0000
0000
0000
0110
0000
1001
0000
,  // measure 35
1000
0100
0001
0000
0001
0100
1000
0010
,  // measure 36
1000
0100
0010
1000
0000
1000
1000
0010
,  // measure 37
0100
1000
0010
0100
1000
0100
0010
1000
,  // measure 38
0100
0000
1000
0100
1000
0000
0100
0010
0100
0000
0010
0001
0010
0000
0000
0000
,  // measure 39
0110
0000
1001
0000
0001
0100
0010
1000
,  // measure 40
0001
0000
0010
0000
0100
0000
0001
0000
0100
0000
0010
0100
0010
0000
0001
1000
,  // measure 41
0001
0000
0010
0100
1000
0000
0010
0000
,  // measure 42
1000
0100
0001
0010
1000
0000
0000
0000
,  // measure 43
0001
0010
1000
0001
0000
0000
1000
0001
,  // measure 44
0100
1000
0010
0001
1000
0001
0010
1000
,  // measure 45
0001
1000
0001
1000
0010
1000
0010
1000
0001
1000
0001
1000
0100
1000
0100
1000
,  // measure 46
0001
0010
0100
1000
1001
0000
0000
0000
,  // measure 47
1000
0000
0010
0000
0100
0000
0010
0000
1000
0100
0010
0000
0001
0000
0100
0000
,  // measure 48
0010
1000
0001
0000
0010
0000
0100
0010
0001
0010
0001
0010
0001
0010
0100
1000
,  // measure 49
0001
0000
0010
0000
0100
0000
0010
0001
1000
0010
0100
0000
0010
0000
1000
0000
,  // measure 50
1010
0000
0000
1001
0000
0000
0011
0000
0200
0000
0000
0000
0300
0000
0000
0000
,  // measure 51
0110
0001
0011
1000
1001
1010
0110
0000
,  // measure 52
0110
1000
1010
0001
1001
0011
0110
0000
,  // measure 53
0010
0000
0000
0001
0000
0000
0100
0000
0010
0100
0010
1000
0001
1000
0001
1000
,  // measure 54
0001
0010
0100
0000
0110
0000
1001
0000
0000
0000
0001
0100
0020
0000
0000
0000
,  // measure 55
0030
0000
0000
0000
;
