#TITLE:Inferno;
#SUBTITLE:;
#ARTIST:Mrs. GREEN APPLE;
#TITLETRANSLIT:;
#SUBTITLETRANSLIT:;
#ARTISTTRANSLIT:;
#GENRE:;
#CREDIT:;
#BANNER:Inferno.png;
#BACKGROUND:Inferno-bg.png;
#LYRICSPATH:;
#CDTITLE:;
#MUSIC:Inferno.ogg;
#OFFSET:-0.820000;
#SAMPLESTART:37.117180;
#SAMPLELENGTH:27.242924;
#SELECTABLE:YES;
#BPMS:0.000000=185.000000
,79.000000=92.500000
,97.000000=185.000000
,176.000000=92.500000
,191.000000=185.000000
,231.000000=92.500000
;
#STOPS:78.000000=0.324000,
125.500000=0.324000,
190.250000=0.324000,
190.750000=0.324000
;
#BGCHANGES:;
#KEYSOUNDS:;
#ATTACKS:;

//---------------dance-single - ----------------
#NOTES:
     dance-single:
     :
     Hard:
     13:
     0.522490,0.598311,0.280511,0.345244,0.140255,339.000000,313.000000,26.000000,32.000000,3.000000,0.000000,0.522490,0.598311,0.280511,0.345244,0.140255,339.000000,313.000000,26.000000,32.000000,3.000000,0.000000:
// measure 0
0000
0000
0000
0000
,  // measure 1
0000
0000
0000
0000
,  // measure 2
0000
0000
0000
0000
,  // measure 3
0000
0000
0000
0000
,  // measure 4
1000
1000
0100
0100
,  // measure 5
1000
1000
0010
0010
,  // measure 6
1000
1000
0100
0100
,  // measure 7
1000
1000
0010
0100
,  // measure 8
0001
0001
0010
0010
,  // measure 9
0001
0001
0100
0100
,  // measure 10
0001
0001
0010
0010
,  // measure 11
0001
0001
1000
0001
0001
0000
1001
0000
,  // measure 12
0100
0000
0101
0000
0010
0100
0001
0000
,  // measure 13
0010
0000
0100
1000
0001
0000
1001
0000
,  // measure 14
0001
1000
0100
0010
0001
0000
0001
0100
,  // measure 15
0010
0000
0000
0010
0100
0000
0000
0100
0001
0000
0000
0000
1000
0000
1000
0000
,  // measure 16
0010
0000
1010
0000
0100
0010
1000
0000
,  // measure 17
0001
0000
1000
0100
0010
0000
0110
0000
,  // measure 18
0010
0001
0100
0010
1000
0001
0010
0100
,  // measure 19
1000
0001
1000
0001
1001
0000
2000
0000
,  // measure 20
0001
0001
3020
0000
0100
0100
2030
0000
,  // measure 21
0001
0001
3200
0000
0010
0010
2300
0000
,  // measure 22
0001
0001
3020
0100
1000
0100
2030
0000
,  // measure 23
0010
0000
0000
0010
0000
0000
0002
0000
0000
0000
0000
0000
3003
0000
0000
0000
0000
0000
1000
0000
0001
0000
1000
0000
,  // measure 24
0001
2000
3010
0000
0010
1000
0100
0000
,  // measure 25
M100
0001
1000
0100
0010
0001
0100
0000
,  // measure 26
0100
0001
1000
0100
0010
0001
0100
0000
,  // measure 27
0100
0001
0020
0000
0001
0000
0230
0000
,  // measure 28
1000
0000
0310
0000
0010
0001
0100
0000
,  // measure 29
010M
1000
0001
0100
0010
1000
0100
0000
,  // measure 30
0100
1000
0001
0100
0010
1000
0001
0010
,  // measure 31
0100
0000
1000
0000
0001
0000
0001
0000
0100
0000
0100
0000
0010
0100
0010
0100
,  // measure 32
0010
0000
0010
1000
0001
0000
0001
0010
,  // measure 33
0100
1000
0001
0100
0010
0000
0001
0010
,  // measure 34
0001
0001
1000
0010
1000
1000
0001
0100
,  // measure 35
0010
0000
0000
0000
0010
0000
1000
0000
0001
0000
0000
0000
1000
0001
1000
0001
,  // measure 36
2000
3001
0002
0013
,  // measure 37
0020
1030
2000
3100
,  // measure 38
0200
0301
0002
0013
,  // measure 39
0020
0130
0200
1300
,  // measure 40
1100
1001
1010
0110
,  // measure 41
0101
1001
0011
0110
,  // measure 42
1100
0101
0011
1010
,  // measure 43
1000
1000
0000
0000
0001
0001
0000
0000
,  // measure 44
1000
0000
0000
1000
0010
0000
0000
0010
0100
0000
0000
0100
0001
0000
0000
0001
,  // measure 45
0010
0000
0000
0010
0100
0000
0000
0100
1000
0000
0000
1000
0001
0000
0000
0001
,  // measure 46
0100
0000
0000
0100
0010
0000
0000
0010
1000
0000
0000
1000
0001
0000
0000
0001
,  // measure 47
0010
0000
0000
0010
0100
0000
0000
0100
1000
1000
0001
0001
0010
0000
0000
0000
,  // measure 48
0010
0001
0100
0000
010M
1000
0001
0100
,  // measure 49
0010
1000
0100
0000
0100
1000
0010
0100
,  // measure 50
1000
0001
0010
0100
0001
0010
0100
0000
,  // measure 51
0100
0000
1000
0000
0001
0000
0000
0000
1000
0001
1000
0001
2000
0000
0000
0000
,  // measure 52
3001
0002
0103
0200
,  // measure 53
1300
2000
3010
0020
,  // measure 54
0031
0002
0103
0200
,  // measure 55
0310
0020
1030
1010
,  // measure 56
1001
1100
0110
0011
,  // measure 57
1001
0000
0101
0000
0110
0000
0002
0023
,  // measure 58
2030
3200
0302
0003
0000
0000
0000
0000
;

//---------------dance-single - ----------------
#NOTES:
     dance-single:
     :
     Medium:
     9:
     0.382235,0.472351,0.053944,0.539444,0.000000,248.000000,243.000000,5.000000,50.000000,0.000000,0.000000,0.382235,0.472351,0.053944,0.539444,0.000000,248.000000,243.000000,5.000000,50.000000,0.000000,0.000000:
0000
0000
0000
0000
,
0000
0000
0000
0000
,
0000
0000
0000
0000
,
0000
0000
0000
0000
,
0001
0001
0010
0010
,
0001
0001
0100
0100
,
0001
0001
0010
0010
,
0001
0001
0100
0010
,
1000
1000
0100
0100
,
1000
1000
0010
0010
,
1000
1000
0100
0100
,
1000
0001
0000
1000
0001
0000
1000
0000
,
0010
0100
0001
0010
,
0100
0000
0100
0010
0100
0000
1000
0000
,
0010
1000
0010
0000
0100
0000
0010
0000
,
1010
1001
0011
0010
,
0100
0010
0001
0100
,
0010
0000
0010
0100
0010
0000
1000
0000
,
0010
1000
0010
1000
0001
1000
0001
1000
,
0001
0002
1000
0000
1003
0000
0002
0000
,
0010
0023
0100
0230
,
1000
2300
0001
3002
,
0100
0203
0010
0320
,
1000
2030
3000
0002
,
0000
2003
3001
0000
0000
0001
0100
0000
,
0000
0100
1000
0000
0000
1000
0010
0000
,
0000
0010
0001
0000
0000
0001
0100
0000
,
0000
0100
0020
0000
0000
0000
0230
0000
,
0000
0000
0310
0000
0000
0010
1000
0000
,
0000
1000
0001
0000
0000
0001
0010
0000
,
0000
0010
1000
0000
0000
1000
0100
0000
,
0000
0100
0001
0001
1000
1000
0002
0000
,
1003
0000
1000
0100
0010
0000
0010
0001
,
1000
0000
1000
0001
0010
0000
0010
0001
,
1000
0000
1000
0001
0100
0000
0100
0001
,
1000
0000
0100
0000
0010
0100
0010
0001
,
0200
1000
0320
1000
,
0230
0001
0320
0001
,
0230
1000
0320
1000
,
0230
0001
0310
0000
,
0010
0100
0010
1000
,
0100
0010
0100
1000
,
0020
0032
0203
2300
,
3001
0001
0000
0000
1000
1000
0000
0000
,
0002
0203
2300
3200
,
0302
0023
2030
3200
,
0302
0023
0230
0302
,
2003
0000
3010
0000
0110
1001
0001
0000
,
0001
0010
0100
0000
0100
1000
0001
0000
,
0001
1000
0100
0000
0001
0100
1000
0000
,
0001
0100
1000
0000
1000
0100
0001
0000
,
0010
0000
0100
0010
0100
1000
0020
0000
,
0001
0230
0001
0320
,
1000
0230
1000
0320
,
0001
0230
0001
0320
,
1000
0130
0000
0100
,
0010
0100
0001
0010
,
0100
0000
0010
0000
0001
0000
0200
2300
,
3020
0032
2003
3000
0000
0000
0000
0000
;

//---------------dance-single - ----------------
#NOTES:
     dance-single:
     :
     Easy:
     7:
     0.289759,0.345649,0.043156,0.539444,0.000000,188.000000,184.000000,4.000000,50.000000,0.000000,0.000000,0.289759,0.345649,0.043156,0.539444,0.000000,188.000000,184.000000,4.000000,50.000000,0.000000,0.000000:
0000
0000
0000
0000
,
0000
0000
0000
0000
,
0000
0000
0000
0000
,
0000
0000
0000
0000
,
1000
1000
0100
0100
,
1000
1000
0010
0010
,
1000
1000
0100
0100
,
1000
1000
0010
0100
,
0001
0001
0010
0010
,
0001
0001
0100
0100
,
0001
0001
0010
0010
,
0011
0000
1100
0000
,
0001
0010
0001
1000
,
0010
0000
0000
0010
0100
0000
0000
0000
,
0001
0010
0100
0000
,
0100
1000
0001
0100
,
0010
0100
0010
1000
,
0001
0000
0000
0001
0010
0000
0000
0000
,
0100
1000
0001
0100
,
1000
0100
0001
2000
,
0000
3200
0000
0320
,
0000
0032
0000
2003
,
0000
3020
0000
0230
,
0000
0002
0303
2000
,
0000
0001
3002
0000
0010
0000
0203
0000
,
0010
0302
0010
0103
,
0100
0002
0010
0103
,
0100
0020
0000
0230
,
0000
0320
1000
0230
,
0001
0320
1000
0130
,
0001
0020
0100
0032
,
1000
0013
0010
0001
,
1000
0000
0000
1000
0100
0000
0000
0100
,
1000
0000
0000
1000
0001
0000
0000
0001
,
0100
0000
0000
0100
0001
0000
0000
0001
,
1000
0000
0100
0000
,
0020
0000
0200
0030
,
2000
0300
0002
3000
,
0200
0003
0020
0300
,
0200
0030
0002
0300
,
1003
1000
0100
0010
,
0001
0001
0100
0010
,
1000
0001
0010
0100
,
1100
0000
1100
0000
,
0002
0203
0320
2030
,
3020
2030
3002
0023
,
0230
0320
0032
0023
,
0032
0000
2003
0000
3001
0001
1000
0000
,
0000
1000
0010
0000
0000
0010
1000
0000
,
0000
1000
0001
0000
0000
0010
0100
0000
,
0000
1000
0001
0000
0000
0100
0010
0000
,
0000
1000
0000
0200
,
0000
0020
0300
0002
,
0030
2000
0003
0020
,
3000
0200
0030
0020
,
0300
2000
0030
3001
,
0001
0010
0100
1000
,
1000
0000
0010
0000
0100
0000
0001
0010
,
0100
1000
0001
0000
0000
0000
0000
0000
;

//---------------dance-single - ----------------
#NOTES:
     dance-single:
     :
     Beginner:
     4:
     0.186494,0.251381,0.032367,0.194200,0.000000,121.000000,118.000000,3.000000,18.000000,0.000000,0.000000,0.186494,0.251381,0.032367,0.194200,0.000000,121.000000,118.000000,3.000000,18.000000,0.000000,0.000000:
0000
0000
0000
0000
,
0000
0000
0000
0000
,
0000
0000
0000
0000
,
0000
0000
0000
0000
,
1000
0000
1000
0000
,
0001
0000
0001
0000
,
0100
0000
0100
0000
,
0010
0000
0010
0000
,
0100
0000
0100
0000
,
0001
0000
0001
0000
,
1000
0000
1000
0000
,
1001
0000
1001
0000
,
1000
0000
0100
0100
,
0100
0000
0100
0000
,
0010
0000
0001
0000
,
1000
1000
1000
0000
,
0001
0000
0100
0100
,
0100
0000
0100
0000
,
0010
0010
0010
0000
,
1000
1000
1000
0000
,
0001
0000
0001
0000
,
0010
0000
0010
0000
,
0100
0000
0100
0000
,
1000
1000
0000
0000
,
0000
0001
0000
0100
,
0000
1000
0000
0010
,
0000
0001
0000
1000
,
0000
0001
0000
0000
,
0000
1000
0000
0100
,
0000
0001
0000
0010
,
0000
1000
0000
0001
,
0000
1000
0000
0000
,
0001
0001
0001
0000
,
1000
1000
1000
0000
,
0010
0010
0010
0000
,
0100
0000
0100
0000
,
0020
0030
0020
0030
,
2000
3000
2000
3000
,
0002
0003
0002
0003
,
0020
0030
0020
0030
,
0100
0100
0100
0000
,
1000
1000
1000
0000
,
0001
0001
0001
0001
,
0001
0000
0000
0000
,
2002
0000
0000
0000
,
0000
0000
0000
0000
,
0000
0000
0000
0000
,
0000
0000
3003
1000
,
1000
1000
0000
0001
,
0001
0001
0000
0100
,
0100
0100
0000
0010
,
0000
0010
0000
0200
,
0300
0200
0300
0002
,
0003
0002
0003
2000
,
3000
2000
3000
0200
,
0300
0200
0300
0010
,
0010
0010
0000
0001
,
0001
0001
0000
1000
,
0001
1000
0000
0000
;
