#TITLE:Infection;
#SUBTITLE:;
#ARTIST:Inspector K;
#TITLETRANSLIT:;
#SUBTITLETRANSLIT:;
#ARTISTTRANSLIT:;
#GENRE:;
#CREDIT:;
#BANNER:Infection.png;
#BACKGROUND:background.png;
#LYRICSPATH:;
#CDTITLE:;
#MUSIC:Infection.mp3;
#OFFSET:-0.060000;
#SAMPLESTART:25.454000;
#SAMPLELENGTH:12.000000;
#SELECTABLE:YES;
#BPMS:0.000000=170.000000
;
#STOPS:
;
#BGCHANGES:;
#KEYSOUNDS:;
#ATTACKS:;

//---------------dance-single - ----------------
#NOTES:
     dance-single:
     :
     Hard:
     14:
     0.617016,0.823283,0.171517,0.374219,0.202702,554.000000,532.000000,22.000000,48.000000,0.000000,0.000000,0.617016,0.823283,0.171517,0.374219,0.202702,554.000000,532.000000,22.000000,48.000000,0.000000,0.000000:
// measure 0
0000
0000
0000
0000
,  // measure 1
0000
0000
0000
0000
,  // measure 2
0000
0000
0000
0000
,  // measure 3
0000
0000
0000
0000
,  // measure 4
1000
0000
0000
0010
0000
0010
0000
0010
,  // measure 5
0100
0000
0000
0001
0010
0010
0010
0000
,  // measure 6
0100
0000
0000
1000
0000
1000
0000
1000
,  // measure 7
0010
0100
0000
0100
0010
0100
0010
0000
2000
0000
0000
0000
3200
0000
0000
0000
,  // measure 8
0310
0000
0011
0000
0001
0100
1000
0100
,  // measure 9
0000
0000
0000
0010
1000
0000
0101
0000
,  // measure 10
0001
0000
0011
0000
0010
1000
0010
0001
,  // measure 11
0000
0000
0000
1000
0100
0000
1001
0000
,  // measure 12
0001
0000
1000
0000
0010
0001
0010
1000
,  // measure 13
0000
0000
0000
0100
0010
0000
0011
0000
,  // measure 14
0001
0000
0101
0000
0001
0100
1000
0100
,  // measure 15
0000
0000
0000
0001
0010
0000
1100
0000
,  // measure 16
2002
0000
0000
0000
,  // measure 17
3003
0000
0000
1000
0020
0000
0230
0000
,  // measure 18
0301
0010
1000
0010
0001
0010
1000
0010
,  // measure 19
0001
0000
0010
0000
1000
0000
0010
0000
0002
0000
0000
0000
1003
0010
1000
0010
,  // measure 20
0100
1000
0100
0001
0100
1000
0100
0001
,  // measure 21
0000
0000
0100
0000
1000
0000
0000
0000
0100
0001
0100
0001
0020
0000
0000
0000
,  // measure 22
0130
0010
0001
0100
0010
0100
0001
0010
,  // measure 23
0100
0000
0010
0000
0001
0000
0100
0000
0020
0000
0000
0000
1030
0001
1000
0001
,  // measure 24
0100
0010
1000
0100
1000
0010
0100
0010
,  // measure 25
1000
0100
0000
0100
0020
0000
0032
0000
,  // measure 26
0103
1000
0100
0001
0010
0100
1000
0100
,  // measure 27
0001
0000
0100
0000
1000
0000
0100
0000
0020
0000
0000
0000
0031
0100
0001
0100
,  // measure 28
0001
0010
1000
0010
0001
0100
0010
1000
,  // measure 29
0000
0000
0100
0000
0010
0000
0001
0000
1000
0010
1000
0010
0200
0000
0000
0000
,  // measure 30
0301
1000
0100
1000
0001
0100
1000
0100
,  // measure 31
0001
0000
1000
0000
0010
0000
1000
0000
0200
0000
0000
0000
0310
0001
0010
0001
,  // measure 32
1000
0001
0100
0001
1000
0100
0001
0100
,  // measure 33
0000
0000
0010
0000
0000
0000
0100
0000
1000
0100
0010
0001
2000
0000
0000
0000
,  // measure 34
0200
0000
0000
3300
,  // measure 35
0002
0000
0013
0001
0010
0100
0020
0000
,  // measure 36
0230
0000
0310
0100
1000
0001
0200
0000
,  // measure 37
0310
1000
0001
0010
,  // measure 38
0100
1000
0100
1000
0010
0000
0100
0000
0001
0000
1000
0000
0010
0000
0100
0000
,  // measure 39
0002
0000
0013
0100
0010
0001
2000
0000
,  // measure 40
3020
0000
0130
0001
0010
0001
2000
0000
,  // measure 41
3001
1000
0010
0100
,  // measure 42
0001
0100
0010
0100
0001
0100
0010
0100
0001
1000
0001
0100
0001
0100
0010
0100
,  // measure 43
0002
0000
0013
0001
1000
0010
2000
0000
,  // measure 44
3200
0000
0310
0100
1000
0001
0020
0000
,  // measure 45
0130
0010
0001
1000
,  // measure 46
0010
1000
0010
1000
0100
0000
0010
0000
0100
0000
1000
0000
0001
0000
0100
0000
,  // measure 47
0020
0000
1030
0100
0010
0100
2000
0000
,  // measure 48
3002
0000
0103
0001
0010
0100
0020
0000
,  // measure 49
0130
1000
0001
0100
,  // measure 50
0010
1000
0010
0100
0010
1000
0010
0100
0001
0100
0010
1000
0100
1000
0010
0100
,  // measure 51
0010
0000
1010
0000
0001
1000
0100
0120
,  // measure 52
0000
0000
0000
0100
0130
0000
1001
0000
,  // measure 53
1000
0000
0101
0000
0001
0010
0100
2100
,  // measure 54
0000
0000
0000
0001
3001
0000
0101
0000
,  // measure 55
0001
0000
1100
0000
0100
1000
0001
0012
,  // measure 56
0000
0000
0000
1000
1003
0000
0110
0000
,  // measure 57
1000
0000
0101
0000
0001
0010
0001
2001
,  // measure 58
0000
0000
0000
0010
3010
0000
0101
0000
,  // measure 59
0001
0000
0001
0000
0010
0100
1000
0001
,  // measure 60
0000
1000
0010
0010
1000
0000
0010
0000
,  // measure 61
0100
0000
0001
1000
0100
1000
0001
0010
,  // measure 62
0000
0001
0010
0010
0001
0000
1000
0000
,  // measure 63
0010
0000
0010
0100
0010
0010
1000
0001
,  // measure 64
0000
0010
0100
0010
0001
0000
1000
0000
,  // measure 65
0010
0000
0010
0100
0001
0001
1000
0100
,  // measure 66
0020
0100
0000
0100
0130
0000
1001
0000
,  // measure 67
1000
0010
0001
0010
0100
0001
1000
0100
,  // measure 68
0000
0000
0010
0000
1000
0000
0010
0000
0200
0000
0000
0000
1300
0100
1000
0100
,  // measure 69
0010
0001
0010
1000
0010
0100
0010
0001
,  // measure 70
0000
0000
1000
0000
0001
0000
0100
0000
0001
0100
0001
0100
0020
0000
0000
0000
,  // measure 71
1030
0100
0001
0100
0010
0001
0100
1000
,  // measure 72
0100
0000
0010
0000
1000
0000
0001
0000
0020
0000
0000
0000
0130
1000
0100
1000
,  // measure 73
0001
0100
0010
1000
0100
0001
0100
0010
,  // measure 74
0000
0100
0000
1000
0002
0000
0203
0000
,  // measure 75
0310
0010
1000
0001
0001
0010
0100
0100
,  // measure 76
0010
0000
0001
0000
0001
0000
1000
0000
0020
0000
0000
0000
0130
0001
0100
0001
,  // measure 77
0010
0010
0100
1000
1000
0100
1000
1000
,  // measure 78
0000
0000
0001
0000
1000
0000
0000
0000
0001
0100
0001
0100
0020
0000
0000
0000
,  // measure 79
1030
1000
0100
0001
0001
0100
0010
0010
,  // measure 80
0001
0000
0100
0000
0100
0000
0010
0000
2000
0000
0000
0000
3001
0010
0001
0010
,  // measure 81
0100
0100
1000
0100
0100
0001
0100
0100
,  // measure 82
0010
0001
0000
1000
0020
0000
0230
0000
,  // measure 83
0002
0000
0000
0303
,  // measure 84
1000
0000
0000
0001
0000
0001
0000
0001
,  // measure 85
0010
0000
0000
0010
0001
0001
0001
0000
,  // measure 86
0100
0000
0000
0010
0000
0010
0000
1000
,  // measure 87
0001
1000
0000
1000
0001
1000
0001
0000
0000
0000
0000
0000
0000
0000
0000
0000
,  // measure 88
0110
0000
0000
0000
;

//---------------dance-single - ----------------
#NOTES:
     dance-single:
     :
     Medium:
     10:
     0.454409,0.548855,0.070166,0.413201,0.011694,408.000000,399.000000,9.000000,53.000000,0.000000,0.000000,0.454409,0.548855,0.070166,0.413201,0.011694,408.000000,399.000000,9.000000,53.000000,0.000000,0.000000:
0000
0000
0000
0000
,
0000
0000
0000
0000
,
0000
0000
0000
0000
,
0000
0000
0000
0000
,
0200
0000
0000
0000
,
0000
0000
0000
0310
2000
0000
0000
0000
,
3002
0000
0000
0000
,
0003
0000
0000
0010
0200
0000
2300
0000
,
3001
0000
1000
0000
0001
0100
0001
0100
,
0000
0000
0000
0010
0100
0000
0001
0000
,
1000
0000
0100
0000
0010
0001
0010
0001
,
0000
0000
0000
0100
0010
0000
1001
0000
,
0001
0000
0100
0000
0010
1000
0010
1000
,
0000
0000
0000
0001
0010
0000
0100
0000
,
0010
0000
0001
0000
1000
0010
1000
0010
,
0000
0000
0000
0100
0001
0000
1000
0000
,
0200
0000
0000
0000
,
0000
0000
0000
1300
0002
0000
2003
0000
,
3010
0000
1000
0001
0000
0010
0100
0000
,
0010
0001
0000
0100
0020
0000
1030
0010
,
1000
0000
0001
1000
0000
0010
0100
0000
,
0001
0010
0000
0100
0010
0010
0002
0000
,
1003
0000
0001
0010
0000
0001
1000
0000
,
0001
0100
0000
0010
0200
0000
0310
0100
,
0001
0000
1000
0100
0000
1000
0010
0000
,
0100
0010
0000
1000
0002
0000
2003
0000
,
3100
0010
0000
0100
1000
0000
0010
0100
,
0000
0001
0010
0000
0200
0000
0310
0001
,
1000
0001
0000
0100
0010
0000
1000
0001
,
0000
0010
0000
0100
0020
0000
0032
0000
,
1003
0010
0000
0100
0001
0000
0010
0100
,
0000
0010
0001
0000
2000
0000
3010
1000
,
0100
0010
0000
0100
1000
0000
0010
0100
,
0000
0010
0000
0100
0002
0000
2003
0000
,
0002
0000
0000
3003
,
2000
3020
0100
1030
,
0200
0302
1000
0013
,
1001
0000
0000
0000
,
0001
0100
1000
0100
0001
0010
0100
1000
,
0002
0203
0010
0301
,
0020
0230
0010
1300
,
1001
0000
0000
0000
,
0001
1000
0001
1000
0001
1000
0001
1000
,
0020
2030
0100
3001
,
0200
0320
1000
0130
,
1001
0000
0000
0000
,
0001
0010
1000
0010
0001
0010
0100
1000
,
0002
0203
0010
0301
,
0020
0230
0010
1300
,
1001
0000
0000
0000
,
1000
0010
1000
0010
0100
0001
0100
0001
,
0010
0000
0100
0000
0010
0001
1000
0010
,
0000
0000
0000
0100
0002
0000
1000
0000
,
0013
0000
0100
0000
0010
0001
1000
0100
,
0000
0000
0000
0010
0200
0000
1000
0000
,
0310
0000
0001
0000
0100
0001
0010
0100
,
0000
0000
0000
0010
0002
0000
0010
0000
,
1003
0000
0001
0000
0100
0001
0010
0100
,
0000
0000
0000
0010
0200
0000
0010
0000
,
1300
0000
1000
0000
1000
0100
0010
0001
,
0000
0001
0010
0100
1000
0000
1001
0000
,
0001
0000
0100
0000
0010
1000
0001
0100
,
0000
0001
0010
0000
0100
0000
0010
0000
,
0001
0000
1000
0000
0001
0010
0100
1000
,
0000
0100
0010
0000
0001
0000
1001
0000
,
1000
0000
0010
0000
0100
0001
0010
0001
,
0000
1000
0100
0000
2000
0000
3020
0000
,
0130
0000
0001
0010
0000
0010
1000
0000
,
1000
0010
0000
0010
0002
0000
1003
0001
,
0100
0001
0000
0010
0100
0000
0010
0001
,
0000
0100
0010
0000
0100
0010
2000
0000
,
3001
0100
0000
0100
1000
0000
1000
0100
,
0000
0100
0010
0000
0200
0000
0310
1000
,
0001
0010
0000
0001
0100
0000
0010
1000
,
0000
0001
0000
1000
0002
0000
2003
0000
,
3001
0010
0100
1000
0001
0010
0100
1000
,
0001
0010
0100
1000
0002
0000
1003
0001
,
1000
0100
0010
0001
1000
0100
0010
0001
,
0000
1000
0100
0010
0001
0100
0020
0000
,
0130
0001
1000
0010
0100
0001
1000
0010
,
0100
0001
1000
0010
0200
0000
0301
0100
,
0010
1000
0010
0100
0010
1000
0100
0010
,
0001
0010
0100
0010
0002
0000
2003
0000
,
0002
0000
0000
3003
,
0101
0000
0000
0100
0000
0010
0000
1000
,
0001
0000
0000
0010
0100
1000
0100
0000
,
1000
0000
0000
0001
0000
0001
0000
1000
,
0010
0100
0000
0010
0100
0010
0000
0000
0000
0000
0000
0000
0000
0000
0000
0000
,
1001
0000
0000
0000
;

//---------------dance-single - ----------------
#NOTES:
     dance-single:
     :
     Easy:
     7:
     0.297371,0.343034,0.046777,0.202702,0.000000,267.000000,261.000000,6.000000,26.000000,0.000000,0.000000,0.297371,0.343034,0.046777,0.202702,0.000000,267.000000,261.000000,6.000000,26.000000,0.000000,0.000000:
0000
0000
0000
0000
,
0000
0000
0000
0000
,
0000
0000
0000
0000
,
0000
0000
0000
0000
,
2000
0000
0000
0000
,
0000
0000
0000
3001
0200
0000
0000
0000
,
0320
0000
0000
0000
,
0030
0000
0000
0100
0002
0000
2003
0000
,
3001
0010
0001
0100
,
0000
0000
0000
0010
1000
0000
0001
0000
,
1000
0100
0010
0100
,
0000
0000
0000
0010
0001
0000
0100
0000
,
0001
1000
0100
0010
,
0000
0000
0000
0100
1000
0000
0001
0000
,
0100
0001
0010
0100
,
0000
0000
0000
0010
0100
0000
1000
0000
,
2002
0000
0000
0000
,
0000
0000
3003
0000
,
0001
0000
0000
1000
0000
0000
0010
0000
,
0000
1000
0000
0000
0001
0000
1000
0001
,
1000
0000
0000
0001
0000
0000
0010
0000
,
0000
0100
0000
0000
0010
0001
0010
0000
,
0001
0000
0000
0100
0000
0000
0010
0000
,
0000
1000
0000
0000
0100
0000
0010
0100
,
0010
0000
0000
0100
0000
0000
1000
0000
,
0000
0001
0000
0000
1000
0000
0001
0000
,
0100
0000
0000
0001
0000
0000
0010
0000
,
0000
0100
0000
0000
0010
0000
0001
0100
,
0010
0000
0000
0100
0000
0000
0010
0000
,
0000
1000
0000
0000
0100
1000
0010
0000
,
1000
0000
0000
0001
0000
0000
0010
0000
,
0000
0001
0000
0000
1000
0000
0100
0010
,
0001
0000
0000
0010
0000
0000
0001
0000
,
0000
0100
0000
0000
0020
0000
2030
0000
,
0002
0000
0000
3003
,
0002
0103
0001
0010
,
0200
1300
0100
0010
,
1001
0000
0000
0000
,
0020
0000
0000
0000
,
2030
3001
0010
0100
,
0020
0031
0100
0010
,
1001
0000
0000
0000
,
0200
0000
0000
0000
,
0302
0013
0100
0010
,
0002
1003
0010
0100
,
1001
0000
0000
0000
,
2000
0000
0000
0000
,
3020
0130
0001
0010
,
0200
0310
0001
1000
,
1001
0000
0000
0000
,
0002
0000
0000
0000
,
1003
0000
0010
0000
0100
0000
0001
0010
,
0000
0000
0000
0010
0001
0000
1000
0000
,
0001
0000
0100
0000
0010
0000
1000
0010
,
0000
0000
0000
0010
0100
0000
0010
0000
,
1000
0000
0001
0000
0010
0000
0100
0010
,
0000
0000
0000
0010
0100
0000
0010
0000
,
0001
0000
1000
0000
0010
0000
1000
0010
,
0000
0000
0000
0010
0100
0000
0001
0000
,
1000
1000
0001
0001
,
0100
0010
1000
0010
,
0100
0100
0001
0001
,
1000
0100
1000
0001
,
0100
0100
0001
0001
,
0010
0001
1000
0100
,
1000
1000
0001
0001
,
0100
0000
0010
0000
,
1000
0000
0000
0001
0000
0000
0010
0000
,
0000
0100
0000
0000
0010
0000
0100
0010
,
0001
0000
0000
0010
0000
0000
0001
0000
,
0000
1000
0000
0000
0001
0000
1000
0000
,
0010
0000
0000
1000
0000
0000
0100
0000
,
0000
0010
0000
0000
0100
0000
0010
0100
,
1000
0000
0000
0100
0000
0000
1000
0000
,
0000
0001
0000
0000
0100
0000
0001
0000
,
0010
0000
0000
0100
0000
0000
0010
0000
,
0000
0001
0000
0000
1000
0000
0001
0100
,
0010
0000
0000
0100
0000
0000
0001
0000
,
0000
1000
0000
0000
0100
1000
0010
0000
,
0100
0000
0000
0010
0000
0000
1000
0000
,
0000
0001
0000
0000
1000
0000
0010
1000
,
0100
0000
0000
0010
0000
0000
0100
0000
,
0000
0010
0000
0000
0002
0000
2003
0000
,
0020
0000
0000
3030
,
0001
0000
0000
1000
0000
1000
0000
1000
,
0001
0000
0000
0001
1000
0000
0010
0000
,
0100
0000
0000
0010
0000
0010
0000
0100
,
0020
0000
0030
0000
,
1001
0000
0000
0000
;

//---------------dance-single - ----------------
#NOTES:
     dance-single:
     :
     Beginner:
     3:
     0.128081,0.205821,0.023389,0.038981,0.000000,115.000000,112.000000,3.000000,5.000000,0.000000,0.000000,0.128081,0.205821,0.023389,0.038981,0.000000,115.000000,112.000000,3.000000,5.000000,0.000000,0.000000:
0000
0000
0000
0000
,
0000
0000
0000
0000
,
0000
0000
0000
0000
,
0000
0000
0000
0000
,
0000
0000
0000
0000
,
0000
0000
0000
0000
,
0000
0000
0000
0000
,
0000
0000
0000
0000
,
0010
0000
0000
0000
,
0000
0000
1000
1000
,
0001
0000
0000
0000
,
0000
0000
0010
0010
,
0100
0000
0000
0000
,
0000
0000
0010
0010
,
0001
0000
0000
0000
,
0000
0000
1000
1000
,
0010
0000
0000
0000
,
0000
0000
0100
0100
,
0010
0000
0000
1000
,
0000
0000
0001
0000
,
1000
0000
0000
0010
,
0000
0000
1000
1000
,
0001
0000
0000
0010
,
0000
0000
0000
0001
,
1000
0000
0000
0010
,
0000
0000
0100
0100
,
0010
0000
0000
1000
,
0000
0000
0100
0000
,
0010
0000
0000
0100
,
0000
0000
1000
0001
,
1000
0000
0000
0010
,
0000
0000
0100
0000
,
0010
0000
0000
1000
,
0000
0000
0001
1000
,
0110
0000
0000
0000
,
0100
0000
0000
0000
,
0010
0000
0000
0000
,
2000
0000
0000
0000
,
3000
0000
0000
0000
,
0001
0000
0000
0000
,
0010
0000
0000
0000
,
0200
0000
0000
0000
,
0300
0000
0000
0000
,
0010
0000
0000
0000
,
0001
0000
0000
0000
,
0200
0000
0000
0000
,
0300
0000
0000
0000
,
0010
0000
0000
0000
,
1000
0000
0000
0000
,
0002
0000
0000
0000
,
0003
0000
0000
0000
,
1000
0000
0000
0000
,
0000
0000
0010
0100
,
0010
0000
0000
0000
,
0000
0000
1000
0001
,
1000
0000
0000
0000
,
0000
0000
0001
0100
,
0001
0000
0000
0000
,
0000
0000
1000
0010
,
1000
0000
0000
0000
,
0100
0000
0000
0000
,
0010
0000
0000
0000
,
0001
0000
0000
0000
,
1000
0000
0000
0000
,
0010
0000
0000
0000
,
0100
0000
0000
0000
,
0001
0000
1000
0001
,
0110
0000
0000
0010
,
0000
0000
0000
0100
,
0001
0000
0000
0010
,
0000
0000
0100
0010
,
0100
0000
0000
0010
,
0000
0000
0001
0000
,
1000
0000
0000
0010
,
0000
0000
0100
0010
,
1000
0000
0000
0001
,
0000
0000
0010
0001
,
1000
0000
0000
0100
,
0000
0000
1000
0001
,
0100
0000
0000
0010
,
0000
0000
1000
0000
,
0100
0000
0000
1000
,
0000
0000
0010
0100
,
0002
0000
0000
0003
,
1000
0000
0000
0000
,
0000
0000
0000
0000
,
0001
0000
0000
0000
,
0100
0000
0000
0000
,
1001
0000
0000
0000
;
