#TITLE:If Love Was a Crime;
#SUBTITLE:;
#ARTIST:Poli Genova;
#TITLETRANSLIT:;
#SUBTITLETRANSLIT:;
#ARTISTTRANSLIT:;
#CREDIT:;
#BANNER:;
#BACKGROUND:;
#LYRICSPATH:;
#CDTITLE:;
#MUSIC:If Love Was A Crime.mp3;
#OFFSET:-4.380;
#SAMPLESTART:45.830;
#SAMPLELENGTH:17.450;
#SELECTABLE:YES;
#BPMS:0.000=110.000;
#STOPS:;
#BGCHANGES:;

//---------------dance-single - ----------------
#NOTES:
     dance-single:
     :
     Hard:
     10:
     0.398,0.402,0.185,0.238,0.128: // measure 1
0000
0000
0000
0000
,  // measure 2
0000
0000
0000
0000
,  // measure 3
1000
0001
0100
0001
,  // measure 4
1000
0000
0100
0000
1000
0001
0100
0010
,  // measure 5
0100
0000
0000
0000
0001
0000
0000
0000
1000
0000
0100
0000
0010
0002
0000
0000
,  // measure 6
0010
1000
0200
0303
,  // measure 7
0001
0000
0000
0100
0001
0000
0000
0000
1000
0000
0000
0100
1000
0000
0000
0000
,  // measure 8
0001
0000
0100
0010
1000
0001
0010
0000
,  // measure 9
0001
0000
0000
0000
0010
0000
0001
0000
1000
0000
0100
0000
1000
0200
0000
0000
,  // measure 10
1300
0000
0001
0100
0001
0100
0010
0000
,  // measure 11
1001
0000
0001
0202
0000
0000
0303
0000
,  // measure 12
1001
0000
1000
1200
0000
0000
0310
0000
,  // measure 13
1001
0000
0001
2200
0000
0000
3300
0000
,  // measure 14
1000
0010
0100
0120
0000
0000
1030
0000
,  // measure 15
1000
0100
1000
0002
0000
0000
0103
0000
,  // measure 16
0010
1000
0001
0010
0200
0000
0310
0000
,  // measure 17
0010
0100
0010
0100
1000
0100
0010
0002
,  // measure 18
0000
0000
0000
0000
,  // measure 19
0003
0000
1000
0100
1000
0000
0001
0000
0100
0000
0010
0000
0110
0000
0000
0000
,  // measure 20
1001
0000
0000
0001
0000
0000
0100
0000
0001
0000
0000
0000
1010
0000
0000
0000
,  // measure 21
0100
0000
0000
0010
0000
0000
1000
0000
0001
0000
0010
0000
0100
0000
0010
0000
,  // measure 22
0001
0000
0000
1000
0000
0000
0001
0000
0100
0000
0000
0000
1010
0000
0000
0000
,  // measure 23
1000
0100
0100
0010
0100
1000
1001
0000
,  // measure 24
0101
0000
0000
0010
0000
0000
1000
0000
0100
0000
0010
0000
0001
0000
0000
0000
,  // measure 25
0100
0000
0000
0001
0000
0000
0100
0000
0010
0000
1000
0000
0001
0000
0010
0000
,  // measure 26
0100
0000
0000
0010
0000
0000
0001
0000
1000
0000
0100
0000
2000
0000
0000
0000
,  // measure 27
3000
0000
0001
1000
0001
0000
1000
0000
0100
0000
0010
0000
0001
0000
0000
0000
,  // measure 28
1001
0000
0000
0000
0001
0000
0000
0001
0100
0000
0020
0000
0000
0000
1000
0000
,  // measure 29
1030
0000
0000
0000
0100
0000
0000
1000
0100
0000
0010
0000
0001
0000
0100
0000
,  // measure 30
0010
0000
0000
0000
0100
0000
0000
0001
0100
0000
0002
0000
0000
0000
1000
0000
,  // measure 31
1003
0000
0000
0000
0001
0000
0000
0100
0010
0000
1000
0000
1001
0000
0000
0000
,  // measure 32
0001
0000
0100
0000
0001
0000
2000
0002
0000
0000
0000
0000
3003
0000
0000
0000
,  // measure 33
0010
0000
0001
0000
1000
0000
0200
2000
0000
0000
0000
0000
3300
0000
0000
0000
,  // measure 34
0001
0000
0100
0000
0010
0000
2000
0002
0000
0000
0000
0000
0000
0000
0000
0000
,  // measure 35
3003
0000
1000
0100
1000
0000
0100
0000
0010
0000
0001
0000
0200
0000
0000
0000
,  // measure 36
0300
0000
0000
0000
0000
0010
0100
0010
,  // measure 37
1001
0000
0000
0001
0000
0000
1000
0000
0001
0000
0010
0000
0100
0000
0010
0000
,  // measure 38
0001
0000
0000
1000
0000
0000
0001
0000
0100
0000
0010
0000
1000
0000
0010
0000
,  // measure 39
0100
0000
0000
0001
0000
0000
1000
0000
0100
0000
0000
0000
0011
0000
0000
0000
,  // measure 40
0001
0100
0100
0010
1000
0001
0011
0000
,  // measure 41
1100
0000
0000
1000
0000
0000
0001
0000
0100
0000
0010
0000
0100
0000
0001
0000
,  // measure 42
0100
0000
0000
0010
0000
0000
0100
0000
1000
0000
0100
0000
0001
0000
1000
0000
,  // measure 43
0100
0000
0000
0010
0000
0000
0100
0000
1000
0000
0001
0000
0010
0000
0001
0000
,  // measure 44
0100
0001
0100
0010
1000
0010
1001
0000
,  // measure 45
1000
0000
0100
0000
1000
0000
0001
0200
0000
0000
0310
0000
0100
0000
0010
0000
,  // measure 46
1000
0000
0100
0000
0010
0000
0001
2000
0000
0000
3010
0000
1000
0000
0100
0000
,  // measure 47
0010
0000
0001
0000
0100
0000
0010
2000
0000
0000
0000
0000
0010
0000
0000
0000
,  // measure 48
3001
0010
0100
0010
0001
1000
2002
0000
,  // measure 49
3003
0000
0000
0000
;

//---------------dance-single - ----------------
#NOTES:
     dance-single:
     :
     Challenge:
     11:
     0.482,0.465,0.194,0.167,0.260: // measure 1
0000
0000
0000
0000
,  // measure 2
0000
0000
0000
0000
,  // measure 3
1000
0000
0000
0000
0100
1000
0100
0000
0010
0000
0000
0000
0001
1000
0001
0000
,  // measure 4
0100
0000
0000
0000
0010
0000
1000
0000
0100
0000
0010
0000
0001
0010
0001
0000
,  // measure 5
1000
0000
0000
0000
0001
0000
1000
0000
0010
0000
0100
0000
0001
2000
0000
0000
,  // measure 6
0010
0001
0200
3300
,  // measure 7
1000
0000
0000
0100
1000
0000
0100
0000
0010
0000
0000
0100
0010
0000
0001
0000
,  // measure 8
1000
0000
0000
0001
0100
0000
0010
0000
1000
0000
0100
0000
0010
0000
0001
0000
,  // measure 9
0100
0000
0000
0000
0010
0000
1000
0000
0100
0000
0010
0000
0100
0020
0000
0000
,  // measure 10
0031
0000
0000
0001
0010
0000
0001
0000
1000
0100
0000
0100
1000
0000
0010
0000
,  // measure 11
0110
0010
1000
2002
0000
0000
3003
0000
,  // measure 12
0001
0000
0010
0000
0001
0000
1000
0000
0100
0010
0001
0000
1000
0000
0010
0000
,  // measure 13
0100
0010
1000
2200
0000
0000
3300
0000
,  // measure 14
0010
0001
0100
1000
0100
0001
1000
0100
,  // measure 15
0010
0000
0000
0001
0010
0000
0001
0000
1000
0000
0000
0010
1000
0000
0010
0000
,  // measure 16
0100
0000
0000
0001
1000
0000
0100
0000
0010
0000
0000
0100
0001
0000
0100
0000
,  // measure 17
0010
0000
0001
0000
1000
0000
0100
0000
0010
0001
0100
0001
0100
0010
1000
0020
,  // measure 18
0000
0000
0000
0000
,  // measure 19
0030
0000
1000
0100
0010
0000
0001
0000
0100
0000
0100
0000
0110
0000
0000
0000
,  // measure 20
1001
0000
0000
0001
0100
0000
0001
0000
1000
0000
0100
0000
0010
0000
0100
0000
,  // measure 21
0010
0000
0000
0100
1000
0000
0010
0000
0100
0000
0010
0000
1000
0000
0001
0000
,  // measure 22
0100
0000
0000
0010
1000
0000
0100
0000
0010
0000
0100
0000
0001
0000
0100
0000
,  // measure 23
0010
0000
0001
1000
0001
0000
0100
0000
0010
0000
1000
0000
1001
0000
0000
0000
,  // measure 24
0101
0000
0000
0010
1000
0000
0100
0000
0010
0000
0100
0000
1000
0000
0001
0000
,  // measure 25
1000
0000
0001
0100
0001
0000
0010
0000
0100
0000
0001
0000
0100
0000
0010
0000
,  // measure 26
0001
0000
0000
1000
0010
0000
0100
0000
1000
0000
0100
0000
0001
0000
0010
0000
,  // measure 27
0001
0000
1000
0100
0010
0000
0100
0000
1000
0000
0001
0000
0101
0000
0000
0000
,  // measure 28
1001
0000
0000
0000
1100
0000
0000
1000
0100
0000
1000
0000
0001
0000
0100
0000
,  // measure 29
0001
0000
0000
0000
0101
0000
0000
0001
0100
0000
1000
0000
0100
0000
0010
0000
,  // measure 30
1000
0000
0000
0000
1100
0000
0000
0010
0100
0000
0010
0000
0001
0000
1000
0000
,  // measure 31
0100
0000
0000
0000
0011
0000
0000
0001
0100
0000
0010
0000
1001
0000
0000
0000
,  // measure 32
1000
0100
1000
0000
0001
0000
0200
0002
0000
0000
0000
0000
0303
0000
0000
0000
,  // measure 33
0010
1000
0010
1000
0010
0000
2000
0002
0000
0000
0000
0000
3003
0000
0000
0000
,  // measure 34
1000
0100
1000
0000
0001
0000
2000
0002
0000
0000
0000
0000
0000
0000
0000
0000
,  // measure 35
3003
0000
1000
0001
1000
0000
0001
0000
0101
0000
0110
0000
2002
0000
0000
0000
,  // measure 36
3003
0000
0000
0000
0000
1000
0100
1000
,  // measure 37
1001
0000
0000
0001
0100
0000
0001
0000
1000
0000
0100
0000
0010
0000
0000
0000
,  // measure 38
0100
0000
0010
0001
1000
0000
0001
0000
0100
0000
0010
0000
0001
0000
0010
0000
,  // measure 39
1000
0000
0000
0001
0100
0000
0010
0000
1000
0000
0100
0000
0010
0000
0001
0000
,  // measure 40
1000
0000
0001
0100
0001
0000
1000
0000
0010
0000
0100
0000
1001
0000
0000
0000
,  // measure 41
1010
0000
0000
0001
0100
0000
0001
0000
0010
0000
0100
0000
0001
0000
0100
0000
,  // measure 42
0010
0000
0000
0001
1000
0000
0001
0000
0100
0000
0010
1000
0010
0000
0100
0000
,  // measure 43
0001
0000
0000
1000
0100
0000
0010
0000
0100
0000
1000
0000
0001
0000
1000
0000
,  // measure 44
0001
0000
0100
0010
1000
0000
0100
0000
0010
0000
0100
0000
1001
0000
0000
0000
,  // measure 45
1000
0100
0010
0000
0100
0000
1000
0100
0010
0000
0001
0000
0100
0000
0010
0000
,  // measure 46
1000
0010
1000
0010
0100
0000
0001
1000
0100
0000
0010
0000
0100
0000
0010
0000
,  // measure 47
0001
1000
0001
1000
0010
0000
1000
0100
2000
0000
0000
0000
0010
0000
0000
0000
,  // measure 48
3001
0000
0001
1000
0001
0000
0100
0000
0010
0000
0100
0000
2002
0000
0000
0000
,  // measure 49
3003
0000
0000
0000
;

//---------------dance-single - ----------------
#NOTES:
     dance-single:
     :
     Medium:
     6:
     0.281,0.275,0.097,0.132,0.000: // measure 1
0000
0000
0000
0000
,  // measure 2
0000
0000
0000
0000
,  // measure 3
0001
1000
0100
0010
,  // measure 4
0100
0000
1000
0000
0001
0000
0100
0010
,  // measure 5
0100
0000
0010
0000
1000
0001
0200
0000
,  // measure 6
0000
0000
0000
0300
,  // measure 7
1001
0000
0001
0100
0010
0000
0100
0000
,  // measure 8
0010
0000
1000
0100
0010
0000
0001
0000
,  // measure 9
1000
0000
0001
0000
0010
0001
2000
0000
,  // measure 10
0010
0001
0002
3003
,  // measure 11
1001
0000
0000
2200
0000
0000
3300
0000
,  // measure 12
0001
0100
0010
1000
,  // measure 13
0100
0000
0000
0220
0000
0000
0330
0000
,  // measure 14
0010
0000
0000
2002
0000
0000
3003
0000
,  // measure 15
1000
0100
1000
0000
,  // measure 16
0001
0000
0100
0000
0010
1000
0010
0000
,  // measure 17
1000
0000
0100
0000
0010
0100
0010
0200
,  // measure 18
0000
0000
0000
0000
,  // measure 19
0300
0010
0001
0000
1001
0000
0110
0000
,  // measure 20
1001
0000
0001
0100
0001
0000
0100
0000
,  // measure 21
0010
0000
1000
0010
0100
0000
0001
0000
,  // measure 22
1000
0000
0100
0010
0001
0000
0100
0000
,  // measure 23
0010
1000
0010
0000
0100
0001
0100
0000
,  // measure 24
0001
0000
0010
0001
0100
0000
0001
0000
,  // measure 25
1000
0000
0100
0010
0100
0000
1000
0000
,  // measure 26
0001
0000
0100
1000
0100
0000
0010
0000
,  // measure 27
1000
0000
0001
0010
0001
1000
0001
0000
,  // measure 28
1001
0100
0010
1000
,  // measure 29
0100
0010
0100
0010
,  // measure 30
0001
0100
1000
0100
,  // measure 31
0001
1000
0100
0010
,  // measure 32
1000
0000
0001
1000
0200
0000
0300
0000
,  // measure 33
1000
0000
0001
1000
0020
0000
0030
0000
,  // measure 34
0100
0000
0010
1000
0002
0000
0010
0000
,  // measure 35
1003
0000
0001
0000
0100
0010
0200
0000
,  // measure 36
0300
0000
0000
0000
,  // measure 37
1001
0000
0001
0100
0010
0000
1000
0000
,  // measure 38
0100
0000
0010
0100
0010
0000
0001
0000
,  // measure 39
1000
0000
0100
1000
0001
0000
0100
0000
,  // measure 40
0010
0000
1000
0000
0010
1000
0100
0000
,  // measure 41
0010
0000
0001
0100
1000
0000
0100
0000
,  // measure 42
0010
0000
1000
0010
0001
0000
0010
0000
,  // measure 43
0100
0000
0010
1000
0100
0000
0010
0000
,  // measure 44
0001
0000
1000
0000
0001
0100
0100
0000
,  // measure 45
1001
0000
1000
0100
0010
0000
0100
0000
,  // measure 46
0010
0000
0001
1000
0001
0000
0100
0000
,  // measure 47
0010
0000
1000
0001
0100
0000
0010
0000
,  // measure 48
1000
0000
0001
1000
0001
1000
0200
0000
,  // measure 49
0300
0000
0000
0000
;

//---------------dance-single - ----------------
#NOTES:
     dance-single:
     :
     Easy:
     4:
     0.185,0.190,0.035,0.062,0.000: // measure 1
0000
0000
0000
0000
,  // measure 2
0000
0000
0000
0000
,  // measure 3
0000
1000
0000
0001
,  // measure 4
0000
0100
0010
0100
,  // measure 5
0010
0000
1000
0001
,  // measure 6
0200
0000
0000
0300
,  // measure 7
0010
0100
0000
0001
,  // measure 8
0000
1000
0100
0010
,  // measure 9
0000
0100
0010
0001
,  // measure 10
2000
0000
0000
3000
,  // measure 11
0001
0000
0100
0000
,  // measure 12
0001
0100
0001
1000
,  // measure 13
0100
0000
1000
0000
,  // measure 14
0100
1000
0001
0100
,  // measure 15
0010
0000
0100
0000
,  // measure 16
0010
0100
0010
1000
,  // measure 17
0001
1000
0001
0200
,  // measure 18
0000
0000
0000
0000
,  // measure 19
0300
0000
0000
0000
,  // measure 20
1001
0001
0100
0000
,  // measure 21
0001
1000
0100
1000
,  // measure 22
0001
0010
0001
0000
,  // measure 23
1000
0100
1000
0100
,  // measure 24
0010
0001
0100
0000
,  // measure 25
0001
0100
0010
1000
,  // measure 26
0010
0100
0001
0000
,  // measure 27
1000
0001
0200
0300
,  // measure 28
0110
0010
1000
0000
,  // measure 29
0001
1000
0100
0000
,  // measure 30
0010
0001
0100
0001
,  // measure 31
1000
0100
1000
0001
,  // measure 32
0100
0100
0100
0000
,  // measure 33
0010
1000
0001
0000
,  // measure 34
0010
0010
0010
0001
,  // measure 35
2002
0000
0000
0000
,  // measure 36
3003
0000
0000
0000
,  // measure 37
1001
0001
0100
0001
,  // measure 38
1000
0100
1000
0000
,  // measure 39
0001
0010
0001
1000
,  // measure 40
0100
0010
0100
0100
,  // measure 41
0100
0010
0001
0000
,  // measure 42
1000
0001
0100
0010
,  // measure 43
1000
0010
1000
0000
,  // measure 44
0001
0001
0100
0100
,  // measure 45
0010
0100
0010
0000
,  // measure 46
1000
0001
1000
0000
,  // measure 47
0001
0010
0100
0010
,  // measure 48
0001
1000
0010
0200
,  // measure 49
0300
0000
0000
0000
;

//---------------dance-single - ----------------
#NOTES:
     dance-single:
     :
     Beginner:
     1:
     0.111,0.148,0.070,0.026,0.000: // measure 1
0000
0000
0000
0000
,  // measure 2
0000
0000
0000
0000
,  // measure 3
1001
0000
0000
0000
,  // measure 4
0001
0000
0100
0000
,  // measure 5
0001
0000
1000
0000
,  // measure 6
0100
0000
0000
0000
,  // measure 7
1001
0000
0000
0000
,  // measure 8
1000
0000
0001
0000
,  // measure 9
0010
0000
0001
0000
,  // measure 10
0100
0000
0000
0000
,  // measure 11
0110
0000
0000
0000
,  // measure 12
0001
0000
0000
0000
,  // measure 13
1000
0000
0000
0000
,  // measure 14
0100
0000
0010
0000
,  // measure 15
0110
0000
0000
0000
,  // measure 16
0010
0000
0000
0000
,  // measure 17
0001
0000
1000
2000
,  // measure 18
0000
0000
0000
0000
,  // measure 19
3000
0000
0000
0000
,  // measure 20
1001
0000
0001
0000
,  // measure 21
0100
0000
0001
0000
,  // measure 22
0100
0000
0001
0000
,  // measure 23
1000
0000
1000
0000
,  // measure 24
0100
0000
1000
0000
,  // measure 25
0001
0000
0100
0000
,  // measure 26
0010
0000
0100
0000
,  // measure 27
0001
0000
0001
0000
,  // measure 28
1001
0000
0000
0000
,  // measure 29
1000
0000
0001
0000
,  // measure 30
0100
0000
0000
0000
,  // measure 31
0001
0000
1000
0000
,  // measure 32
0100
0000
0000
0000
,  // measure 33
0010
0000
0000
0000
,  // measure 34
0100
0000
0010
0000
,  // measure 35
0100
0100
0100
0200
,  // measure 36
0300
0000
0000
0000
,  // measure 37
1001
0000
0001
0000
,  // measure 38
0100
0000
0001
0000
,  // measure 39
1000
0000
0100
0000
,  // measure 40
1000
0000
0001
0000
,  // measure 41
0100
0000
0010
0000
,  // measure 42
0100
0000
0001
0000
,  // measure 43
0010
0000
0100
0000
,  // measure 44
0010
0000
0001
0000
,  // measure 45
1001
0000
0001
0000
,  // measure 46
1000
0000
0001
0000
,  // measure 47
1000
0000
0010
0000
,  // measure 48
1000
0000
0100
0200
,  // measure 49
0300
0000
0000
0000
;
