#TITLE:IT'S A SMALL WORLD (Ducking Hardcore MIX);
#SUBTITLE:;
#ARTIST:TOMOSUKE;
#TITLETRANSLIT:;
#SUBTITLETRANSLIT:;
#ARTISTTRANSLIT:;
#GENRE:;
#CREDIT:Graphics made by TonyAkita;
#MUSIC:IT'S A SMALL WORLD (Ducking Hardcore MIX).ogg;
#BANNER:IT'S A SMALL WORLD (Ducking Hardcore MIX).png;
#BACKGROUND:IT'S A SMALL WORLD (Ducking Hardcore MIX)-bg.png;
#JACKET:IT'S A SMALL WORLD (Ducking Hardcore MIX)-jacket.png;
#CDTITLE:;
#SAMPLESTART:31.211;
#SAMPLELENGTH:15;
#SELECTABLE:YES;
#OFFSET:-0.079;
#BPMS:0.000=183.049;
#STOPS:;
#DISPLAYBPM:183.000;
#BGCHANGES:;
#FGCHANGES:;

//--------------- dance-single - forcednature ----------------
#NOTES:
     dance-single:
     forcednature:
     Beginner:
     4:
     0,0,0,0,0:
0000
0000
0000
0000
,
0000
0000
0000
0000
,
0000
0000
0000
0000
,
0000
0000
0000
0000
,
1000
0000
0001
0000
,
1000
0000
0001
0000
,
1000
0000
0001
0000
,
0100
0100
0100
0000
,
0010
0000
1000
0000
,
0001
0000
0100
0000
,
0010
0000
1000
0000
,
0001
0000
0100
0000
,
0010
0000
0010
0000
,
0010
0000
0010
0000
,
1000
0000
0001
0000
,
0100
0100
0100
0100
,
0200
0000
0000
0000
,
0000
0000
0300
0000
,
1001
0000
1001
0000
,
0001
1000
0001
0000
,
1000
1000
1000
0000
,
0001
0000
0100
0000
,
0010
0010
0010
0000
,
0100
0100
0100
0000
,
0001
0000
1000
0000
,
0001
1000
0001
0000
,
0100
0000
0010
0000
,
0100
0010
0100
0000
,
0010
0000
1000
0000
,
0001
0000
0100
0000
,
0010
0000
0100
0000
,
0010
0010
0010
0000
,
1000
0000
0001
0000
,
0010
0010
0010
0000
,
0100
0000
1000
0000
,
0001
0001
0001
0000
,
0100
0000
0001
0000
,
1000
0000
0010
0000
,
0100
0000
0001
0000
,
1000
1000
1000
0000
,
1000
0000
0001
0000
,
0100
0100
1001
0000
,
1000
0000
0001
0000
,
0100
0100
1001
0000
,
0010
0000
0100
0000
,
0010
0010
1001
0000
,
0100
0010
0100
0010
,
0100
0100
0100
0000
,
2002
0000
0000
0000
,
0000
0000
3003
0000
,
2002
0000
0000
0000
,
0000
0000
3003
0000
,
1001
0000
1001
0000
,
1001
0000
1001
0000
,
1000
0001
1000
0001
,
1000
0001
1000
0001
,
1000
0000
0001
0000
,
0100
0100
0100
0100
,
0100
0000
0010
0000
,
0010
0010
0010
0010
,
0010
0000
1000
0000
,
0001
0001
0001
0001
,
0001
0000
0100
0000
,
1000
1000
1000
1000
,
1000
0000
0010
0000
,
0010
0010
0010
0010
,
0000
1001
0000
1001
,
0000
0100
0100
0100
,
1000
0000
0001
0000
,
0100
0100
0100
0100
,
0010
0000
1000
0000
,
0001
0001
0001
0001
,
0010
0000
0000
0000
;

//--------------- dance-single - forcednature ----------------
#NOTES:
     dance-single:
     forcednature:
     Easy:
     7:
     0,0,0,0,0:
0000
0000
0000
0000
,
0000
0000
0000
0000
,
0000
0000
0000
0000
,
0000
0000
0000
0000
,
1000
0100
1000
0100
,
0010
0001
0010
0001
,
0100
0001
0100
0001
,
0010
1001
0100
1001
,
1000
0010
1000
0100
,
1000
0010
1000
0100
,
0010
0001
0100
0001
,
0010
0001
0100
0001
,
1000
0001
0100
0010
,
1000
0001
0100
0010
,
1000
0001
0010
0100
,
1001
0010
1001
0010
,
1000
1000
0001
0001
,
0000
0100
0100
0010
,
1001
0000
0110
0000
,
1001
1001
1001
0000
,
0001
0100
0001
0010
,
0001
0100
0001
0010
,
0100
1000
0010
0001
,
0100
1000
0010
0000
,
1000
1000
0001
0001
,
1000
0001
0100
0010
,
0100
0100
0010
0010
,
1000
0001
0100
0010
,
1000
0100
0001
0100
,
1000
0010
0001
0010
,
1000
0100
0010
0001
,
0110
0110
0110
0000
,
0001
0100
0010
1000
,
0001
1000
0010
0100
,
0001
1000
0001
0100
,
0010
1000
0100
0010
,
0100
1000
0100
0001
,
0100
1000
0010
1000
,
0001
0100
0010
1000
,
1001
0000
0000
0000
,
1001
0000
0110
0000
,
1001
1001
1001
0000
,
1001
0000
0110
0000
,
1001
1001
1001
0000
,
1001
0000
0110
0000
,
1001
1001
1001
0000
,
1001
1001
1001
1001
,
1001
1001
1001
0000
,
2002
0000
0000
0000
,
0000
3003
0000
0000
,
0220
0000
0000
0000
,
0000
0330
0000
0000
,
1001
0000
1001
0000
,
1001
0000
1001
0000
,
1001
0000
1001
0000
,
1001
1001
1001
1001
,
1001
0000
1000
0001
,
1000
0010
1000
0000
,
0001
0000
0100
0001
,
0010
0001
0100
0000
,
0110
0000
1001
0000
,
0001
0100
0001
0010
,
0100
1000
0010
0100
,
0001
1000
0100
0001
,
0100
1000
0010
0100
,
0001
0100
0010
1000
,
0100
0100
0010
0010
,
0110
0100
0100
0100
,
1000
0001
1000
0010
,
0001
0100
1000
0010
,
0001
0100
1000
0010
,
0001
0100
0001
0010
,
1001
0000
0000
0000
;

//--------------- dance-single - forcednature ----------------
#NOTES:
     dance-single:
     forcednature:
     Medium:
     10:
     0,0,0,0,0:
0000
0000
0000
0000
,
0000
0000
0000
0000
,
0000
0000
0000
0000
,
0000
0000
0000
0000
,
1001
1001
0110
0110
,
1001
1001
0110
0110
,
1001
1001
0110
0110
,
0100
1001
0010
1001
,
1000
0100
1000
0000
0110
0000
1000
0000
,
0001
0010
0001
0000
0110
0000
0001
0000
,
1000
0010
1000
0000
0110
0000
1000
0000
,
0001
0100
0001
0000
0110
0000
0001
0000
,
1000
0001
1000
0000
0100
0010
0100
0000
,
1000
0001
1000
0000
0010
0100
0010
0000
,
0001
1000
0001
0000
0100
0010
0100
0000
,
0001
1000
0001
0000
0010
0100
0010
0000
,
1001
0100
1000
1000
,
0000
0010
0010
0100
,
1001
0000
0110
0000
,
1001
1001
1001
0000
,
0001
0100
0001
0000
1000
0000
0010
0000
,
1000
0100
1000
0000
0010
0000
0100
0000
,
0001
0010
0001
0000
1000
0000
0001
0000
,
0110
0000
0110
0000
0110
0000
0001
0100
,
0001
0000
1000
0000
0010
0000
1000
0100
,
1000
0000
0010
0000
0100
0000
0001
0010
,
0001
0000
0100
0000
0010
0000
1000
0001
,
1000
0000
0010
0000
1000
0000
0001
0010
,
0100
0000
1000
0001
0010
0000
0100
1000
,
0001
0000
0010
0100
1000
0000
0001
0010
,
1000
0010
0001
0010
,
0110
0000
1001
0000
0110
0000
1000
0100
,
1000
0000
0001
0000
0100
0000
0010
1000
,
0010
0000
0100
0000
0001
0000
0010
0001
,
0010
0000
0100
0000
1000
0000
0001
0100
,
0001
0000
1000
0000
0010
0000
1000
0010
,
0100
0000
0001
1000
0010
0000
0100
0001
,
1000
0000
0010
0100
0001
0000
1000
0010
,
0001
0010
1000
0010
,
1001
1001
1001
0000
,
1000
0001
1000
0000
0010
0100
0010
0000
,
1100
0101
1001
0000
,
0001
0010
0001
0000
1000
0010
1000
0000
,
1010
0011
1001
0000
,
0100
0001
0100
0000
0010
1000
0010
0000
,
0110
1010
0101
1000
,
0001
0010
0001
0000
1000
0100
1000
0000
,
0010
0010
0010
0000
,
2002
0000
0000
0000
,
0000
0000
0000
0000
3003
0000
0000
0100
,
0220
0000
0000
0000
,
0000
0000
0000
0000
0330
0000
0000
0001
,
2002
3003
2002
3003
,
0220
0000
0330
0000
0220
0000
0330
1000
,
2002
3003
2002
3003
,
0110
0110
0110
0110
,
0001
0010
0001
0000
1000
0010
1000
0010
,
1000
0010
1000
0010
0000
0100
0001
0100
,
0001
0000
1000
0000
0100
0010
0100
0010
,
0100
1000
0100
1000
0000
0001
0010
0001
,
1000
0000
0001
0000
0100
0010
0100
0010
,
1000
0010
1000
0010
0000
0100
0001
0100
,
0001
0000
1000
0000
0001
0010
0001
0010
,
0100
1000
0100
1000
0000
0001
1000
0001
,
1000
0000
0010
0000
0100
0001
0100
0001
,
1000
0010
1000
0010
0000
1000
0001
1000
,
0001
0110
1000
0110
,
1001
1001
1001
1001
,
1000
0100
1000
0010
1000
0000
0100
0000
,
0010
0001
0100
0001
0010
0000
0100
0000
,
1000
0010
0100
0001
0100
0010
1000
0000
,
0001
0010
0100
1000
0100
0010
0001
0000
,
1001
0000
0000
0000
;

//--------------- dance-single - forcednature ----------------
#NOTES:
     dance-single:
     forcednature:
     Hard:
     12:
     0,0,0,0,0:
0000
0000
0000
0000
,
0000
0000
0000
0000
,
0000
0000
0000
0000
,
0000
0000
0000
0000
,
0001
0100
0001
0010
1000
0000
0010
0000
,
0100
1000
0010
1000
0100
0000
1000
0000
,
0001
0100
1000
0100
0001
0000
0100
0000
,
1001
0110
1001
0110
,
1000
0100
0001
0100
1000
0010
0100
0001
,
0010
1000
0010
0001
0100
0010
1000
0000
,
0001
0100
0010
0100
0001
0100
1000
0100
,
0001
0010
0001
0100
0001
0010
1000
0000
,
0010
0100
1000
0001
1000
0010
0100
0001
,
1000
0100
0001
0100
1000
0001
0100
0000
,
0001
1000
0010
0001
0010
1000
0100
0010
,
0100
1000
0001
1000
0010
0100
0010
0100
,
0001
0000
0000
0000
0001
0000
0000
0000
1000
0000
0000
1000
0000
0000
1000
0000
,
0000
0000
0100
0000
0100
0000
0000
0000
0010
0000
0000
0010
0000
0000
0010
0000
,
1001
0000
0000
0000
0100
0000
0000
0000
1001
0000
0000
0010
0000
0000
0100
0000
,
1001
1001
1001
0000
,
1000
0000
0100
0000
1000
0000
0010
0000
1000
0000
0000
0100
0000
0000
0001
0000
,
0100
0000
1000
0000
0010
0000
0100
0000
0001
0000
0000
0100
0000
0000
1000
0000
,
0100
0000
0001
0000
0010
0000
0001
0000
1000
0000
0000
0100
0000
0000
0010
0000
,
0110
0000
1001
0000
0110
0000
0001
0100
,
1000
0000
0110
0000
1001
0000
1000
0100
,
0001
0000
0110
0000
1001
0000
1000
0010
,
0100
0000
0110
0000
1001
0000
0001
0010
,
0100
0000
0110
0000
1001
0000
0001
0100
,
1000
0000
0100
0001
0010
0000
0100
1000
,
0010
0000
1000
0100
0001
0000
0100
1000
,
0010
0110
1001
0110
,
1100
0000
0101
0000
1001
0000
0001
0100
,
1000
0000
1100
0000
0011
0000
1000
0100
,
0001
0000
0101
0000
1010
0000
0001
0010
,
0100
0000
0110
0000
1001
0000
1000
0010
,
0100
0000
0110
0000
1001
0000
1000
0010
,
0100
0000
0001
0100
1000
0000
0100
0001
,
0010
0000
0100
1000
0010
0000
0001
0010
,
1000
1100
0110
0011
,
0001
1000
0001
0100
1000
0100
0001
0000
,
1000
0100
1100
0000
0001
0100
0101
0000
,
1001
0110
1001
0000
,
1000
0010
1010
0000
0001
0010
0011
0000
,
1001
0110
1001
0000
,
0001
0010
0011
0000
1000
0100
1100
0000
,
1010
0101
0110
1001
,
0001
0100
1000
0100
0001
0100
1000
0100
,
0001
0010
0100
1000
0010
0000
1001
0000
,
0220
0330
2002
0000
,
0000
0000
0000
0000
3003
0000
0000
1000
,
2002
3003
0220
0000
,
0000
0000
0000
0000
0330
0000
0000
1001
,
2002
3003
0220
0330
,
2002
0000
3003
0000
0220
0000
0330
1001
,
2002
3003
0220
0330
,
1001
1001
1001
1001
,
1000
0000
1000
0000
0001
0100
0001
0010
,
0001
0100
1000
0100
0000
0001
0010
0001
,
0100
0000
0100
0000
0001
0010
1000
0010
,
0100
1000
0001
1000
0000
0010
1000
0001
,
1000
0100
0001
0100
1000
0010
1000
0100
,
0001
0100
1000
0010
0100
0001
0100
1000
,
0100
0001
0010
0001
0100
1000
0100
0001
,
0010
0001
0100
0010
1000
0100
0001
0100
,
1000
0010
0100
0001
0010
1000
0010
0001
,
1000
0010
0100
0001
1000
0100
0010
0001
,
0100
0000
0000
0010
0000
0000
1000
0000
0001
0000
0000
0010
0000
0000
0100
0000
,
1000
0001
1000
0001
0100
1000
0100
0001
,
0010
0001
1000
0100
0001
0100
1000
0010
,
1000
0100
0001
0100
1000
0010
0100
0001
,
0100
1000
0100
0001
0010
0001
1000
0100
,
0010
0001
0010
1000
0010
0001
0100
1000
,
0110
0000
0000
0000
;

//--------------- dance-single - forcednature ----------------
#NOTES:
     dance-single:
     forcednature:
     Challenge:
     14:
     0,0,0,0,0:
0000
0000
0000
0000
,
0000
0000
0000
0000
,
0000
0000
0000
0000
,
0000
0000
0000
0000
,
1000
0000
0000
0100
0000
1000
0100
0000
0010
0000
0000
0000
1001
0000
0000
0000
,
0001
0000
0000
0100
0000
0001
0100
0000
0010
0000
0000
0000
1001
0000
0000
0000
,
1000
0000
0000
0100
0000
1000
0100
0000
0010
0000
0000
0000
1001
0000
0000
0100
,
0010
0000
0000
0000
1001
0000
0000
0010
0100
0000
0000
0000
1001
0000
0000
0000
,
0001
0000
0100
0000
0001
0000
1000
0000
0010
0000
0100
0001
0100
0000
1000
0000
,
0100
0000
0001
0000
0010
0000
0001
0000
1000
0100
1000
0100
1000
0000
0010
0000
,
1000
0000
0100
0000
0001
0000
0100
0010
0100
0000
1000
0001
1000
0000
0010
0000
,
0100
0000
0001
0010
0001
0010
0000
0001
1000
0000
0001
0010
0001
0000
1000
0000
,
0100
0000
0001
0000
0100
0000
1000
0000
0010
0000
0100
0001
0100
0000
1000
0000
,
0100
0000
0001
0000
0010
0000
0100
0000
1000
0001
1000
0001
1000
0000
0100
0000
,
0010
0000
0001
0000
0100
0000
0001
0010
0001
0000
1000
0100
1000
0000
0001
0000
,
1001
0000
0000
0000
0110
0000
0000
0000
0001
0000
1000
0000
0001
1000
0001
1000
,
0001
0000
0100
0000
1000
0000
0000
0000
0100
0000
0000
0100
0001
0000
0010
0000
,
0000
0000
0100
0000
0100
0000
0000
0000
1000
0000
0000
1000
0010
0000
0100
0000
,
1001
0000
0000
0000
0110
0000
0000
0000
1001
0000
0000
0100
0000
0000
0010
0000
,
1001
1000
0001
0000
1001
0000
0000
0000
,
1000
0000
0100
0000
1000
0000
0010
0000
1000
0000
0001
0100
0001
0000
0010
0000
,
0100
0000
1000
0000
0100
0000
0001
0000
0100
0000
0010
0001
0010
0000
0100
0000
,
1001
0000
0000
0000
0100
0000
0000
0000
1001
0000
0000
0010
0000
0000
0100
0000
,
1001
0000
0001
0000
1000
0000
0000
0000
1001
0000
0000
0000
1000
0000
0001
0100
,
0001
0010
0001
0100
0001
1000
0100
0001
,
0100
0000
1000
0000
0010
0000
1000
0000
0100
0000
0001
0000
0100
0000
1000
0010
,
1000
0001
0100
1000
0100
0001
0010
0001
,
1000
0000
0010
0000
0001
0000
0010
0000
1000
0000
0100
0000
0010
0000
0001
1000
,
0001
0100
1000
0100
0001
0010
0001
1000
,
0100
0000
0001
0000
0100
0000
1000
0010
1000
0000
0010
0000
0100
0000
0001
0010
,
0001
1001
0110
1001
,
0001
0000
0100
0010
0100
0000
0001
0000
1000
0000
0000
0000
0100
0000
0010
0000
,
0100
0000
1000
0000
0010
0000
1000
0000
0100
0000
0010
0001
0010
0000
0100
0000
,
0001
0000
0100
0000
1000
0000
0010
0000
1000
0000
0001
0000
0100
0000
0010
1000
,
0010
0000
0100
0000
0001
0000
0100
0000
1000
0000
0100
0010
0100
0000
0001
0000
,
0010
0000
1000
0000
0010
0000
0100
0000
1000
0000
0010
0000
0100
0000
0001
1000
,
0001
0000
0100
0000
0001
0000
1000
0000
0100
0000
0010
0001
0010
0000
0100
0000
,
1000
0000
0001
0000
0100
0000
1000
0000
0100
0000
0001
0000
0010
0000
0100
1000
,
0100
0000
0001
0000
0100
0000
1000
0000
0010
0000
0100
0001
0100
0000
1000
0000
,
0100
0000
0001
0010
0001
0000
1000
0000
0100
0010
0100
0010
0100
0000
0000
0000
,
1100
1100
0001
0000
0101
0101
1000
0000
,
1001
0000
0000
0000
0110
0000
0000
0000
1001
0000
0100
0000
0020
0030
0000
0000
,
1010
1010
0100
0000
0011
0011
0100
0000
,
1001
0000
0000
0001
0100
0000
1000
0000
0110
0000
2000
3000
0002
0003
0000
0000
,
1001
1001
0100
0000
1001
1001
0010
0000
,
1100
0000
0000
0000
0101
0000
0000
0000
2100
3000
1000
0000
0020
0030
0100
0010
,
0100
1000
0100
0001
0010
0001
0100
1000
,
0100
0001
0010
0100
1000
0000
1001
0000
,
0220
0000
0000
0000
0000
0330
0000
0000
2002
0000
0000
0000
0000
0000
0000
0000
,
0000
0000
0000
0000
0000
3000
0000
0000
0200
0000
0000
0003
0000
0000
1300
0000
,
2200
3300
2002
0000
,
0000
0000
0000
0000
0000
0003
0000
0000
0200
0000
0000
3000
0000
0000
0301
0000
,
0101
0010
1100
0010
,
0101
0000
0010
0000
1002
0003
0001
0100
,
0101
0001
1000
0000
1200
1300
0100
0000
,
0220
0330
2002
3003
0220
0330
1001
0000
,
1001
0000
1001
0000
1000
0100
0010
1000
,
0010
0000
0001
0100
0001
0000
0010
0001
,
0010
0000
0100
0000
1000
0100
0001
0100
,
1000
0000
0001
0100
0001
0000
1000
0000
0010
0000
0100
0000
1000
0000
0100
0000
,
0001
0000
0010
0000
0001
0000
0100
0000
0001
0000
0010
0100
0010
0000
0001
0000
,
1000
0000
0010
0000
1000
0000
0100
1000
0100
0000
1000
0000
0010
0000
0100
0000
,
0001
0000
0100
0000
1000
0000
0100
0000
0001
0000
0010
0100
0010
0000
0001
0000
,
1000
0000
0010
0000
1000
0000
0100
0010
0100
0000
1000
0000
0001
0000
0100
0000
,
1000
0000
0100
0000
0001
0000
1000
0000
0001
0000
0010
0001
0010
0000
0100
0000
,
1000
0000
0001
0000
0100
0000
0010
1000
0010
0000
0100
0000
0001
0000
1000
0000
,
0100
0000
0010
0100
0000
1000
0001
1000
0001
0000
1000
0010
0000
0100
0001
0100
,
0001
0000
1000
0100
0000
0010
0001
0010
0001
0000
0100
0010
0000
1000
0001
1000
,
0001
0000
0100
0000
0001
0000
0010
0000
0001
0000
0100
0010
0100
0000
0001
0000
,
1000
0000
0100
0000
0010
0000
0100
1000
0100
0000
1000
0000
0010
0000
1000
0001
,
1000
0100
0001
0100
1000
0010
0001
0010
,
1000
0100
1000
0100
1000
0001
1000
0001
0100
0001
0100
0001
1000
0001
1000
0001
,
0010
0000
0000
0000
;

//--------------- dance-double - forcednature ----------------
#NOTES:
     dance-double:
     forcednature:
     Easy:
     7:
     0,0,0,0,0:
00000000
00000000
00000000
00000000
,
00000000
00000000
00000000
00000000
,
00000000
00000000
00000000
00000000
,
00000000
00000000
00000000
00000000
,
00010000
00001000
00010000
00000100
,
00000010
00000100
00001000
00000001
,
00000100
00000010
00001000
00000001
,
00001001
00000100
00001001
00000010
,
00000001
00000100
00001000
00000100
,
00000001
00000010
00001000
00000010
,
00000100
00010000
00001000
00100000
,
00010000
01000000
00100000
10000000
,
00010000
10000000
01000000
00100000
,
01000000
10000000
00100000
01000000
,
00010000
00100000
10000000
00100000
,
10010000
00100000
10010000
01000000
,
10010000
01000000
01000000
00000000
,
00010000
00010000
00001000
00001000
,
00011000
00000000
00011000
00000000
,
00011000
00011000
00011000
00000000
,
00000100
00001000
00000010
00001000
,
00000100
00000010
00000001
00000100
,
00000010
00001000
00000100
00001000
,
00001001
00001001
00001001
00000000
,
00001000
00000100
00010000
00001000
,
01000000
00010000
10000000
00100000
,
10000000
01000000
00100000
01000000
,
10000000
00010000
00100000
00010000
,
01000000
01000000
00100000
00100000
,
01000000
01000000
00100000
00100000
,
10000000
00010000
01000000
00100000
,
10010000
10010000
10010000
00000000
,
00010000
01000000
00001000
00010000
,
00000100
00001000
00000001
00000100
,
00000010
00001000
00000001
00000010
,
00000100
00001000
00000010
00010000
,
00001000
01000000
00010000
10000000
,
01000000
00100000
01000000
10000000
,
00010000
00100000
00010000
10000000
,
10010000
00000000
00000000
00000000
,
10010000
00000000
01100000
00000000
,
10010000
10010000
10010000
00000000
,
00011000
00000000
00011000
00000000
,
00011000
00011000
00011000
00000000
,
00001001
00000000
00000110
00000000
,
00001001
00001001
00001001
00000000
,
00011000
00011000
00011000
00011000
,
00011000
00011000
00011000
00000000
,
00022000
00000000
00000000
00000000
,
00000000
00033000
00000000
00000000
,
00022000
00000000
00000000
00000000
,
00000000
00033000
00000000
00000000
,
00011000
00000000
00011000
00000000
,
00011000
00000000
00011000
00000000
,
00011000
00000000
00011000
00000000
,
00011000
00011000
00011000
00011000
,
00011000
00001000
01000000
00010000
,
00010000
10000000
10000000
00010000
,
10000000
10000000
00100000
01000000
,
00010000
00010000
00100000
00001000
,
00010000
00010000
00001000
00001000
,
00000100
00000001
00000010
00000001
,
00000100
00000100
00000010
00000010
,
00001000
00000001
00000100
00000010
,
00001000
00001000
00000001
00000001
,
00001000
00000100
00010000
00001000
,
00010000
00001000
00001000
00010000
,
00100000
00100000
00100000
00100000
,
10000000
00010000
10000000
00100000
,
00010000
00100000
10000000
01000000
,
00010000
00001000
00000100
00000001
,
00001001
00000001
00001001
00001000
,
00011000
00000000
00000000
00000000
;

//--------------- dance-double - forcednature ----------------
#NOTES:
     dance-double:
     forcednature:
     Medium:
     10:
     0,0,0,0,0:
00000000
00000000
00000000
00000000
,
00000000
00000000
00000000
00000000
,
00000000
00000000
00000000
00000000
,
00000000
00000000
00000000
00000000
,
00011000
01000000
00010000
10000000
,
00100000
10000000
01000000
00100000
,
00010000
01000000
00100000
10000000
,
00010000
10010000
01000000
01100000
,
00001000
00010000
00000100
00000010
,
00000001
00000000
00000100
00000000
00000010
00001000
00000001
00000000
,
00000100
00000010
00001000
00000100
,
00000010
00000000
00000100
00000000
00001000
00000001
00000010
00000000
,
00000100
00000000
00001000
00000000
00000001
00000100
00000010
00000000
,
00001000
00000000
00000100
00000000
00010000
00001000
01000000
00000000
,
00010000
00000000
10000000
00000000
00100000
10000000
01000000
00000000
,
00100000
00100000
00100000
00100000
,
20020000
30030000
10000000
10000000
,
00010000
00010000
01000000
01000000
,
00011000
00000000
00000110
00000000
,
00001001
00001001
00001001
00000000
,
00000001
00000000
00000100
00000000
00000001
00000010
00000001
00000000
,
00001000
00000000
00000100
00000000
00010000
00001000
00010000
00000000
,
01100000
10000000
01010000
00100000
,
10010000
00000000
01100000
00000000
10010000
00000000
10000000
00100000
,
10000000
00000000
00010000
00000000
01000000
00000000
00100000
00010000
,
00001000
00000000
00100000
00000000
00010000
00000000
00001000
00000100
,
00000010
00000000
00000001
00000000
00000100
00000000
00000010
00001000
,
00000001
00000000
00000100
00000000
00001000
00000000
00010000
00001000
,
00100000
00000000
01000000
10000000
00100000
00000000
10000000
01000000
,
00100000
00000000
00010000
01000000
00001000
00000000
00010000
00000100
,
00001000
00000010
00001001
00000100
,
00000011
00000000
00000110
00000000
00001100
00000000
00000001
00000100
,
00000010
00000000
00001000
00000000
00000100
00000000
00010000
00001000
,
00100000
00000000
00010000
00000000
01000000
00000000
00100000
10000000
,
01000000
00000000
00100000
00000000
00010000
00000000
01000000
00001000
,
00010000
00000000
00000010
00000000
00001000
00000000
00000001
00000010
,
00000100
00000000
00000010
00000100
00001000
00000000
00000010
00010000
,
00001000
00000000
00010000
00001000
01000000
00000000
00010000
00100000
,
01000000
10000000
00100000
01000000
,
20020000
00000000
00000000
30030000
,
10000000
01000000
00010000
00000000
00010000
01000000
10000000
00000000
,
10010000
01100000
10010000
00000000
,
01000000
00010000
00001000
00000000
00010000
00001000
00000010
00000000
,
00000110
00001001
00000110
00000000
,
00000001
00000100
00000010
00000000
00001000
00000010
00000100
00000000
,
00000011
00000110
00001100
00001001
,
00000001
00000100
00001000
00000000
00001000
00000100
00000001
00000000
,
00000110
00001001
00000110
00000000
,
00002002
00000000
00000000
00000000
,
00000000
00000000
00000000
00000000
00003003
00000000
00000000
00000100
,
00000220
00000000
00000000
00000000
,
00000000
00000000
00000000
00000000
00000330
00000000
00000000
00010000
,
00011000
00000000
01100000
00000000
,
10010000
00000000
00000000
00000000
01100000
00000000
00000000
10000000
,
10010000
00000000
00011000
00000000
,
10010000
01100000
10010000
01100000
,
10010000
00000000
00010000
00000000
01000000
00001000
01000000
00001000
,
01000000
00000000
00010000
00100000
00000000
00001000
00010000
00001000
,
00010000
00000000
00000100
00000000
00001000
00000001
00001000
00000001
,
00001000
00000010
00000100
00000010
00000000
00000100
00000001
00000100
,
00000001
00000000
00001000
00000000
00000100
00010000
00001000
00100000
,
00010000
00100000
00001000
00010000
00000000
00001000
01000000
00001000
,
01000000
00000000
00010000
00000000
10000000
00010000
10000000
00010000
,
10000000
00000000
00100000
01000000
00000000
00010000
00100000
00010000
,
00100000
00000000
00001000
00000000
00010000
00000010
00010000
00000010
,
00001000
00000000
00000010
00000100
00000000
00000001
00001000
00000001
,
00001000
00001001
00000010
00001001
,
00000100
00000101
00001100
00000101
,
00000001
00000100
00000001
00000000
00001000
00000100
00001000
00000000
,
00000010
00010000
00001000
00000000
01000000
00010000
00100000
00000000
,
01000000
10000000
00100000
00000000
01000000
00010000
00100000
00000000
,
01000000
10000000
00100000
10000000
01000000
10000000
00100000
00000000
,
10010000
00000000
00000000
00000000
;

//--------------- dance-double - forcednature ----------------
#NOTES:
     dance-double:
     forcednature:
     Hard:
     12:
     0,0,0,0,0:
00000000
00000000
00000000
00000000
,
00000000
00000000
00000000
00000000
,
00000000
00000000
00000000
00000000
,
00000000
00000000
00000000
00000000
,
00010000
00001000
01000000
00001000
00100000
00000000
00010000
00000000
,
10000000
00100000
10000000
01000000
00100000
00000000
01000000
00000000
,
10000000
00010000
01000000
00100000
10000000
00000000
00010000
00000000
,
10010000
01100000
10010000
01100000
,
10000000
01000000
00100000
01000000
10000000
00010000
00100000
01000000
,
10000000
00010000
00100000
00001000
00010000
00000100
00001000
00000010
,
00001000
00000001
00000100
00000001
00000100
00000010
00001000
00000001
,
00001000
00000010
00000100
00000001
00000010
00000100
00001000
00000100
,
00000010
00000100
00001000
00000100
00010000
00001000
00100000
00010000
,
10000000
01000000
00100000
00010000
01000000
00100000
10000000
00100000
,
01000000
00010000
10000000
00010000
01000000
00100000
10000000
00010000
,
10010000
00000000
01100000
00000000
00001000
00010000
00001000
00010000
,
00001000
00000000
00000010
00000000
00000100
00000000
00000010
00000000
00000001
00000000
00000000
00001000
00000000
00000000
00000001
00000000
,
00000000
00000000
00000100
00000000
00000001
00000000
00000000
00000000
00001000
00000000
00000000
00000010
00000000
00000000
00001000
00000000
,
00001001
00000100
00001001
00000010
,
00001001
00001001
00001001
00000000
,
00000001
00000100
00000001
00000010
00000100
00001000
00000001
00000100
,
00000010
00001000
00000100
00010000
00001000
00100000
00010000
10000000
,
00010000
01000000
00100000
10000000
00010000
01000000
00001000
00010000
,
00000010
00001000
00000010
00001000
00000001
00000000
00001000
00000100
,
00000010
00000100
00001000
00000001
00000100
00000010
00000100
00000001
,
00001000
00000100
00001000
00000001
00000010
00000001
00000100
00000001
,
00001000
00000010
00010000
00001000
00100000
00010000
10000000
00010000
,
10000000
00100000
10000000
01000000
00100000
00010000
01000000
00100000
,
10000000
00010000
01000000
00010000
10000000
00100000
01000000
00010000
,
01000000
00001000
00010000
00000100
00001000
00000001
00001000
00000010
,
00000100
00000001
00000010
00000100
00001000
00000001
00000100
00000010
,
00001001
00000000
00001001
00000000
00001001
00000000
00000001
00000010
,
00000100
00001000
00000001
00000100
00000010
00001000
00000100
00001000
,
00000001
00000010
00000100
00001000
00000100
00010000
00001000
00100000
,
00010000
10000000
01000000
10000000
00010000
00100000
01000000
10000000
,
00010000
01000000
00100000
10000000
00010000
01000000
00001000
00010000
,
00000010
00001000
00000001
00000100
00000001
00001000
00000010
00001000
,
00000001
00000010
00000100
00001000
00000100
00000010
00000001
00000100
,
00000010
00001000
00000100
00000010
00000001
00000100
00000010
00001000
,
00001001
00001001
00001001
00000000
,
00001000
00000100
00010000
00001000
00100000
00010000
01000000
00010000
,
10010000
10010000
10010000
00000000
,
00100000
10000000
00010000
01000000
00010000
00100000
00001000
00010000
,
00011000
00011000
00011000
00000000
,
00010000
00000100
00001000
00000010
00000100
00000001
00001000
00000100
,
00000010
00000001
00000100
00000010
00001000
00000100
00000010
00000001
,
00000100
00000010
00001000
00000001
00000010
00000100
00001000
00000001
,
00000100
00000010
00001000
00000100
00000010
00000000
00000000
00000000
,
00002002
00003003
00000220
00000000
,
00000000
00000000
00000000
00000000
00000330
00000000
00000000
00011000
,
00022000
00033000
02200000
00000000
,
00000000
00000000
00000000
00000000
03300000
00000000
00000000
10010000
,
20020000
30030000
02200000
03300000
,
20020000
00000000
30030000
00000000
02200000
03300000
00000000
00011000
,
00022000
00033000
00000220
00000330
,
00001001
00001001
00001001
00001001
,
00000001
00000100
00000001
00000010
00000100
00001000
00000001
00000100
,
00000010
00001000
00000100
00000010
00000000
00000100
00010000
00001000
,
01000000
00010000
10000000
00100000
10000000
00010000
00100000
01000000
,
10000000
00010000
01000000
00100000
00000000
10000000
00010000
00100000
,
00001000
00010000
00000100
00010000
00001000
01000000
00001000
00100000
,
00001000
00010000
00000100
00010000
00000010
00001000
00000010
00000100
,
00000001
00001000
00000100
00000010
00000100
00001000
00000010
00010000
,
00001000
01000000
00010000
10000000
00100000
10000000
01000000
00100000
,
01000000
10000000
00010000
01000000
00100000
10000000
00010000
00100000
,
00001000
00010000
00000010
00001000
00000001
00000100
00000010
00001000
,
00000100
00000110
00000001
00001001
,
00000010
00000110
00000110
00000110
,
00000001
00000100
00000001
00000010
00000100
00001000
00000010
00010000
,
00001000
01000000
00010000
10000000
00100000
10000000
00010000
00100000
,
01000000
10000000
01000000
00100000
00010000
01000000
00100000
10000000
,
01000000
00100000
00010000
01000000
00100000
10000000
00010000
00100000
,
01000000
00000000
00000000
00000000
;

//--------------- dance-double - forcednature (is this a 15?) ----------------
#NOTES:
     dance-double:
     forcednature (is this a 15?):
     Challenge:
     14:
     0,0,0,0,0:
00000000
00000000
00000000
00000000
,
00000000
00000000
00000000
00000000
,
00000000
00000000
00000000
00000000
,
00000000
00000000
00000000
00000000
,
00001000
00000000
00000000
00010000
00000000
01000000
10000000
00000000
00100000
00000000
00000000
00000000
00011000
00000000
00000000
00000000
,
00010000
00000000
00000000
00001000
00000000
00000100
00000001
00000000
00000010
00000000
00000000
00000000
00011000
00000000
00000000
00000000
,
00001000
00000000
00000000
00010000
00000000
01000000
10000000
00000000
00100000
00000000
00000000
00000000
00011000
00000000
00000000
01000000
,
00100000
00000000
00000000
00000000
00011000
00000000
00000000
00000100
00000010
00000000
00000000
00000000
00011000
00000000
00000000
00000000
,
00010000
00000000
00001000
00000000
00000100
00000000
00000010
00000000
00010000
00000000
00000100
00001000
00000100
00000000
00000010
00000000
,
00001000
00000000
00010000
00000000
00100000
00000000
10000000
00000000
00010000
01000000
00100000
10000000
00010000
00000000
00100000
00000000
,
00001000
00000000
00000010
00000000
00000100
00000000
00010000
00001000
00010000
00000000
00100000
01000000
00100000
00000000
10000000
00000000
,
01000000
00000000
00100000
00010000
00100000
00001000
00000000
00010000
00000010
00000000
00001000
00000001
00001000
00000000
00000010
00000000
,
00000100
00000000
00001000
00000000
00010000
00000000
00100000
00000000
10000000
00000000
01000000
00100000
01000000
00000000
10000000
00000000
,
00100000
00000000
00010000
00000000
00001000
00000000
00000010
00000000
00000001
00000010
00000100
00001000
00000001
00000000
00000100
00000000
,
00000001
00000000
00000010
00000000
00001000
00000000
00010000
00001000
00010000
00000000
00000010
00000100
00000010
00000000
00010000
00000000
,
00010100
00000000
00000000
00000000
01001000
00000000
00000000
00000000
00010000
00000000
00001000
00000000
00010000
00001000
00010000
00001000
,
00010000
00000000
01000000
00000000
10000000
00000000
00000000
00000000
00100000
00000000
00000000
00100000
00010000
00000000
00000100
00000000
,
00000000
00000000
00000010
00000000
00000010
00000000
00000000
00000000
00000001
00000000
00000000
00000001
00001000
00000000
00000100
00000000
,
00011000
00000000
00000000
00000000
01100000
00000000
00000000
00000000
10010000
00000000
00000000
00100000
00000000
00000000
00010000
00000000
,
00011000
00001000
00000100
00000000
00001001
00000000
00000000
00000000
,
00000001
00000000
00000010
00000000
00000001
00000000
00000100
00000000
00001000
00000000
00010000
00100000
00010000
00000000
00001000
00000000
,
00010000
00000000
01000000
00000000
10000000
00000000
00100000
00000000
00010000
00000000
00001000
00010000
00001000
00000000
00000100
00000000
,
00000110
00000000
00000000
00000000
00000001
00000000
00000000
00000000
00010100
00000000
00000000
00001000
00000000
00000000
00100000
00000000
,
10010000
00000000
10000000
00000000
00010000
00000000
00000000
00000000
01100000
00000000
00000000
00000000
10000000
00000000
01000000
00100000
,
01000000
10000000
00100000
01000000
00010000
10000000
01000000
00010000
,
00001000
00000000
00000100
00000000
00000010
00000000
00001000
00000000
00000010
00000000
00000001
00000000
00000010
00000000
00001000
00000100
,
00001000
00000001
00000010
00000100
00010000
01000000
00100000
00010000
,
01000000
00000000
10000000
00000000
01000000
00000000
00010000
00000000
00100000
00000000
00001000
00000000
01000000
00000000
00010000
10000000
,
00010000
01000000
00100000
00010000
00001000
00000010
00000100
00010000
,
00001000
00000000
00100000
00000000
00010000
00000000
01000000
00001000
01000000
00000000
00010000
00000000
00100000
00000000
00001000
00010000
,
00001000
10010000
00011000
00001001
,
00000001
00000000
00001000
00000100
00001000
00000000
00000010
00000000
00010000
00000000
00000000
00000000
00000001
00000000
00001000
00000000
,
00000100
00000000
00001000
00000000
00000010
00000000
00010000
00000000
00001000
00000000
01000000
00100000
01000000
00000000
10000000
00000000
,
01000000
00000000
00010000
00000000
00100000
00000000
01000000
00000000
10000000
00000000
00010000
00000000
00100000
00000000
00001000
00010000
,
00001000
00000000
00000100
00000000
00000010
00000000
00001000
00000000
00000100
00000000
00000010
00000001
00000010
00000000
00000100
00000000
,
00001000
00000000
00000001
00000000
00000100
00000000
00001000
00000000
00010000
00000000
00100000
00000000
10000000
00000000
00010000
10000000
,
00010000
00000000
01000000
00000000
00001000
00000000
00010000
00000000
00000100
00000000
00010000
00001000
00010000
00000000
00000010
00000000
,
00000100
00000000
00000001
00000000
00000010
00000000
00000100
00000000
00010000
00000000
00001000
00000000
00100000
00000000
01000000
10000000
,
01000000
00000000
00010000
00000000
00001000
00000000
00000100
00000000
00000001
00000000
00001000
00000001
00001000
00000000
00000100
00000000
,
00001000
00000000
00000010
00000100
00000010
00000000
00001000
00000000
00000100
00010000
00000100
00010000
00000100
00000000
00000000
00000000
,
00011000
00011000
01000000
00000000
00011000
00011000
00000100
00000000
,
00011000
00000000
00000000
00000000
00011000
00000000
00000000
00000000
00011000
00000000
01000000
00000000
20000000
30000000
00000000
00000000
,
00011000
00011000
00100000
00000000
00011000
00011000
00000010
00000000
,
00011000
00000000
00000000
00001000
00010000
00000000
00001000
00000000
00011000
00000000
00002000
00003000
00000002
00000003
00000000
00000000
,
00011000
00011000
01000000
00000000
00011000
00011000
00000100
00000000
,
01010000
00000000
00000000
00000000
00011000
00000000
00000000
00000000
00001100
00000000
00020000
00030000
00002000
00003000
01000000
00100000
,
01000000
10000000
01000000
00010000
00100000
00001000
00000010
00000001
,
00001000
00000010
00000100
00001000
00010000
00000000
10010000
00000000
,
02200000
00000000
00000000
00000000
00000000
03300000
00000000
00000000
00022000
00000000
00000000
00000000
00000000
00000000
00000000
00000000
,
00000000
00000000
00000000
00000000
00000000
00033000
00000000
00000000
00000220
00000000
00000000
00000330
00000000
00000000
00001001
00000000
,
00002002
00000000
00000000
00000000
00000000
00003003
00000000
00000000
00022000
00000000
00000000
00000000
00000000
00000000
00000000
00000000
,
00000000
00000000
00000000
00000000
00000000
00033000
00000000
00000000
02200000
00000000
00000000
03300000
00000000
00000000
01010000
00000000
,
01010000
01000000
00001000
00000000
00001100
00001000
00010000
00000000
,
00000110
00000010
00000001
00000000
00021000
00031000
00010000
00110000
,
00110000
00100000
01000000
00000000
12000000
13000000
01000000
00000000
,
02200000
03300000
00022000
00033000
00000220
00000330
00001001
00000000
,
00011000
00000000
10010000
00000000
10000000
01000000
00010000
00000100
,
00000001
00000000
00000100
00000010
00000100
00000000
00010000
00001000
,
00010000
00000000
00100000
00000000
10000000
00100000
00010000
00001000
,
00000010
00000000
00000001
00001000
00000001
00000000
00000100
00000000
00001000
00000000
00010000
00000000
01000000
00000000
10000000
00000000
,
00100000
00000000
01000000
00000000
00010000
00000000
00100000
00000000
00001000
00000000
00010000
00001000
00010000
00000000
00000100
00000000
,
00000010
00000000
00000001
00000000
00000100
00000000
00000010
00001000
00000010
00000000
00010000
00000000
00001000
00000000
00100000
00000000
,
01000000
00000000
10000000
00000000
00100000
00000000
01000000
00000000
00001000
00000000
00010000
00000100
00010000
00000000
00001000
00000000
,
00000010
00000000
00000001
00000000
00001000
00000000
00000100
00000010
00000100
00000000
00010000
00000000
00001000
00000000
01000000
00000000
,
00100000
00000000
00010000
00000000
00100000
00000000
10000000
00000000
01000000
00000000
00100000
00010000
00100000
00000000
00001000
00000000
,
00000100
00000000
00000010
00000000
00001000
00000000
00000001
00000100
00000001
00000000
00001000
00000000
00000100
00000000
00010000
00000000
,
00001000
00000000
01000000
00010000
00000000
10000000
00100000
10000000
00100000
00000000
10000000
01000000
00000000
00100000
00010000
00100000
,
00010000
00000000
00001000
00000010
00000000
00000100
00000001
00000100
00000001
00000000
00001000
00000100
00000000
00010000
00001000
00010000
,
00001000
00000000
01000000
00000000
00010000
00000000
10000000
00000000
01000000
00000000
00010000
00001000
00010000
00000000
00000100
00000000
,
00000010
00000000
00000001
00000000
00000100
00000000
00001000
00010000
00001000
00000000
00100000
00000000
00010000
00000000
10000000
00010000
,
10000000
01000000
00010000
00001000
00000100
00000001
00001000
00000010
,
00001000
00000100
00001000
00000100
00010000
00001000
00010000
00001000
01000000
00010000
01000000
00010000
10000000
00100000
10000000
00100000
,
01000000
00000000
00000000
00000000
;
