#TITLE:I AM THE BEST;
#SUBTITLE:;
#ARTIST:2NE1;
#TITLETRANSLIT:;
#SUBTITLETRANSLIT:;
#ARTISTTRANSLIT:;
#GENRE:;
#CREDIT:;
#BANNER:I AM THE BEST.png;
#BACKGROUND:I AM THE BEST-bg.png;
#LYRICSPATH:;
#CDTITLE:cdtitle.png;
#MUSIC:I AM THE BEST.ogg;
#OFFSET:1.650000;
#SAMPLESTART:22.723000;
#SAMPLELENGTH:15.000000;
#LASTBEATHINT:1.386667;
#SELECTABLE:YES;
#DISPLAYBPM:64.000000:128.000000;
#BPMS:0.000000=128.000000
,81.000000=42.667000
,82.000000=128.000000
,146.000000=64.000000
,154.000000=128.000000
,166.000000=64.000000
,166.500000=128.000000
,196.000000=64.000000
,198.000000=128.000000
,227.000000=42.667000
,227.500000=128.000000
;
#STOPS:166.500000=0.117000,
166.750000=0.117000,
167.000000=0.059000,
167.125000=0.059000,
167.250000=0.117000,
167.500000=0.117000,
167.750000=0.117000
;
#BGCHANGES:4.000=I AM THE BEST.avi=1.000=0=0=0=StretchNoLoop====,
99999=-nosongbg-=1.000=0=0=0 // don't automatically add -songbackground-
;
#KEYSOUNDS:;
#ATTACKS:;

//---------------dance-single - ----------------
#NOTES:
     dance-single:
     9646_CSP:
     Challenge:
     13:
     0.562316,0.651057,0.395378,0.544744,0.210869,448.000000,403.000000,45.000000,62.000000,32.000000,0.000000,0.562316,0.651057,0.395378,0.544744,0.210869,448.000000,403.000000,45.000000,62.000000,32.000000,0.000000:
0000
0000
0000
0000
,
0000
0000
0000
0000
,
0000
0000
0000
0000
,
0000
0000
0000
0000
,
0000
0000
0000
0000
0000
0000
0001
1000
,
0020
0000
0030
0001
0010
0000
1000
0000
0001
0000
0100
0000
0010
0000
1000
0000
,
0002
0000
0003
0010
0100
0000
0010
0000
1000
0000
0001
0000
0100
0000
0010
0000
,
0002
0000
0003
1000
0100
0000
1000
0000
0010
0000
0100
0000
0010
0000
1000
0000
,
0002
0000
0003
0010
0100
0000
0010
0000
0001
0000
0100
0000
0001
0000
1000
0000
,
0020
0000
0030
0001
0010
0000
1000
0000
0001
0000
0100
0000
0010
0000
1000
0000
,
0002
0000
0003
0010
0100
0000
0010
0000
1000
0000
0001
0000
0100
0000
0010
0000
,
0002
0000
0003
1000
0100
0000
1000
0000
0010
0000
0100
0000
0010
0000
0010
0000
,
0020
0000
0000
0000
0000
0030
MMMM
0000
,
2002
0000
3003
0001
0100
0000
0010
0000
1010
0000
0001
0000
MMMM
0000
0100
0000
,
1000
1000
1000
0010
0001
0010
0220
0330
,
2002
0000
3003
0001
0010
0000
0100
0000
1100
0000
0001
0000
MMMM
0000
0010
0000
,
0100
0100
0100
0001
0010
0100
0220
0330
,
2002
0000
3003
0001
0010
0000
0100
0000
1100
0000
0001
0000
MMMM
0000
0010
0000
,
1000
1000
1000
0100
0001
0100
0220
0330
,
2002
0000
3003
0001
0100
0000
0010
0000
1010
0000
0001
0000
MMMM
0000
0100
0000
,
0010
0010
0110
0000
0001
1000
0100
1000
,
0001
0100
0010
0000
0102
0000
1003
0000
,
2100
0000
3010
0000
0102
0000
1003
0100
,
0020
0000
0000
0000
0130
0000
1000
0000
0010
0000
0001
0010
0001
0000
0010
0000
,
2000
0000
3001
0000
0010
0100
1000
0100
,
0010
0000
0100
1000
0010
0000
0021
0000
,
1030
0000
1100
0000
0120
0000
0031
1000
,
0020
0000
0000
0000
0031
0000
0010
0000
1000
0000
0001
0010
0001
0000
0010
0000
,
2000
0000
3010
0001
1000
1000
0010
0100
,
0001
0001
0010
0100
1000
1000
0001
0001
,
0100
0010
1000
MMMM
0001
0001
0100
0010
,
1000
1000
0100
0010
0001
0001
1000
1000
,
0010
0000
0100
0000
0002
0000
0013
0000
0110
0000
0100
1000
0002
0000
0013
0000
,
0100
0010
0001
1000
1100
1000
1001
0001
,
0201
0000
0320
1030
0001
0000
1000
0000
1001
0000
1000
0100
0010
0000
0100
0000
,
1000
0001
0010
0100
0110
1000
1100
0001
,
0101
0010
1000
0001
2000
3100
0002
0013
,
1000
0100
0010
0001
0000
1000
0100
1000
0001
0100
0002
0003
2000
3010
0100
0100
,
0001
0100
0010
1000
0000
0001
0100
0001
1000
0000
1000
0000
0100
0000
0010
0000
,
0001
0001
0100
0010
1000
0100
0010
0200
,
1300
0001
1000
0010
MMMM
0001
1000
0010
,
0100
0000
0000
0000
0001
0000
0000
0000
0010
0000
0000
0000
0100
0000
0000
0000
0020
0000
0030
0000
0100
0000
0100
0000
0100
1000
0001
0000
0100
0000
0010
0000
,
0220
0330
0110
0001
1000
0010
0100
0001
,
0020
0000
0030
0100
0010
0000
0001
0000
0100
0000
0010
0000
1000
0000
0100
0000
,
2100
0000
3000
0001
0100
0000
0010
0000
1000
0000
0100
0000
0001
0000
0100
0000
,
2000
0000
3000
0010
0100
0000
0010
0000
0001
0000
0010
0000
1000
0000
0001
0000
,
0021
0000
0030
0100
1000
0000
0001
0000
1000
0000
0010
0000
0100
0000
0001
0000
,
0020
0000
0030
0100
0010
0000
0001
0000
1000
0000
0100
0000
0010
0000
0100
0000
,
2100
0000
3000
0001
0010
0000
0100
0000
2000
0000
0000
0000
3010
0000
0010
0000
,
MMMM
0000
0000
0000
0000
0000
0220
0330
1002
0000
1003
0001
0010
0000
0100
0000
,
0001
0000
0100
0000
1100
0000
0001
0000
0100
0000
0010
1000
0100
0000
0010
0001
,
0100
0000
0000
0000
0220
0000
0330
0000
2001
0000
3001
1000
0100
0000
0010
0000
,
0100
0000
1000
0000
1100
0000
0001
0000
1000
0000
0010
0100
0001
0000
0010
0100
,
1000
0000
0000
0000
0220
0000
0330
0000
1002
0000
1003
0001
0100
0000
0010
0000
,
0001
0000
0010
0000
1010
0000
0001
0000
0010
0000
0100
1000
0010
0000
0100
0001
,
0010
0000
0000
0000
0220
0000
0330
0000
1002
0000
1003
0001
0010
0000
0100
0000
,
0010
0000
0001
0000
0011
0000
0100
0000
1001
0000
0010
0000
0110
0000
0001
1000
,
0010
0000
0000
0000
;

//---------------dance-single - ----------------
#NOTES:
     dance-single:
     9646_ESP:
     Hard:
     12:
     0.532192,0.701138,0.342661,0.474454,0.171331,424.000000,385.000000,39.000000,54.000000,0.000000,0.000000,0.532192,0.701138,0.342661,0.474454,0.171331,424.000000,385.000000,39.000000,54.000000,0.000000,0.000000:
0000
0000
0000
0000
,
0000
0000
0000
0000
,
0000
0000
0000
0000
,
0000
0000
0000
0000
,
0000
0000
0000
0000
0000
0000
0001
0100
,
0002
0000
0003
1000
0001
0000
0100
0000
0001
0000
1000
0000
0001
0000
0010
0000
,
0200
0000
0300
0010
0001
0000
1000
0000
0100
0000
1000
0000
0010
0000
0100
0000
,
2000
0000
3000
0100
0010
0000
1000
0000
0001
0000
0100
0000
0010
0000
1000
0000
,
0002
0000
0003
0010
0100
0000
0010
0000
1000
0000
0010
0000
0100
0000
0010
0000
,
0002
0000
0003
1000
0001
0000
0010
0000
0001
0000
1000
0000
0001
0000
0100
0000
,
0020
0000
0030
0100
0001
0000
1000
0000
0010
0000
1000
0000
0100
0000
0010
0000
,
2000
0000
3000
0010
0100
0000
1000
0000
0001
0000
0010
0000
0100
0000
1000
0000
,
0002
0000
0000
0013
,
2100
0000
0000
3100
0010
0000
0010
0000
0011
0000
0001
0000
0000
0000
1000
0000
,
0100
1000
0010
0100
0001
0000
0220
0330
,
1002
0000
0000
1003
0100
0000
0100
0000
0110
0000
0010
0000
0000
0000
0001
0000
,
1000
0010
0100
0001
1000
0000
2200
3300
,
0012
0000
0000
0013
0100
0000
0100
0000
1100
0000
1000
0000
0000
0000
0001
0000
,
0010
0001
0100
0010
1000
0000
0220
0330
,
1002
0000
0000
1003
0100
0000
0100
0000
0110
0000
0010
0000
0000
0000
0001
0000
,
0100
0001
1100
0000
0001
0100
0010
1000
,
0001
0010
0100
0000
0021
0000
0130
0000
,
2100
0000
3010
0000
0120
0000
1030
0100
,
0020
0000
0130
1000
0010
0001
0010
1000
,
0002
0000
0013
0000
0001
1000
0100
1000
,
0001
0000
0100
0010
1000
0000
2100
0000
,
3010
0000
0101
0000
1002
0000
0013
0100
,
2000
0000
3100
0010
0100
0001
0100
1000
,
0020
0000
0130
0001
1000
0100
1000
0001
,
0100
0010
0100
0001
0010
0010
0100
0100
,
1000
0001
1000
0000
0001
0010
0001
1000
,
0010
0100
0010
1000
0100
0100
0010
0010
,
0001
0000
1000
0000
0001
0000
0010
0000
0110
0000
1000
0002
0000
0003
0100
0000
,
0010
1000
0001
0010
0100
0100
0100
0100
,
0200
0000
0000
0310
0000
0000
0100
0000
0110
0000
0001
1000
0000
0000
0100
0000
,
1000
0010
1000
0100
1000
0001
1000
0010
,
0100
0000
0001
0000
1000
0000
0001
0000
2000
0000
3100
0000
0001
0100
0001
0001
,
1000
0100
0010
0100
0000
1000
0001
1000
0010
0100
0020
0030
0100
0001
1000
0001
,
1000
0100
0010
0001
0000
1000
0100
1000
0010
0000
0100
0000
0010
0000
0001
0000
,
0010
0100
0010
1000
0001
0010
0100
0020
,
0030
0100
0001
0100
0000
0010
0001
0010
,
0100
0000
0010
0000
1000
0000
0010
0000
0002
0003
0001
0001
0001
0001
1000
0010
,
0220
0330
0110
0010
1000
0100
0001
0100
,
2000
0000
3000
0001
0010
0000
0100
0000
1000
0000
0010
0000
0100
0000
0001
0000
,
0102
0000
0003
1000
0100
0000
1000
0000
0010
0000
0001
0000
0010
0000
1000
0000
,
0002
0000
0003
0010
0001
0000
1000
0000
0100
0000
1000
0000
0001
0000
0010
0000
,
0220
0330
0110
0100
1000
0010
0001
0010
,
2000
0000
3000
0001
0100
0000
0010
0000
1000
0000
0100
0000
0010
0000
0001
0000
,
0012
0000
0003
1000
0010
0000
1000
0000
0100
0000
0001
0000
0100
0000
1000
0000
,
0001
0000
0000
0000
0000
0000
0022
0033
2100
0000
0000
3100
0010
0000
0100
0000
,
0011
0001
0001
1000
0100
1000
0010
0100
,
0001
0000
0000
0000
0220
0000
0330
0000
1002
0000
0000
1003
0010
0000
0100
0000
,
0110
0010
1000
0001
0010
1000
0010
0001
,
1000
0000
0000
0000
2200
0000
3300
0000
0012
0000
0000
0013
0100
0000
0010
0000
,
1100
1000
1000
0001
0010
0001
0100
0010
,
1000
0000
0000
0000
0220
0000
0330
0000
1002
0000
0000
1003
0100
0000
0010
0000
,
0110
0100
1000
0001
0010
0100
0110
1000
,
0001
0000
0000
0000
;

//---------------dance-single - ----------------
#NOTES:
     dance-single:
     9646_DSP:
     Medium:
     9:
     0.356468,0.450731,0.210869,0.263586,0.026359,284.000000,260.000000,24.000000,30.000000,0.000000,0.000000,0.356468,0.450731,0.210869,0.263586,0.026359,284.000000,260.000000,24.000000,30.000000,0.000000,0.000000:
0000
0000
0000
0000
,
0000
0000
0000
0000
,
0000
0000
0000
0000
,
0000
0000
0000
0000
,
0000
0000
0000
0000
0000
0000
0001
0100
,
1000
0000
1000
0100
1000
0000
1000
0000
,
1000
0000
1000
0000
1000
0000
1000
0100
,
0001
0000
0001
0100
0001
0000
0001
0000
,
0001
0000
0001
0000
0001
0000
0001
0010
,
1000
0000
1000
0010
1000
0000
1000
0000
,
1000
0000
1000
0000
1000
0000
1000
0010
,
0001
0000
0001
0010
0001
0000
0001
0100
,
0020
0000
0000
1030
,
0102
0000
1003
0000
0110
0000
0000
0001
,
1000
0100
0010
0000
0001
0000
0011
0000
,
2100
0000
3001
0000
0110
0000
0000
1000
,
0001
0100
0010
0000
1000
0000
1010
0000
,
0012
0000
1003
0000
1100
0000
0000
1000
,
0100
1000
0001
0000
0100
0000
0110
0000
,
2010
0000
3001
0000
0101
0000
0000
0001
,
0100
0001
1000
0000
0001
0100
0001
0000
,
1000
0100
1000
0000
0002
0000
0013
0000
,
2000
0000
3010
0000
0002
0000
0000
1000
,
2000
0000
3003
0000
2000
0000
0000
0001
,
0002
0000
3003
0000
1000
0100
1000
0000
,
0001
0000
0001
0100
0010
0000
2000
0000
,
3100
0000
0020
0000
0032
0000
0000
0100
,
0200
0000
0303
0010
2000
0000
0000
0100
,
0200
0000
3300
0000
1000
0100
1000
0000
,
0001
0100
0001
0000
0010
0000
0010
0000
,
0100
1000
0001
0000
1000
0010
1000
0000
,
0001
0010
0001
0000
0100
0000
0100
0000
,
0010
1000
0001
0000
1000
0000
1000
0000
,
0100
0010
0001
0000
0100
0010
0100
0010
,
0200
0300
0001
0001
,
0010
0100
1000
0000
0010
0100
0010
0100
,
0010
0000
0100
0000
0002
0003
2000
3000
,
0001
0100
0010
1000
0000
0001
0100
0000
0002
0000
0003
0000
2000
0000
3000
0000
,
0100
0010
0001
1000
0000
0100
1000
0000
0001
0000
0100
0000
0010
0000
0000
0000
,
0100
0001
0010
0000
0100
1000
0010
0100
,
0000
0010
1000
0001
0000
1000
0100
0000
,
1000
0001
1000
0000
0002
0000
0003
0000
,
1001
0000
1000
0010
0001
0000
0001
0000
,
1000
0100
0001
0010
,
0110
0000
0100
1000
0010
0000
0010
0000
,
0100
0001
0010
1000
,
1001
0000
0001
0100
1000
0000
1000
0000
,
0001
0010
1000
0010
,
0110
0000
0001
0010
0001
0000
1000
0100
,
1000
0000
0000
0010
1002
0000
0103
0000
,
1010
1000
0000
0100
0001
0100
1000
0000
,
0001
0000
0020
0030
2001
0000
3010
0000
,
0101
0001
0000
0010
1000
0010
0001
0000
,
1000
0000
0200
0300
0120
0000
0031
0000
,
1010
0010
0000
0100
0001
1000
0010
0000
,
0001
0000
0020
0030
0120
0000
1030
0000
,
0011
0010
0000
0100
1000
0001
1001
0100
,
0010
0000
0000
0000
;

//---------------dance-single - ----------------
#NOTES:
     dance-single:
     9646_BSP:
     Easy:
     6:
     0.258565,0.325528,0.237227,0.087862,0.000000,206.000000,179.000000,27.000000,10.000000,0.000000,0.000000,0.258565,0.325528,0.237227,0.087862,0.000000,206.000000,179.000000,27.000000,10.000000,0.000000,0.000000:
0000
0000
0000
0000
,
0000
0000
0000
0000
,
0000
0000
0000
0000
,
0000
0000
0000
0000
,
0000
0000
0000
0000
,
1000
1000
1000
1000
,
1000
1000
1000
1000
,
0001
0001
0001
0001
,
0001
0001
0001
0001
,
1000
1000
1000
1000
,
1000
1000
1000
1000
,
0001
0001
0001
0001
,
0002
0000
0000
0003
,
1100
0100
0101
0000
,
0100
0100
1000
0001
,
0011
0010
1010
0000
,
0010
0010
0001
1000
,
1100
1000
1010
0000
,
1000
1000
0100
0010
,
0011
0001
0101
0000
,
0001
1001
0001
0100
,
1000
0000
0001
0010
,
1000
0000
0002
0000
,
0003
0000
0002
0000
,
0003
0000
1000
0100
,
0001
0000
1000
0010
,
0001
0000
2000
0000
,
3000
0000
2000
0000
,
3000
0000
1000
0100
,
0001
0100
1000
0100
,
0001
0000
1000
0010
,
0001
0010
1000
0010
,
0001
0000
1000
0010
,
0001
0100
1000
1000
,
1000
0000
0001
0010
,
1000
0100
0001
0001
,
0001
0000
1000
0000
0020
0030
0020
0030
,
0100
0001
0000
0001
2000
3000
0002
0003
,
0100
0010
0000
0010
1000
0000
1000
0000
,
0001
0001
1000
0001
,
0000
0001
0010
0100
,
1000
0001
2000
3000
,
0110
0110
1001
0100
,
0010
1000
0010
0001
,
0110
0100
1001
0001
,
0010
1000
0100
0001
,
1001
0010
1001
0100
,
1000
0010
0100
0001
,
1001
0010
0110
1000
,
0001
0000
0000
1000
1100
0000
0100
0000
,
0101
0000
0100
0100
,
1000
0001
0011
0010
,
1010
0000
0010
0010
,
0001
1000
1100
1000
,
1010
0000
1000
1000
,
0100
0010
0011
0001
,
0101
0000
0001
1001
,
0001
0000
0000
0000
;

//---------------dance-single - ----------------
#NOTES:
     dance-single:
     9646_BEG:
     Beginner:
     3:
     0.125517,0.199446,0.043931,0.052717,0.000000,100.000000,95.000000,5.000000,6.000000,0.000000,0.000000,0.125517,0.199446,0.043931,0.052717,0.000000,100.000000,95.000000,5.000000,6.000000,0.000000,0.000000:
// measure 0
0000
0000
0000
0000
,  // measure 1
0000
0000
0000
0000
,  // measure 2
0000
0000
0000
0000
,  // measure 3
0000
0000
0000
0000
,  // measure 4
0000
0000
0000
0000
,  // measure 5
1000
0000
1000
0000
,  // measure 6
0000
0000
0000
0000
,  // measure 7
1000
0000
1000
0000
,  // measure 8
0000
0000
0000
0000
,  // measure 9
0001
0000
0001
0000
,  // measure 10
0000
0000
0000
0000
,  // measure 11
0001
0000
0001
0000
,  // measure 12
0002
0000
0003
0000
,  // measure 13
1001
0000
0001
0000
,  // measure 14
1000
1000
1000
0000
,  // measure 15
1001
0000
1000
0000
,  // measure 16
0001
0001
0001
0000
,  // measure 17
0010
0000
0100
0000
,  // measure 18
0010
0010
0010
0000
,  // measure 19
0100
0000
0010
0000
,  // measure 20
0100
0100
0100
0000
,  // measure 21
0000
0000
0010
0000
,  // measure 22
0000
0000
0002
0000
,  // measure 23
0003
0000
0002
0000
,  // measure 24
0003
0000
0100
0000
,  // measure 25
0000
0000
0010
0000
,  // measure 26
0000
0000
2000
0000
,  // measure 27
3000
0000
2000
0000
,  // measure 28
3000
0000
0100
0000
,  // measure 29
0001
0000
0100
0000
,  // measure 30
1000
0000
0010
0000
,  // measure 31
0001
0000
0010
0000
,  // measure 32
1000
0000
0010
0000
,  // measure 33
0010
0000
0010
0010
,  // measure 34
0010
0000
1000
0000
,  // measure 35
1000
0000
1000
1000
,  // measure 36
1000
0000
0001
0000
,  // measure 37
0000
0000
0001
0000
,  // measure 38
0000
0000
0000
0001
,  // measure 39
0000
0001
0000
0001
,  // measure 40
0000
0001
0000
0010
,  // measure 41
0000
0010
0020
0030
,  // measure 42
0100
0100
0100
0000
,  // measure 43
0000
0000
0000
0000
,  // measure 44
0010
0010
0010
0000
,  // measure 45
0000
0000
0000
0000
,  // measure 46
0001
0001
0001
0000
,  // measure 47
0000
0000
0000
0000
,  // measure 48
1000
1000
1000
0000
,  // measure 49
1000
0000
1001
0000
,  // measure 50
0001
0000
1000
1000
,  // measure 51
1000
0000
1001
0000
,  // measure 52
1000
0000
0001
0001
,  // measure 53
0001
0000
0010
0000
,  // measure 54
0100
0000
0010
0010
,  // measure 55
0010
0000
0100
0000
,  // measure 56
0010
0000
0100
0110
;
