#TITLE:Himitsu Dial;
#SUBTITLE:;
#ARTIST:Coconatsu;
#TITLETRANSLIT:;
#SUBTITLETRANSLIT:;
#ARTISTTRANSLIT:;
#GENRE:;
#CREDIT:;
#BANNER:banner.png;
#BACKGROUND:background.png;
#LYRICSPATH:;
#CDTITLE:;
#MUSIC:Himitsu Dial.ogg;
#OFFSET:0.393850;
#SAMPLESTART:70.311737;
#SAMPLELENGTH:17.142853;
#SELECTABLE:YES;
#BPMS:0.000000=112.000000
;
#STOPS:
;
#BGCHANGES:;
#KEYSOUNDS:;
#ATTACKS:;

//---------------dance-single - ----------------
#NOTES:
     dance-single:
     :
     Beginner:
     2:
     0.126530,0.156490,0.034066,0.000000,0.000000,104.000000,100.000000,4.000000,0.000000,0.000000,0.000000,0.126530,0.156490,0.034066,0.000000,0.000000,104.000000,100.000000,4.000000,0.000000,0.000000,0.000000:
0000
0000
0000
0000
,
0000
0000
0000
0000
,
0000
0000
0000
0000
,
0000
0000
0000
0000
,
0000
0000
0000
0000
,
0000
0000
0000
0000
,
0000
0000
0000
0000
,
0000
0000
0000
0000
,
0000
0000
0000
0000
,
1000
0000
0010
0000
,
1000
1000
1000
0000
,
0001
0000
0010
0000
,
0001
0001
0001
0000
,
0100
0000
0010
0000
,
0100
0100
0100
0000
,
0001
0000
1000
0000
,
0010
0010
0010
0000
,
1001
0000
1000
0000
,
0001
0001
0001
0000
,
0010
0000
0001
0000
,
1000
1000
1000
0000
,
0010
0000
0100
0000
,
0010
0010
0010
0000
,
0100
0000
0001
0000
,
1000
1000
1000
0000
,
0001
0000
0010
0000
,
0100
0000
1000
0000
,
1000
0000
0100
0000
,
0010
0000
0001
0000
,
1000
0000
0001
0000
,
0100
0000
0010
0000
,
1000
0000
0100
0000
,
0010
0000
0000
0000
,
1001
0000
0001
0000
,
1000
0000
0010
0010
,
1000
0000
0100
0000
,
0010
0000
0010
0010
,
0001
0000
1000
0000
,
0100
0000
1000
1000
,
0010
0000
1000
0000
,
0001
0000
0010
0000
,
1001
0000
0001
0000
,
0010
0010
0010
0000
,
0001
0000
1000
0000
,
0100
0100
0100
0000
,
1000
0000
0010
0000
,
0100
0100
0100
0000
,
0001
0000
1000
0000
,
0100
0000
0000
0000
,
0010
0000
0100
0000
,
1000
0000
0001
0000
,
1000
0000
0010
0000
,
0100
0000
0110
0000
;

//---------------dance-single - ----------------
#NOTES:
     dance-single:
     :
     Easy:
     6:
     0.216561,0.223556,0.051099,0.059615,0.000000,178.000000,172.000000,6.000000,7.000000,0.000000,0.000000,0.216561,0.223556,0.051099,0.059615,0.000000,178.000000,172.000000,6.000000,7.000000,0.000000,0.000000:
0000
0000
0000
0000
,
0000
0000
0000
0000
,
0000
0000
0000
0000
,
0000
0000
0000
0000
,
0000
0000
0000
0000
,
1000
0100
0010
0001
,
1000
0000
0010
1000
,
0001
0100
0010
1000
,
0001
0000
0010
0001
,
1000
0010
1000
0001
,
1000
0000
0100
0100
0100
0000
0000
0000
,
0010
0001
0010
0100
,
1000
0001
1001
0000
,
0001
0010
0001
1000
,
0001
0000
0100
0100
0100
0000
0000
0000
,
0010
1000
0010
0100
,
0001
1000
0200
0000
,
0310
0001
1000
0010
,
0100
0000
0000
0000
0001
1000
0001
0000
,
0010
0001
1000
0100
,
0020
0032
2003
3000
,
0100
1000
0001
0010
,
0001
0000
0000
0000
1000
0001
1000
0000
,
0010
1000
0001
0010
,
0200
2300
3020
0030
,
0100
0010
1000
0100
,
0010
0001
0001
0000
,
0010
0001
1000
0100
,
1000
0010
0100
0000
,
0010
0100
0001
0010
,
0100
1000
1000
0000
,
0010
1000
0100
0010
,
0001
1000
0100
0000
,
1001
0001
0010
0100
,
1000
0000
0010
1000
,
0100
0010
0001
1000
,
0010
0000
0100
0001
,
1001
1000
0100
0010
,
0001
0000
0010
0001
,
0100
0010
1000
0100
,
0010
0000
0001
0010
,
0110
0100
0010
0010
,
0001
1000
1000
0000
,
0010
1000
0010
0010
,
0100
0001
1000
0000
,
0100
1000
0100
0010
,
0001
1000
1000
0000
,
0010
0100
0001
0010
,
0100
1000
0001
0000
,
1001
1000
0100
0010
,
0001
0000
0010
0001
,
1000
0010
0100
0001
,
0010
0100
1001
0000
;

//---------------dance-single - ----------------
#NOTES:
     dance-single:
     :
     Hard:
     14:
     0.605884,0.660663,0.442855,0.255493,0.498212,498.000000,446.000000,52.000000,30.000000,0.000000,0.000000,0.605884,0.660663,0.442855,0.255493,0.498212,498.000000,446.000000,52.000000,30.000000,0.000000,0.000000:
0000
0000
0000
0000
,
0000
0000
0000
0000
,
0000
0000
0000
0000
,
0000
0000
0000
0000
,
0000
0000
0000
0000
,
1000
0001
0100
0010
1000
0001
0010
0000
,
0100
0000
0000
0000
0000
0000
0000
0000
0000
0000
0000
0000
0000
0000
1000
0100
0010
0000
0000
0000
0001
0000
0010
0000
0100
0000
0000
0000
1000
0000
0000
0000
,
0001
1000
0100
0010
0001
0100
0010
0000
,
1000
0000
0000
0000
0000
0000
0000
0000
0000
0000
0000
0000
0000
0000
0001
0100
0010
0000
0000
0000
1000
0000
0010
0000
0100
0000
0000
0000
0001
0000
1000
0000
,
0001
0010
0100
1000
0010
0000
1000
0001
1000
0010
0100
0001
0010
0000
0100
1000
,
0001
1000
0001
0100
0010
0000
1010
0000
1001
0000
0000
0001
0100
0000
0001
1000
,
0010
0000
1000
0000
0100
0000
1000
0001
0010
0100
0010
0000
0001
0000
1000
0000
,
0001
0000
1000
0010
1000
0001
0100
0000
0001
0000
0000
1000
0100
0000
1000
0100
,
0010
0001
0010
0001
0100
0000
0001
0100
0010
1000
0010
1000
0100
0000
1000
0001
,
0100
0010
0100
0001
0010
0000
0011
0000
1001
0000
0000
1000
0010
0000
0100
0010
,
1000
0001
1000
0100
0010
0000
0100
0010
0001
1000
0001
0000
0100
0000
0010
0000
,
0100
0000
0000
0001
1000
0000
0010
0000
2000
0000
0000
0000
3001
0000
0000
0000
,
0101
0000
0000
0000
0000
0000
0000
0000
0001
0000
0000
0000
0000
0000
0000
0000
1000
0000
0000
0000
0000
0000
0000
0000
0100
0000
0000
0000
0000
1000
0000
0000
0001
0000
0000
0000
0000
0000
0000
0000
1000
0000
0000
0000
0000
0000
0000
0000
1100
0000
0000
0000
0000
0000
0000
0000
0000
0000
0000
0000
0000
0000
0000
0000
,
0010
0000
0000
0000
0000
1000
0000
0000
0100
0000
0000
0000
0000
1000
0000
0000
0010
0000
0000
0000
0000
0000
0000
0000
1000
0000
0000
0000
0000
0010
0000
0000
0100
0000
0000
0000
0000
0000
0000
0000
0001
0000
0000
0000
0000
0000
0000
0000
0011
0000
0000
0000
0000
0000
0000
0000
0000
0000
0000
0000
0000
0000
0000
0000
,
0010
0100
0010
0100
1000
0000
0000
0010
0100
0010
0100
0001
0010
0000
0000
0000
,
0220
0000
0330
0000
2020
0000
3030
0000
0101
0000
0001
0010
0100
0000
1000
0001
,
0010
0000
0000
0000
0001
0000
0000
0000
1000
0000
0000
0000
0010
0000
0000
0000
0100
0000
0000
0000
0000
0000
0000
0000
0010
0000
0000
0000
1000
0000
0000
0000
0001
0000
0000
0000
0000
0000
0000
0000
1000
0000
0000
0000
0000
0000
0000
0000
1010
0000
0000
0000
0000
0000
0000
0000
0000
0000
0000
0000
0000
0100
0000
0000
,
0010
0000
0000
0000
0000
1000
0000
0000
0010
0000
0000
0000
0000
0100
0000
0000
0001
0000
0000
0000
0000
0000
0000
0000
1000
0000
0000
0000
0000
0100
0000
0000
0010
0000
0000
0000
0000
0000
0000
0000
0001
0000
0000
0000
0000
0000
0000
0000
0011
0000
0000
0000
0000
0000
0000
0000
0000
0000
0000
0000
0000
0000
0000
0000
,
0100
1000
0001
0100
0010
0000
0100
0001
1000
0000
0001
0000
0101
0000
0000
0000
,
0220
0000
0330
0000
0022
0000
0033
0000
1100
0000
1000
0100
0010
0000
0001
0000
,
1000
0000
0000
0100
0001
0000
0100
0000
0010
0001
0100
0000
0100
0000
0000
0000
,
0010
0000
0000
1000
0001
0000
0010
0000
0100
1000
0000
0000
1000
0000
0000
0000
,
0001
0000
0000
0100
1000
0000
0100
0000
0010
1000
0100
0000
0100
0000
0000
0000
,
0010
0000
0000
0001
1000
0000
0010
0000
0100
0001
0000
0000
0010
0000
0100
0000
,
1000
0000
0000
0000
0000
0000
0000
0000
0001
0000
0000
0000
0000
0000
0000
0000
0010
0000
0000
0000
0000
0000
0000
0000
0001
0000
0000
0000
0000
0000
0000
0000
1000
0000
0000
0000
0000
0000
0000
0000
0001
0000
0000
0000
0000
0100
0000
0000
0001
0000
0000
0000
0000
0000
0000
0000
0000
0000
0000
0000
0000
0000
0000
0000
,
1000
0000
0000
0000
0000
0010
0000
0000
1000
0000
0000
0000
0000
0000
0000
0000
0001
0000
0000
0000
0000
0000
0000
0000
0100
0000
0000
0000
0000
0000
0000
0000
0001
0000
0000
0000
0000
0000
0000
0000
1000
0000
0000
0000
0000
0100
0000
0000
1000
0000
0000
0000
0000
0000
0000
0000
0000
0000
0000
0000
0000
0000
0000
0000
,
0001
0000
0000
0000
0000
0000
0000
0000
0100
0000
0000
0000
0000
0000
0000
0000
0010
0000
0000
0000
0000
0000
0000
0000
1000
0000
0000
0000
0000
0000
0000
0000
0001
0000
0000
0000
0000
0000
0000
0000
1000
0000
0000
0000
0000
0100
0000
0000
0010
0000
0000
0000
0000
0000
0000
0000
0001
0000
0000
0000
0000
0000
0000
0000
,
0000
0000
0000
0000
0000
0000
0000
0000
0000
0000
0000
0000
0001
0000
0000
0001
0000
0000
0001
0100
0010
1000
0000
0000
,
0110
0000
1000
0010
0100
0000
0001
0000
0010
0100
0010
0000
1001
0000
0001
0000
,
1000
0000
0000
0000
0001
0000
0010
0000
0100
0000
0000
0000
0010
0000
0001
1000
0100
0000
0000
0000
0010
0000
0100
0000
1000
0000
0000
0000
0010
0000
0000
0000
,
0110
0000
0001
0100
0010
0000
1000
0000
0100
0010
0100
0000
1001
0000
1000
0000
,
0001
0000
0000
0000
1000
0000
0010
0000
0100
0000
0000
0000
0010
0000
1000
0001
0100
0000
0000
0000
0001
0000
0010
0000
0100
0000
0000
0000
1000
0000
0000
0000
,
1010
0000
0010
1000
0001
0000
0010
0000
0100
0010
0001
0000
0101
0000
0100
0000
,
0010
0000
0000
0000
0100
0000
0010
0000
1000
0000
0000
0000
0001
0000
0010
0100
1000
0000
0000
0000
0100
0000
0010
0000
0001
0000
0000
0000
1000
0000
0000
0000
,
1100
0000
0100
1000
0001
0000
0100
0000
0010
0100
0001
0000
0011
0000
0010
0000
,
0100
0000
0000
0000
0010
0000
0100
0000
1000
0000
0000
0000
0001
0000
0100
0010
1000
0000
0000
0000
0010
0000
0100
0000
0001
0000
0000
0000
1000
0000
0000
0000
,
2010
3001
0102
1003
2100
3001
0011
0000
,
0210
0000
0000
0000
1300
0000
0000
0000
0120
0000
0000
0000
0031
0000
1000
0100
0010
0000
0000
0000
0001
0000
1000
0000
0010
0000
0000
0000
0100
0000
0000
0000
,
0102
1003
2010
3001
0012
1003
1100
0000
,
1002
0000
0000
0000
0103
0000
0000
0000
2001
0000
0000
0000
3100
0000
0010
0001
1000
0000
0000
0000
0010
0000
0100
0000
0001
0000
0000
0000
1000
0000
0000
0000
,
1020
0130
0210
0301
0021
0130
1100
0000
,
0102
0000
0000
0000
1003
0000
0000
0000
2100
0000
0000
0000
3010
0000
0100
0001
1000
0000
0000
0000
0100
0000
0010
0000
0001
0000
0000
0000
0100
0000
0000
0000
,
0102
0013
0210
1300
2100
3010
0210
0000
,
0001
0010
1300
0000
,
0001
0000
0000
0000
0000
0000
0000
0000
1000
0000
0000
0000
0000
0001
0000
0000
0010
0000
0000
0000
0000
0000
0000
0000
0100
0000
0000
0000
0000
0000
0000
0000
1000
0000
0000
0000
0000
0010
0000
0000
1000
0000
0000
0000
0000
0000
0000
0000
1001
0000
0000
0000
0000
0000
0000
0000
0000
0000
0000
0000
0000
0000
0000
0000
,
1000
0000
0000
0000
0000
0000
0000
0000
0001
0000
0000
0000
0000
0010
0000
0000
0100
0000
0000
0000
0000
0000
0000
0000
1000
0000
0000
0000
0100
0000
0010
0000
0001
0000
0000
0000
0000
0000
0000
0000
1000
0000
0000
0000
0010
0000
0000
0000
0100
0000
0000
0000
0000
0000
0000
0000
0101
0000
0000
0000
0000
0000
0000
0000
,
1000
0000
0000
0000
0000
0000
0000
0000
0001
0000
0000
0000
0000
1000
0000
0000
0010
0000
0000
0000
0000
0000
0000
0000
0100
0000
0000
0000
0000
0000
0000
0000
0001
0000
0000
0000
1010
0000
0000
0000
0000
0000
0000
0000
0011
0000
0000
0000
0000
0000
0000
0000
0000
0000
0000
0000
1001
0000
0000
0000
0000
0000
0000
0000
,
0010
0000
0000
0000
0000
0000
0000
0000
0001
0000
0000
0000
0000
0010
0000
0000
0100
0000
0000
0000
0000
0000
0000
0000
1000
0000
0000
0000
0000
0000
0000
0000
2002
0000
0000
0000
0000
0000
0000
0000
0000
0000
0000
0000
0000
0000
0000
0000
0000
0000
0000
0000
0000
0000
0000
0000
0000
0000
0000
0000
0000
0000
0000
0000
,
0000
0000
3003
0000
;

//---------------dance-single - ----------------
#NOTES:
     dance-single:
     :
     Medium:
     9:
     0.350391,0.380046,0.068131,0.042582,0.000000,288.000000,280.000000,8.000000,5.000000,0.000000,0.000000,0.350391,0.380046,0.068131,0.042582,0.000000,288.000000,280.000000,8.000000,5.000000,0.000000,0.000000:
// measure 0
0000
0000
0000
0000
,  // measure 1
0000
0000
0000
0000
,  // measure 2
0000
0000
0000
0000
,  // measure 3
0000
0000
0000
0000
,  // measure 4
0000
0000
0000
0000
,  // measure 5
1000
0001
0100
0010
1000
0100
0010
0000
,  // measure 6
0001
0000
0000
0000
0010
0001
1000
0000
,  // measure 7
0001
1000
0100
0010
0001
0100
0010
0000
,  // measure 8
1000
0000
0000
0000
0001
0010
0100
0000
,  // measure 9
1000
0010
0100
0000
0001
0010
0100
0000
,  // measure 10
1000
0001
1000
0100
0010
0000
0000
0000
,  // measure 11
0010
0001
0100
0000
0010
1000
0100
0000
,  // measure 12
1000
0001
0010
0001
0100
0000
0000
0100
,  // measure 13
0010
0100
0001
1000
0100
0010
0100
1000
,  // measure 14
0001
0010
0100
0010
0001
0000
0000
1000
,  // measure 15
0001
0010
0100
1000
0010
0100
0001
1000
,  // measure 16
0010
0000
1000
0100
0010
0000
0002
0000
,  // measure 17
1003
1000
0010
1000
0001
0100
0010
0000
,  // measure 18
0100
0100
0100
0001
1000
0100
0010
0000
,  // measure 19
0001
1000
0100
0000
1000
0100
0010
0000
,  // measure 20
0002
0000
0023
0000
0130
1000
0001
0100
,  // measure 21
0010
1000
0001
1000
0100
0010
0001
0000
,  // measure 22
0010
0001
1000
0001
1000
0100
0010
0000
,  // measure 23
0100
1000
0001
0100
0001
1000
0010
0000
,  // measure 24
2000
0000
3020
0000
0130
0001
1000
0100
,  // measure 25
0010
0001
0010
0100
,  // measure 26
1000
0010
0010
0000
,  // measure 27
0010
1000
0001
0100
,  // measure 28
0010
1000
0100
0000
,  // measure 29
0010
0001
1000
0100
,  // measure 30
0010
0001
1000
0000
,  // measure 31
0010
1000
0001
0100
,  // measure 32
0010
1000
0100
0000
,  // measure 33
1000
0010
0100
0001
0010
1000
0010
0000
,  // measure 34
0011
0000
1000
0000
0001
0100
0010
1000
,  // measure 35
0001
0100
0010
1000
0100
0010
0001
0000
,  // measure 36
1100
0000
1000
0000
0010
0100
0001
1000
,  // measure 37
0001
0010
0100
1000
0010
0001
0010
0000
,  // measure 38
1010
0000
0001
0000
0100
0010
1000
0001
,  // measure 39
1000
0100
0010
0001
0100
0010
1000
0000
,  // measure 40
0001
0000
1100
0000
0010
0001
0100
0000
,  // measure 41
0010
0100
0001
0100
0010
0100
1000
0100
,  // measure 42
0001
1000
0100
0010
0001
0000
1001
0000
,  // measure 43
1000
0100
0010
0100
1000
0100
0001
0100
,  // measure 44
0010
0001
0100
0010
1000
0001
0100
0000
,  // measure 45
0001
0010
1000
0010
0001
0100
0010
0100
,  // measure 46
0001
1000
0010
1000
0100
0000
1001
0000
,  // measure 47
0010
0001
1000
0001
0100
0010
1000
0100
,  // measure 48
0010
0001
1000
0000
,  // measure 49
0010
1000
0100
0010
0001
0100
0010
0000
,  // measure 50
1000
0000
0101
0000
0010
0001
1000
0000
,  // measure 51
0100
1000
0001
0100
0010
1000
0001
0000
,  // measure 52
0010
0100
1001
0000
;
