#VERSION:0.83;
#TITLE:High Horse;
#SUBTITLE:;
#ARTIST:Kacey Musgraves;
#TITLETRANSLIT:;
#SUBTITLETRANSLIT:;
#ARTISTTRANSLIT:;
#GENRE:;
#ORIGIN:;
#CREDIT:;
#BANNER:High Horse.png;
#BACKGROUND:High Horse-bg.png;
#PREVIEWVID:;
#JACKET:High Horse-jacket.png;
#CDIMAGE:;
#DISCIMAGE:;
#LYRICSPATH:;
#CDTITLE:;
#MUSIC:High Horse.ogg;
#OFFSET:1.748000;
#SAMPLESTART:56.090000;
#SAMPLELENGTH:15.000000;
#SELECTABLE:YES;
#BPMS:0.000=120.000;
#STOPS:;
#DELAYS:;
#WARPS:;
#TIMESIGNATURES:0.000=4=4;
#TICKCOUNTS:0.000=4;
#COMBOS:0.000=1;
#SPEEDS:0.000=1.000=0.000=0;
#SCROLLS:0.000=1.000;
#FAKES:;
#LABELS:0.000=Song Start;
#BGCHANGES:;
#KEYSOUNDS:;
#ATTACKS:
;

//---------------dance-single - ----------------
#NOTEDATA:;
#CHARTNAME:;
#STEPSTYPE:dance-single;
#DESCRIPTION:;
#CHARTSTYLE:;
#DIFFICULTY:Hard;
#METER:12;
#RADARVALUES:0.425920,0.467289,0.087689,0.186340,0.137015,272.000000,264.000000,8.000000,17.000000,0.000000,0.000000,0.000000,0.000000,0.000000,0.425920,0.467289,0.087689,0.186340,0.137015,272.000000,264.000000,8.000000,17.000000,0.000000,0.000000,0.000000,0.000000,0.000000;
#CREDIT:ohaiimian;
#NOTES:
// measure 0
0000
0000
0000
0000
,  // measure 1
0000
0000
0000
0000
,  // measure 2
0000
0000
0000
0000
,  // measure 3
0000
0000
0000
0000
,  // measure 4
0000
0000
0000
0000
0000
0000
1000
0001
,  // measure 5
0100
0100
0010
1000
0001
0000
1001
0000
,  // measure 6
1000
0000
0000
1000
0100
0000
0000
0100
0010
0000
0000
0010
0001
0000
0100
0000
,  // measure 7
0010
1000
0100
0010
0100
1000
0010
0100
,  // measure 8
0001
0100
0010
1000
0100
0000
0000
0010
,  // measure 9
0001
1000
0010
0100
0001
0000
1001
0000
,  // measure 10
0001
0000
0000
0001
0100
0000
0000
0100
0010
0000
0000
0010
1000
0000
0010
0000
,  // measure 11
1000
0100
0010
0001
0010
0100
1000
0001
,  // measure 12
0100
0000
0010
0000
1000
0000
0000
0000
0100
0000
0000
0100
0010
0000
0001
0000
,  // measure 13
1000
0010
0001
0010
1000
0000
0001
0010
,  // measure 14
0200
0000
2300
0000
3002
0000
0103
0010
,  // measure 15
1000
0000
0000
0000
0001
0000
0000
0000
1000
0000
0001
0010
0000
0100
1000
0000
,  // measure 16
0000
0100
0010
0000
0001
1000
1001
1000
,  // measure 17
0001
0100
1000
0100
0001
0000
1000
0100
,  // measure 18
0020
0000
0032
0000
2003
0010
3010
0100
,  // measure 19
0001
0000
1000
0000
0001
0000
0000
0000
0010
0000
0100
1000
0000
0001
0010
0000
,  // measure 20
0100
0000
1000
0000
0001
0000
0100
0000
0010
0000
1000
0010
1000
0000
0000
0000
,  // measure 21
1100
0000
0100
0010
0000
0000
0000
0000
1100
0000
0100
0010
0000
0000
0000
0000
,  // measure 22
0000
0002
0203
0320
,  // measure 23
1030
0001
0100
0001
1000
0100
0010
0100
,  // measure 24
0100
0000
1000
0010
0100
0001
1000
0000
,  // measure 25
0101
0000
0100
0010
0000
0000
0000
0000
0101
0000
0100
0010
0000
0000
0000
0000
,  // measure 26
0000
2000
3200
0320
,  // measure 27
0031
0000
0100
0000
0010
1000
0001
1000
,  // measure 28
0100
0000
0010
0001
0100
0010
1000
0001
,  // measure 29
1000
0000
0100
0000
0001
0000
0100
0000
1000
0000
0010
0100
0010
0000
0000
0000
,  // measure 30
0100
0001
0010
0001
0100
0010
1000
0000
,  // measure 31
0002
0100
1000
0100
,  // measure 32
2003
0100
0001
0100
,  // measure 33
3001
0000
0010
0000
1000
0000
0010
0000
0001
0000
1000
0001
1000
0000
0000
0000
,  // measure 34
0010
0100
0001
1000
0100
0010
0001
0000
,  // measure 35
2000
0010
0001
0010
,  // measure 36
3002
0010
1000
0010
,  // measure 37
1003
0000
0010
0000
0001
0000
0010
0000
1000
0000
0100
0010
0100
0000
0000
0000
,  // measure 38
1000
1000
0100
0010
0001
0001
1000
0010
,  // measure 39
0200
0010
0001
1000
,  // measure 40
0310
1000
0100
0010
0001
1000
0010
0100
,  // measure 41
0001
0000
0010
0001
0010
0000
0100
0000
1000
0000
0000
1000
0000
0000
1000
0100
,  // measure 42
0000
0010
0001
1000
0010
0100
0101
0000
,  // measure 43
1000
0000
0010
1000
0010
0000
0100
0000
0001
0000
0000
0001
0000
0000
0001
0010
,  // measure 44
0001
0010
0100
1000
0100
0010
0001
0100
;

//---------------dance-single - ----------------
#NOTEDATA:;
#CHARTNAME:;
#STEPSTYPE:dance-single;
#DESCRIPTION:;
#CHARTSTYLE:;
#DIFFICULTY:Medium;
#METER:9;
#RADARVALUES:0.300650,0.369940,0.087689,0.175379,0.010961,192.000000,184.000000,8.000000,16.000000,0.000000,0.000000,0.000000,0.000000,0.000000,0.300650,0.369940,0.087689,0.175379,0.010961,192.000000,184.000000,8.000000,16.000000,0.000000,0.000000,0.000000,0.000000,0.000000;
#CREDIT:ohaiimian;
#NOTES:
0000
0000
0000
0000
,
0000
0000
0000
0000
,
0000
0000
0000
0000
,
0000
0000
0000
0000
,
0000
0000
0000
0000
,
1000
1100
0001
0101
,
1000
0000
0010
0000
0100
0000
0001
1000
,
0010
0000
0010
1000
0100
0000
0100
0000
,
0010
0000
0100
0000
1000
0001
1000
0000
,
0001
0011
1000
1010
,
0001
0010
0100
1000
,
0100
0010
0001
0000
0010
0100
1000
0000
,
0100
0000
0100
0000
0010
0000
0001
1000
,
0001
0000
0100
0001
0100
0000
0010
0000
,
1000
1000
0001
0010
,
0100
0000
0000
0000
0010
0000
0000
0000
0001
0000
0000
0001
0000
0000
0002
0000
,
0000
0000
0000
0003
,
1000
0010
1000
0000
0010
0100
0010
0000
,
0100
0001
0100
0000
0001
0000
1000
0000
,
0100
0000
0010
0000
0100
0000
0000
0000
1000
0000
0000
1000
0000
0000
2000
0000
,
0000
0000
0001
3001
,
0100
1001
0010
1001
,
1000
0002
0203
0320
,
1030
0100
0010
0001
,
0100
0010
0010
1000
,
1001
0010
1001
0010
,
0001
2000
3020
0230
,
0301
0010
0100
1000
,
0100
0010
0001
1000
,
0001
0100
0001
0100
0001
0100
0010
0000
,
1000
0100
1000
0100
1000
0100
0010
0000
,
0002
0100
0000
0100
,
2003
0100
0000
3100
,
0010
0001
0010
0001
0010
0001
0100
0000
,
0010
1000
0010
1000
0010
1000
0100
0000
,
0020
0001
0000
0001
,
0230
1000
0000
1300
,
0001
0100
0010
0000
0100
0010
1000
0000
,
0100
0010
0100
0000
0010
0100
0010
0000
,
2000
0100
0001
0100
,
3002
0100
1000
0100
,
1003
0100
0010
0000
0100
0010
0001
0000
,
0010
0100
0010
0000
0100
0010
0100
0000
,
2000
0010
0001
0100
,
3002
0010
1000
0103
,
0100
0000
0000
0000
;

//---------------dance-single - ----------------
#NOTEDATA:;
#CHARTNAME:;
#STEPSTYPE:dance-single;
#DESCRIPTION:;
#CHARTSTYLE:;
#DIFFICULTY:Easy;
#METER:4;
#RADARVALUES:0.223921,0.221964,0.000000,0.153457,0.000000,143.000000,143.000000,0.000000,14.000000,0.000000,0.000000,0.000000,0.000000,0.000000,0.223921,0.221964,0.000000,0.153457,0.000000,143.000000,143.000000,0.000000,14.000000,0.000000,0.000000,0.000000,0.000000,0.000000;
#CREDIT:ohaiimian;
#NOTES:
0000
0000
0000
0000
,
0000
0000
0000
0000
,
0000
0000
0000
0000
,
0000
0000
0000
0000
,
0000
0000
0000
0000
,
1000
0100
0010
0002
,
0000
0000
0000
0013
,
0010
0100
0100
1000
,
0010
0100
0001
0100
,
0010
1000
0001
0020
,
0000
0000
0000
0000
,
0130
1000
0001
0100
,
0010
0100
0001
1000
,
0100
0100
0010
0010
,
0001
0100
0010
0100
,
0001
1000
0100
0100
,
0200
0000
0000
0300
,
0010
0001
1000
0010
,
0100
0010
1000
0100
,
0010
0001
0010
0010
,
0020
0000
0130
0100
,
1000
0010
0001
0010
,
1000
0002
2003
3002
,
0103
0100
0100
0100
,
0000
0000
0001
0100
,
0001
0010
1000
0010
,
0001
2000
3002
2003
,
3010
0010
0100
0100
,
0001
0000
1000
1000
,
0100
0010
0001
1000
,
0100
1000
0001
0100
,
0010
1000
0000
1000
,
0100
0001
0000
0001
,
1000
0100
0010
0001
,
0010
0100
1000
0001
,
0100
0010
0000
0010
,
1000
0100
0000
0100
,
0010
0010
0001
0001
,
2000
3100
0020
0031
,
0100
0100
0010
0010
,
1000
0001
0010
0100
,
0010
0010
0100
0100
,
2000
3010
0200
0301
,
0010
0001
0100
0010
,
1000
0100
0010
0001
,
0100
0000
0000
0000
;

//---------------dance-single - ----------------
#NOTEDATA:;
#CHARTNAME:;
#STEPSTYPE:dance-single;
#DESCRIPTION:;
#CHARTSTYLE:;
#DIFFICULTY:Beginner;
#METER:2;
#RADARVALUES:0.119007,0.147976,0.000000,0.065767,0.000000,76.000000,76.000000,0.000000,6.000000,0.000000,0.000000,0.000000,0.000000,0.000000,0.119007,0.147976,0.000000,0.065767,0.000000,76.000000,76.000000,0.000000,6.000000,0.000000,0.000000,0.000000,0.000000,0.000000;
#CREDIT:ohaiimian;
#NOTES:
0000
0000
0000
0000
,
0000
0000
0000
0000
,
0000
0000
0000
0000
,
0000
0000
0000
0000
,
0000
0000
0000
0000
,
1000
1000
1000
0000
,
0100
0000
0100
0000
,
0010
0000
0100
0000
,
0010
0000
0100
0000
,
0001
0001
0001
0000
,
1000
0000
0001
0000
,
1000
0000
0001
0000
,
0010
0000
0100
0000
,
1000
0000
0000
0000
,
0001
0000
0000
0000
,
0100
0000
0010
0000
,
0020
0000
0030
0000
,
0100
0000
0000
0000
,
0010
0000
0000
0000
,
1000
0000
0001
0000
,
2000
0000
3000
0000
,
0100
0000
0100
0000
,
2000
0000
0000
3000
,
0001
0000
1000
0000
,
0100
0000
0000
0000
,
0010
0000
0010
0000
,
0002
0000
0003
0000
,
1000
1000
1000
0000
,
0001
0000
1000
0000
,
0010
0010
0010
0000
,
0020
0000
0030
0000
,
0010
0000
0100
0000
,
0001
0000
1000
0000
,
0100
0100
0100
0000
,
0200
0000
0300
0000
,
0100
0000
1000
0000
,
0001
0000
0100
0000
,
0010
0010
0010
0000
,
1000
0000
1000
0000
,
0001
0000
0001
0000
,
0100
0000
0100
0000
,
0100
0000
0010
0000
,
1000
0000
0001
0000
,
0010
0000
0100
0000
,
1000
0000
0001
0000
,
0100
0000
0000
0000
;
