#VERSION:0.83;
#TITLE:Hella Deep;
#SUBTITLE:;
#ARTIST:MASAYOSHI IIMORI;
#TITLETRANSLIT:;
#SUBTITLETRANSLIT:;
#ARTISTTRANSLIT:;
#GENRE:FREESTYLE;
#ORIGIN:;
#CREDIT:;
#BANNER:helladeep-bn.png;
#BACKGROUND:helladeep-bg.png;
#PREVIEWVID:;
#JACKET:helladeep-jacket.png;
#CDIMAGE:;
#DISCIMAGE:;
#LYRICSPATH:;
#CDTITLE:cdtitle.png;
#MUSIC:helladeep.ogg;
#OFFSET:-1.709525;
#SAMPLESTART:27.309490;
#SAMPLELENGTH:12.800000;
#SELECTABLE:YES;
#DISPLAYBPM:*;
#BPMS:0.000=150.000,
129.000=144.000,
133.000=288.000,
145.000=576.000,
169.000=132.000;
#STOPS:128.000=2.800,
193.000=1.364,
261.500=0.455;
#DELAYS:;
#WARPS:;
#TIMESIGNATURES:0.000=4=4;
#TICKCOUNTS:0.000=4;
#COMBOS:0.000=1;
#SPEEDS:0.000=1.000=0.000=0;
#SCROLLS:0.000=1.000;
#FAKES:;
#LABELS:0.000=Song Start;
#BGCHANGES:;
#KEYSOUNDS:;
#ATTACKS:
;

//---------------dance-single - ----------------
#NOTEDATA:;
#CHARTNAME:;
#STEPSTYPE:dance-single;
#DESCRIPTION:;
#CHARTSTYLE:;
#DIFFICULTY:Hard;
#METER:14;
#RADARVALUES:0.672363,0.845843,0.485785,0.262802,0.422075,591.000000,530.000000,61.000000,33.000000,0.000000,0.000000,0.000000,0.000000,0.000000,0.672363,0.845843,0.485785,0.262802,0.422075,591.000000,530.000000,61.000000,33.000000,0.000000,0.000000,0.000000,0.000000,0.000000;
#CREDIT:TonyAkita (I can't believe it's not Spriggan!);
#DISPLAYBPM:*;
#NOTES:
// measure 0
0000
0000
0000
0000
,  // measure 1
0000
0000
0000
0000
,  // measure 2
0000
0000
0000
0000
,  // measure 3
0000
0000
0000
0000
,  // measure 4
1000
0010
0100
0010
1000
0000
0011
0000
,  // measure 5
1010
0000
0001
0100
1000
0100
0001
0000
,  // measure 6
1000
0100
0010
0001
1000
0010
1010
0000
,  // measure 7
0001
1000
0001
1000
0001
1000
0001
2000
0002
0000
0000
0000
3003
0000
0000
0000
,  // measure 8
1020
0000
1000
0000
1000
0030
0010
1000
,  // measure 9
0002
0000
0010
0000
0010
0003
0001
0010
,  // measure 10
0200
0000
1000
0000
1000
0300
0100
1000
,  // measure 11
0002
0000
0100
0000
0100
0003
0001
1000
,  // measure 12
1001
1000
0010
0100
0001
0010
0001
0100
,  // measure 13
0010
1000
0100
1000
0010
0100
0001
1000
,  // measure 14
0100
0010
0100
0010
0100
0010
0100
0010
0100
0010
0100
0010
0100
0010
0100
0010
,  // measure 15
0200
0000
0010
0010
0310
0000
1001
0000
,  // measure 16
0110
0000
1100
0100
0101
0100
1000
0001
,  // measure 17
0100
0000
0010
1000
0010
0000
1000
0000
0001
0000
1000
0100
0010
0000
0010
0000
,  // measure 18
0011
0000
1010
0010
0011
0010
1000
0001
,  // measure 19
0010
0000
0100
1000
0100
0000
1000
0100
0010
0000
0010
0000
0001
0100
0010
1000
,  // measure 20
0020
0000
0000
0000
1000
0000
1030
0000
1010
0000
0000
1001
0000
0000
0011
0000
,  // measure 21
0010
0001
0010
0100
0010
0000
0001
0000
1000
0000
1000
0000
0001
1000
0001
1000
,  // measure 22
0001
0000
0000
0000
0110
0000
0000
0000
0001
0000
1000
0000
0010
0100
0010
0100
,  // measure 23
0020
0000
1000
0000
1000
0000
1030
0000
1001
0000
0001
1000
0001
0000
0000
0000
,  // measure 24
1001
0000
1100
0100
0101
0100
1000
0001
,  // measure 25
0100
0000
0010
1000
0010
0000
1000
0000
0001
0000
1000
0100
0010
0000
0010
0000
,  // measure 26
0011
0000
1010
0010
0011
0010
1000
0001
,  // measure 27
0010
0000
0100
1000
0100
0000
1000
0100
0010
0000
0010
0000
0001
1000
0001
2000
,  // measure 28
0002
0000
3003
0000
1010
1000
0100
0000
,  // measure 29
0011
0001
0100
0001
0011
1000
0001
0000
,  // measure 30
1010
1000
0100
0010
0011
0100
0010
1000
,  // measure 31
0001
1000
0001
1000
0001
1000
0001
2000
0002
0000
0000
0000
0000
0000
3003
0000
,  // measure 32
0220
0330
2002
0000
0000
0000
0000
0000
,  // measure 33
3003
0000
1000
0000
0000
0001
0000
0000
,  // measure 34
1000
0000
0000
0001
0000
0000
0010
0000
,  // measure 35
0000
0100
0000
0000
0010
0000
0000
0100
,  // measure 36
0000
0000
1000
0000
0000
0100
0000
0000
,  // measure 37
0010
0000
0000
0001
0000
0000
1000
0000
,  // measure 38
0000
0010
0000
0000
0100
0000
0000
0001
,  // measure 39
0000
0000
0000
0000
1000
0000
0000
0100
0000
0000
0010
0000
0000
0001
0000
0000
,  // measure 40
1000
0000
0000
0100
0000
0000
0010
0000
0000
0001
0000
0000
1000
0000
0000
0010
,  // measure 41
0000
0000
0100
0000
0000
0001
0000
0000
1000
0000
0000
0010
0000
0000
0100
0000
,  // measure 42
0000
0001
0000
0000
1000
0000
0100
0000
0010
0000
0001
0000
2000
0000
0001
0000
,  // measure 43
3001
0000
0001
0010
0011
0000
1000
0010
,  // measure 44
1010
0000
0001
0010
0100
1000
0002
1000
,  // measure 45
1003
0000
0001
0010
0011
0000
1000
0010
,  // measure 46
1010
0000
0001
0010
0100
1000
0001
0100
,  // measure 47
1000
0000
0000
0100
0000
0000
0001
0000
1000
0010
0000
1000
0010
0000
0100
0001
0000
0100
0001
1000
0001
1000
0001
1000
,  // measure 48
0001
1000
0001
1000
0001
2000
0002
0000
0000
0003
0000
0000
0010
0000
0000
0000
0000
0000
0010
0000
0000
0000
0000
0000
,  // measure 49
3010
0000
1001
0000
0011
0000
1100
0001
,  // measure 50
0101
0000
0000
0001
0000
0000
1000
0000
0000
0010
0100
0010
0100
0000
0000
0001
0000
1000
0100
0000
0000
0010
0000
0000
,  // measure 51
0001
0000
0000
1000
0000
0001
2000
0000
0000
0000
0000
0000
3010
0000
0000
0000
0000
0000
0101
0000
0000
1000
0000
0000
,  // measure 52
1100
0000
0000
0001
0000
1000
0010
0000
0100
0010
0000
1000
0010
0000
0000
0100
0000
0001
0100
0000
0000
0001
0000
0000
,  // measure 53
1000
0000
0100
0010
0000
0000
0001
0000
0000
1000
0000
0000
1010
0000
0000
0000
0000
0000
0001
0000
0000
1000
0000
0000
,  // measure 54
0001
0000
0010
0001
0000
0010
0001
0000
0000
1000
0000
0000
1001
0000
0000
0001
0000
0000
0100
0000
0000
0010
0000
0000
,  // measure 55
1000
0000
0010
1000
0000
0010
1000
0000
0000
0001
0000
0000
1001
0000
0000
0000
0000
0000
1100
0000
0000
1000
0000
0000
,  // measure 56
0001
0000
0100
0010
0000
0100
0010
0000
0000
1000
0000
0000
1010
0000
0000
0010
0000
0000
0100
0000
0000
0001
0000
0000
,  // measure 57
2002
3000
0100
0100
0103
0000
0101
1000
,  // measure 58
1100
0000
0000
1000
0000
0001
0010
0000
0100
0010
0000
0001
0010
0000
0000
0100
0000
1000
0100
0000
0000
0010
0000
0000
,  // measure 59
0001
0000
0000
1000
0000
0010
0100
0000
0000
0001
0000
0000
1001
0000
0000
0000
0000
0000
0011
0000
0000
1000
0000
0000
,  // measure 60
1010
0000
0000
1000
0000
0001
0010
0000
0100
0010
0000
0001
0010
0000
0000
0100
0000
1000
0100
0000
0000
1000
0000
0000
,  // measure 61
0001
0000
1000
0000
1001
0000
0000
0000
1010
0000
0010
0000
1000
0001
1000
0000
,  // measure 62
0011
0000
0010
0000
0001
1000
0001
0000
1001
0000
1000
0000
0001
1000
0001
0000
,  // measure 63
1001
1000
0100
0010
0002
1000
2003
0001
,  // measure 64
3001
0000
1000
0000
0001
0000
1000
0000
0010
0100
0010
0100
0010
0100
0010
0100
,  // measure 65
0020
0000
0000
0000
2000
0000
0030
0000
3001
1000
0001
0000
0011
0000
0000
1001
,  // measure 66
0000
0000
1010
0000
0000
1001
0000
0000
0001
0000
0010
0000
0100
0000
1000
0000
,  // measure 67
2000
0000
0000
0000
3001
0000
0100
0000
0010
1000
0001
0000
2000
0000
0001
0000
,  // measure 68
3001
0000
0000
0000
1000
0000
0001
0010
0001
0000
0010
0000
0100
0000
1000
0000
,  // measure 69
0001
0000
0000
1000
0000
0000
0001
0000
0000
0000
0000
0000
1000
0000
0000
0000
0010
0000
0000
0000
1000
0000
0000
0000
0001
0000
0000
0000
0100
0000
0000
0000
0001
0000
0000
0000
1000
0000
0000
0000
0000
0000
0001
0000
0000
0000
0000
0000
,  // measure 70
0010
0100
0010
0100
1000
0100
0010
0001
1000
0000
0010
0000
0001
0000
0010
0000
,  // measure 71
1000
0000
0100
0000
0010
0000
0001
0010
0001
0000
1000
0000
0020
0000
0100
0000
,  // measure 72
0130
0000
0000
0000
0001
0010
0100
1000
0001
0100
0010
2000
0002
0000
0000
0000
,  // measure 73
3003
0110
0000
0000
;

//---------------dance-single - ----------------
#NOTEDATA:;
#CHARTNAME:;
#STEPSTYPE:dance-single;
#DESCRIPTION:;
#CHARTSTYLE:;
#DIFFICULTY:Medium;
#METER:9;
#RADARVALUES:0.450517,0.612507,0.358366,0.191128,0.011946,396.000000,351.000000,45.000000,24.000000,0.000000,0.000000,0.000000,0.000000,0.000000,0.450517,0.612507,0.358366,0.191128,0.011946,396.000000,351.000000,45.000000,24.000000,0.000000,0.000000,0.000000,0.000000,0.000000;
#CREDIT:TonyAkita;
#DISPLAYBPM:*;
#NOTES:
0000
0000
0000
0000
,
0000
0000
0000
0000
,
0000
0000
0000
0000
,
0000
0000
0000
0000
,
1000
0000
0001
0010
0100
0000
1100
0000
,
0101
0000
0001
1000
0001
0000
0001
0000
,
1001
0000
1000
0000
0010
0100
0001
0000
,
1000
0001
1000
0001
0100
0000
0000
0000
,
1010
0000
1000
0000
1000
0000
1000
0001
,
0100
0000
0100
0000
0100
0000
0010
0100
,
0010
0000
0010
0000
0010
0000
0010
1000
,
0001
0000
0001
0000
0001
0000
0001
1000
,
0100
0010
0100
0010
0001
0010
0001
0010
,
0001
1000
0001
1000
0010
1000
0010
1000
,
0010
0100
0010
0200
0020
0000
0000
0330
,
0110
0000
0010
0010
1001
0000
0000
0000
,
1010
0000
0001
1000
0100
0000
1100
0000
,
0001
0100
0010
0100
0001
0000
1001
0000
,
0011
0000
1000
0001
0100
0000
0101
0000
,
1000
0100
0010
0100
1000
0001
1000
0001
,
0100
0000
0000
0000
0010
0000
0010
0000
0010
0000
0000
1000
0000
0000
0001
0000
,
1000
0000
1010
0000
0011
0001
0002
0000
,
0013
0000
1001
0000
1000
0100
0010
0000
,
0001
1000
0001
1000
2002
0000
3003
0000
,
1010
0000
1000
0001
0010
0000
0011
0000
,
0001
0100
0001
0010
0100
0000
1100
0000
,
0101
0000
0001
1000
0010
0000
1010
0000
,
1000
0100
1000
0010
0100
0001
1000
0001
,
2002
0000
3003
0000
0001
1000
0010
0000
,
0100
0001
0010
0001
0100
0010
1000
0000
,
0001
0010
0100
1000
0001
0100
0010
0000
,
2002
0000
0000
3003
,
0220
0330
1001
0000
0000
0000
0000
0000
,
0000
2000
0000
0000
,
0000
0000
0000
0000
,
0000
0020
0000
0000
,
0000
0000
0000
0000
,
0000
0000
0000
0000
,
0000
0000
0000
0000
,
0000
0000
0000
0000
,
0000
0000
0000
0000
,
0000
0000
0000
0000
,
0000
0000
3030
0000
0010
0100
0001
0010
,
0001
0000
0010
0100
0010
0000
0100
1000
,
0100
0000
1000
0000
0001
0000
0100
0001
,
0100
0000
0010
0100
0010
0000
1000
0010
,
1000
0000
0001
1000
0001
1000
0001
0010
,
0001
0010
0100
0010
0100
0010
0100
1000
,
0001
1000
1001
0000
2000
0000
0010
0000
,
3010
0000
1010
0000
0011
0000
1000
0001
,
0100
0001
0010
0001
0101
0000
1100
0000
,
0001
1000
1001
0000
1010
0000
0001
1000
,
0100
1000
0010
1000
0100
0010
0001
0010
,
0100
1000
0100
0001
0100
0000
0010
0001
,
0100
0001
0010
0000
0100
1000
0001
1000
,
0010
1000
0001
1000
1001
0000
0001
0100
,
0001
0010
0100
0000
1000
0100
0001
0100
,
1100
0000
1000
1000
1001
0000
0001
0100
,
0010
1000
0100
1000
0010
0100
0001
1000
,
0100
0001
0100
1000
1001
0000
0001
0100
,
0010
1000
0100
1000
0010
0100
0001
1000
,
0100
1000
1010
0000
1001
0001
0010
0001
,
1001
1000
0010
1000
1010
0010
0100
0010
,
0220
0000
0330
0000
0001
0001
1000
1000
,
0100
0100
0010
0010
0001
0010
1000
0010
,
0002
0000
0000
0000
1003
0000
0000
0000
1000
0000
0010
0000
0100
0000
0000
0001
,
0000
0000
1000
0000
0000
0001
0000
0000
0010
0000
0000
0000
0010
0000
0100
0000
,
1000
0000
2002
0000
3000
0000
0100
0100
,
0103
0000
0010
1000
0010
1000
2002
0000
,
3003
0000
1000
0001
0100
0010
1000
0001
,
0010
0000
0100
0000
1100
0000
0001
1000
,
1001
0000
0202
0000
0300
0000
1000
1000
,
1003
0000
1000
0010
0100
0010
2000
0000
,
0000
3001
0000
0000
;

//---------------dance-single - ----------------
#NOTEDATA:;
#CHARTNAME:;
#STEPSTYPE:dance-single;
#DESCRIPTION:;
#CHARTSTYLE:;
#DIFFICULTY:Easy;
#METER:6;
#RADARVALUES:0.342438,0.525006,0.461894,0.135383,0.000000,301.000000,243.000000,58.000000,17.000000,0.000000,0.000000,0.000000,0.000000,0.000000,0.342438,0.525006,0.461894,0.135383,0.000000,301.000000,243.000000,58.000000,17.000000,0.000000,0.000000,0.000000,0.000000,0.000000;
#CREDIT:TonyAkita;
#DISPLAYBPM:*;
#NOTES:
0000
0000
0000
0000
,
0000
0000
0000
0000
,
0000
0000
0000
0000
,
0000
0000
0000
0000
,
1010
1001
0011
0001
,
1000
0010
0100
0001
,
0101
1000
0001
0100
,
0010
1000
1001
0000
,
0001
0000
0001
0000
0001
0000
0001
0001
,
0001
0000
0001
0000
0001
0000
0001
0001
,
0001
0000
1000
0000
1000
0000
1000
1000
,
1000
0000
1000
0000
1000
0000
1000
1000
,
1000
1000
0001
0001
,
0100
0100
0010
0010
,
1000
0001
1000
0001
1000
0001
1000
0001
,
1001
1001
0110
0000
,
1100
0101
1100
0001
,
1001
0000
1000
1000
0010
0000
0010
0000
,
1010
0011
1010
0001
,
1001
0000
1000
1000
0100
0000
0100
0000
,
0110
0000
0000
0001
1000
0000
1000
0000
,
1010
0000
0011
0000
0010
0010
0100
0000
,
1100
0000
1001
0000
,
0002
0010
0013
0000
,
0011
1010
0011
1000
,
1001
0000
0001
0001
0100
0000
0100
0000
,
0101
1100
0101
1000
,
1001
0000
0001
0001
0010
0000
0010
0000
,
0110
0000
2001
0000
,
3020
0000
0230
0000
,
0302
0000
1003
0000
,
2002
0000
0000
3003
,
0110
1001
0000
0000
,
0000
0000
0000
0000
,
0000
0000
0000
0000
,
0000
2000
0000
0000
,
0000
0000
0000
0000
,
0000
0000
0000
0000
,
0000
0000
0000
0000
,
0000
0000
0000
0000
,
0000
0000
0000
0000
,
0000
0000
0000
0000
,
0000
3000
1000
0001
,
0010
1000
0010
0001
,
0010
0100
0100
1000
,
0100
0001
0100
1000
,
0001
0000
1000
0001
1000
0001
1000
0001
,
1000
0001
0100
0010
0100
0010
0100
0010
,
0100
0010
0110
0000
1000
0000
1000
0000
,
1000
0000
1010
1100
,
1010
0000
0100
0001
,
0010
0000
0011
0101
,
0011
0000
0000
0000
0001
1000
0001
1000
,
0010
0000
0110
0001
,
0010
0000
0001
0000
1000
0001
0100
0000
,
0010
1000
1010
0001
,
0100
0000
0001
0000
1000
0001
0100
0000
,
0220
0330
1100
0101
,
1100
0000
0000
0000
1000
0001
1000
0001
,
0100
0000
0101
1100
,
0101
0000
0000
0000
1000
0001
1000
0001
,
0010
0000
0110
1000
,
1100
0001
0101
1000
,
1001
0000
0000
0000
0001
1000
0001
1000
,
0001
1000
0001
1000
0010
0100
0010
0100
,
0020
0000
0030
0000
1000
0000
0001
1000
,
0100
0000
1000
1001
,
0002
0000
0013
0000
0000
0000
0001
1000
,
0100
0000
0010
0022
,
0033
0000
1000
0000
1000
0000
0001
0010
,
0100
0000
1000
1001
,
0002
0000
0103
0000
0000
0000
0100
0010
,
1000
0000
0001
2002
,
0000
3003
0000
0000
;

//---------------dance-single - ----------------
#NOTEDATA:;
#CHARTNAME:;
#STEPSTYPE:dance-single;
#DESCRIPTION:;
#CHARTSTYLE:;
#DIFFICULTY:Beginner;
#METER:5;
#RADARVALUES:0.208193,0.320837,0.222983,0.023891,0.000000,183.000000,155.000000,28.000000,3.000000,0.000000,0.000000,0.000000,0.000000,0.000000,0.208193,0.320837,0.222983,0.023891,0.000000,183.000000,155.000000,28.000000,3.000000,0.000000,0.000000,0.000000,0.000000,0.000000;
#CREDIT:TonyAkita;
#DISPLAYBPM:*;
#NOTES:
0000
0000
0000
0000
,
0000
0000
0000
0000
,
0000
0000
0000
0000
,
0000
0000
0000
0000
,
1000
1000
1000
0000
,
0001
0000
0010
0000
,
0001
0000
1000
0000
,
0100
0100
0100
0000
,
0000
0010
0010
0010
,
0010
0010
0010
0010
,
0000
0100
0100
0100
,
0100
0100
0100
0100
,
0000
1000
1000
0000
,
0001
0000
1000
0000
,
0010
0010
0010
0010
,
0020
0000
0030
0000
,
1001
1001
1001
0000
,
0010
0010
0010
0000
,
1001
1001
1001
0000
,
0100
0100
0100
0000
,
1001
0000
0001
0000
,
0010
0000
0001
0000
,
1001
0000
0110
0000
,
0020
0000
0030
0000
,
1001
1001
1001
0000
,
0100
0100
0100
0000
,
1001
1001
1001
0000
,
0010
0010
0010
0000
,
1001
0000
1000
0000
,
0001
0000
0010
0000
,
0001
0000
0100
0000
,
0020
0000
0030
0000
,
0110
1001
0000
0000
,
0000
0000
0000
0000
,
0000
0000
0000
0000
,
0000
0000
0000
0000
,
0000
0000
0000
0000
,
0000
0000
0000
0000
,
0000
0000
0000
0000
,
0000
0000
0000
0000
,
0000
0000
0000
0000
,
0000
0000
0000
0000
,
0000
1000
1000
1000
,
0000
0001
0000
1000
,
0000
0100
0100
0100
,
0000
0010
0000
0100
,
0000
1000
1000
1000
,
1000
1000
1000
1000
,
1000
0000
0010
0010
,
0010
0000
1001
1001
,
1001
0000
1000
1000
,
1000
0000
0000
0001
,
0001
0000
0010
0010
,
0010
0000
1001
0000
,
1000
1000
1000
0000
,
0001
0001
0000
0100
,
0100
0100
0000
0010
,
0010
0000
0000
1000
,
1000
0000
0010
0010
,
0010
0000
0000
1000
,
1000
0000
0001
0001
,
0001
0000
1001
0000
,
0110
0000
1001
0000
,
0110
0000
0010
0010
,
0010
0010
0010
0010
,
0010
0000
1000
1000
,
0000
0001
0000
0100
,
0000
0000
0001
0001
,
0000
1000
0000
1001
,
0000
0000
0001
0001
,
0000
0010
0000
0001
,
0000
0000
1000
1000
,
0000
0010
0010
0010
,
0000
1001
0000
0000
;
