#TITLE:Hasta La Vista;
#SUBTITLE:;
#ARTIST:Hurricane;
#TITLETRANSLIT:;
#SUBTITLETRANSLIT:;
#ARTISTTRANSLIT:;
#GENRE:;
#CREDIT:;
#MENUCOLOR:;
#METERTYPE:DDR;
#BANNER:Hasta La Vista.png;
#BACKGROUND:Hasta La Vista-bg.png;
#LYRICSPATH:;
#CDTITLE:./CDTITLES/NONE.PNG;
#MUSIC:Hasta La Vista.ogg;
#OFFSET:0.000;
#SAMPLESTART:41.942;
#SAMPLELENGTH:15.000;
#SELECTABLE:YES;
#LISTSORT:;
#BPMS:0.000=103.000;
#STOPS:;
#BGCHANGES:0.000=Hasta La Vista.avi=1.000=0=0=0,
99999=-nosongbg-=1.000=0=0=0 // don't automatically add -songbackground-
;
#ATTACKS:;

//---------------dance-single - ----------------
#NOTES:
     dance-single:
     :
     Beginner:
     1:
     0.098,0.143,0.000,0.000,0.000:
0000
0000
0000
0000
,
0000
0000
0000
0000
,
0000
0000
0000
0000
,
0000
0000
0000
0000
,
0000
0000
0000
0000
,
0000
0000
0000
0000
,
1000
0000
0000
0000
,
0001
0000
0000
0000
,
0100
0000
0000
0000
,
0010
0000
0010
0000
,
0100
0000
0000
0000
,
0001
0000
0000
0000
,
1000
0000
0000
0000
,
0001
0000
0001
0000
,
0000
1000
1000
0000
,
0000
0001
0001
0000
,
0000
0100
0100
0000
,
0000
0010
0010
0000
,
1000
0000
1000
0000
,
0001
0000
0001
0000
,
0100
0000
0100
0000
,
0010
0000
0010
0000
,
1000
0000
0000
0000
,
0001
0000
0000
0000
,
0010
0000
0000
0000
,
0100
0000
0000
0000
,
0010
0010
0010
0000
,
0001
0000
0000
0000
,
1000
1000
1000
0000
,
0010
0000
0000
0000
,
0100
0000
0100
0000
,
0010
0000
0010
0000
,
1000
0000
1000
0000
,
0001
0000
0001
0000
,
0000
1000
1000
0000
,
0001
0000
0001
0000
,
0000
1000
1000
0000
,
0010
0000
0010
0000
,
0000
0100
0100
0000
,
0000
0001
0000
0001
,
0000
1000
1000
0000
,
0000
0001
0000
1000
,
1000
0000
0010
0000
,
0100
0100
0100
0000
,
0010
0000
1000
0000
,
0001
0001
0001
0000
,
1000
1000
1000
0000
,
0001
0001
0001
0000
,
0100
0000
0100
0000
,
0010
0000
0010
0010
,
0010
0000
0000
0000
;

//---------------dance-single - ----------------
#NOTES:
     dance-single:
     :
     Easy:
     5:
     0.232,0.250,0.008,0.155,0.000:
0000
0000
0000
0000
,
0000
0000
0000
0000
,
0000
0000
0000
0000
,
0000
0000
0000
0000
,
0000
0000
0000
0000
,
0000
0000
0000
0000
,
0010
1000
0200
0000
,
0310
0001
0200
0000
,
0310
1000
0002
0000
,
0013
0010
0010
0000
0010
0010
0010
0000
,
0001
1000
0020
0000
,
1030
0001
0200
0000
,
0301
0100
0020
0000
,
0130
0100
0100
0000
0100
0100
0100
0000
,
0010
1000
0000
1000
,
0001
0100
0000
0100
,
0001
0010
0000
0010
,
0001
0100
0010
1000
,
0001
1000
0002
1003
,
0010
0010
0010
0000
0010
0010
0010
0000
,
1000
0001
2000
3001
,
0100
0100
0100
0000
0100
0100
0100
0000
,
0010
1000
0200
0310
,
0001
0100
0020
0130
,
0010
1000
0001
0100
,
0001
0001
2000
0000
,
3001
0100
0002
1003
,
0001
0010
0100
1000
,
0001
0100
1000
0010
,
0100
0100
0100
0010
,
0002
1000
0000
1003
,
0200
0010
0000
0310
,
0002
0100
0000
0103
,
0010
0010
1000
1000
,
0001
1001
1000
1000
,
0010
0010
0010
0000
0010
0010
0010
0000
,
1000
0001
0200
0310
,
0100
0100
0100
0000
0100
0100
0100
0000
,
0010
1000
0001
1000
,
0100
1000
0100
0010
,
0001
0100
0010
0100
,
0001
0010
0200
0000
,
0310
0001
1000
0001
,
1000
1000
1000
0000
2000
0000
3000
0000
,
0010
1000
0001
1000
,
0001
0100
0001
1000
,
0010
0010
0010
0000
0010
0010
0010
0000
,
1000
0100
0010
0001
,
0100
0100
0100
0000
0100
0000
0100
0000
,
0010
0000
1000
0000
0001
0000
0100
0010
,
0200
0000
0000
0000
,
0300
0000
0000
0000
;

//---------------dance-single - ----------------
#NOTES:
     dance-single:
     :
     Medium:
     7:
     0.338,0.333,0.016,0.237,0.086:
0000
0000
0000
0000
,
0000
0000
0000
0000
,
0000
0000
0000
0000
,
0000
0000
0000
0000
,
0000
0000
0000
0000
,
0000
0000
0000
0000
,
0002
0000
0103
0001
0200
0000
0301
0000
,
2000
0000
3100
1000
0200
0000
1300
0000
,
0020
0000
0130
0010
0200
0000
0310
0000
,
1000
0000
0001
1000
0001
0000
0000
0000
1000
0000
0001
1000
0001
0000
0000
0000
,
0200
0000
0310
1000
0020
0000
1030
0000
,
0002
0000
0013
0001
0020
0000
0031
0000
,
2000
0000
3100
1000
0200
0000
1300
0000
,
0001
0000
1000
0001
1000
0000
0000
0000
0001
0000
1000
0001
1000
0000
0000
0000
,
0010
0000
0100
0001
0100
0000
0010
0000
,
1000
0000
0100
0010
0100
0000
1000
0000
,
0001
0000
0010
0001
0010
0000
0001
0000
,
1000
0100
0010
0100
2000
0000
0000
0000
,
3001
0000
0100
0001
0020
0000
0031
0000
,
1000
0000
0001
1000
0001
0000
0000
0000
1000
0000
0001
1000
0001
0000
0000
0000
,
0100
0000
0010
1000
0200
0000
0310
0000
,
0001
0000
1000
0001
1000
0000
0000
0000
0001
0000
1000
0001
1000
0000
0000
0000
,
0001
0000
0100
0010
1000
0100
2000
0000
,
3001
0000
0010
0001
0100
0010
0200
0000
,
0310
0000
1000
0010
1000
0001
0100
0000
,
0001
0010
0100
1000
0020
0000
0000
0000
,
0130
0000
0001
1000
0100
0000
1000
0001
,
0010
0000
0001
0100
0010
0000
1000
0100
,
2000
3020
0032
0203
,
1300
0010
0100
0000
0001
0010
0100
0000
,
0010
0000
0001
0000
0100
0100
0100
0000
,
0010
0000
1000
0000
0100
0100
0100
0000
,
1000
0000
0001
0000
0010
0010
0010
0000
,
0001
0001
0001
0000
2000
0000
0000
0000
,
3010
0000
0110
0000
0010
1000
0100
0000
,
1000
0000
0001
1000
0001
0000
0000
0000
1000
0000
0001
1000
0001
0000
0000
0000
,
0010
0000
0001
0100
0020
0000
1030
0000
,
0001
0000
1000
0001
1000
0000
0000
0000
0001
0000
1000
0001
1000
0000
0000
0000
,
1000
0000
0001
0100
1000
0100
0010
0000
,
1000
0000
0001
0010
1000
0010
0100
0000
,
0010
0000
0001
0100
1000
0100
0010
0000
,
1000
0100
0010
0001
0100
0000
0100
0000
,
0010
0000
0000
1000
0100
0000
1000
0000
0010
0000
1000
0000
0001
0000
0000
0000
,
1000
0010
1000
0000
0001
0000
1000
0000
0002
0000
0000
0000
0003
0000
0000
0000
,
0010
0000
0000
0001
0100
0000
0001
0000
0010
0000
0001
0000
1000
0000
0000
0000
,
0100
0000
0000
1000
0100
0000
0000
0000
1000
0000
0000
0001
0100
0000
0000
0000
,
0010
0100
0001
0100
1000
0100
0020
0000
,
1030
0000
0000
0100
1000
0000
0000
0000
0001
0000
0000
0010
0001
0000
0000
0000
,
0100
0010
1000
0010
0001
0010
0200
0000
,
0301
0000
0000
0010
0001
0000
0000
0000
1000
0000
0000
0001
1000
0000
0000
0000
,
0220
0000
0000
0000
,
0330
0000
0000
0000
;

//---------------dance-single - ----------------
#NOTES:
     dance-single:
     :
     Hard:
     11:
     0.472,0.520,0.024,0.204,0.416: // measure 1
0000
0000
0000
0000
,  // measure 2
0000
0000
0000
0000
,  // measure 3
0000
0000
0000
0000
,  // measure 4
0000
0000
0000
0000
,  // measure 5
0000
0000
0000
0000
,  // measure 6
0000
0000
0000
0000
,  // measure 7
0002
0000
0013
0100
2000
0000
3010
0000
,  // measure 8
2000
0000
3010
0100
0002
0000
0013
0000
,  // measure 9
0200
0000
0310
0001
2000
0000
3010
0000
,  // measure 10
1000
0100
1000
0001
1000
0000
0001
0000
1000
0100
1000
0001
2000
0000
0000
0000
,  // measure 11
3020
0000
0130
0000
0001
1000
0100
1000
,  // measure 12
0002
0000
0013
0000
0001
0100
0001
1000
,  // measure 13
0020
0000
0130
0000
0001
0010
0100
1000
,  // measure 14
0001
0100
0001
1000
0001
0000
0010
0000
0001
0100
0001
1000
0002
0000
0000
0000
,  // measure 15
1003
0000
0000
0100
0010
0000
0100
0000
0001
0000
0100
0000
1000
0000
0000
0000
,  // measure 16
0001
0000
0000
0100
0010
0000
0100
0000
1000
0000
0100
0000
0001
0000
0000
0000
,  // measure 17
1000
0000
0100
1000
0100
0000
0001
0000
0100
0000
0010
0000
0001
0000
1000
0000
,  // measure 18
0001
0100
0001
1000
0001
0000
1000
0010
2000
0000
0000
0000
0000
0000
0000
0000
,  // measure 19
3001
0000
0000
0100
0010
0000
0100
0000
0001
0000
0000
0010
0001
0000
1000
0000
,  // measure 20
0001
0010
0001
1000
0001
0000
0100
0000
0001
0010
0001
1000
0002
0000
0000
0000
,  // measure 21
1003
0000
0000
0100
0010
0000
0100
0000
1000
0000
0000
0010
1000
0000
0001
0000
,  // measure 22
1000
0010
1000
0001
1000
0000
0100
0000
1000
0010
1000
0001
2000
0000
0000
0000
,  // measure 23
3010
0000
0000
0100
0001
0000
0100
0000
0010
0000
0000
0100
1000
0000
0100
0000
,  // measure 24
0010
0000
0000
1000
0100
0000
0001
0000
0100
0000
1000
0001
0100
0000
0001
0000
,  // measure 25
0010
0000
0000
0100
1000
0000
0100
0000
0010
0000
0000
0100
0001
0000
0100
0000
,  // measure 26
1000
0000
0010
1000
0001
1000
0010
0000
0200
0000
0000
0000
0000
0000
0000
0000
,  // measure 27
0310
0000
0000
1000
0100
0000
1000
0000
0001
0000
0000
0010
0001
0000
1000
0000
,  // measure 28
0010
0000
0000
0100
0001
0000
0100
0010
0100
0000
0000
0010
1000
0000
0001
0000
,  // measure 29
2000
0000
0000
0000
3200
0000
0000
0000
0302
0000
0000
0023
0000
0000
1030
0000
,  // measure 30
0001
0010
0000
0001
0100
0000
0001
1000
0001
0100
0000
0001
1000
0000
0100
0000
,  // measure 31
0110
0000
0010
0010
0001
0100
1000
0000
,  // measure 32
0100
0000
0010
0010
1000
0100
0001
0000
,  // measure 33
0100
1000
0100
1000
0100
1000
0100
0000
1000
0001
1000
0001
1000
0001
1000
0000
,  // measure 34
0010
0100
0010
0100
0010
0100
0010
1000
0002
0000
0000
0000
0000
0000
0000
0000
,  // measure 35
1003
0000
0000
0000
0110
0000
0010
0000
0100
0001
0000
0100
0010
0000
1000
0000
,  // measure 36
0001
0010
0001
1000
0001
0000
0100
0000
0001
0010
0001
1000
0002
0000
0000
0000
,  // measure 37
1003
0000
0000
0100
0010
0000
0100
0000
0001
0000
0000
0100
1000
0000
0001
0000
,  // measure 38
1000
0010
1000
0001
1000
0000
0100
0000
1000
0010
1000
0001
2000
0000
0000
0000
,  // measure 39
3010
0000
0000
0100
1000
0000
0100
0000
0010
0000
0000
0100
0001
0000
0100
0000
,  // measure 40
0010
0000
0000
1000
0100
0000
0001
0000
0100
0000
1000
0001
0100
0000
0001
0000
,  // measure 41
0010
0000
0000
0100
0001
0000
0100
0000
0010
0000
0000
0100
1000
0000
0100
0000
,  // measure 42
0010
0000
0001
1000
0010
1000
0001
0000
0100
0010
0000
0010
0100
0000
0001
0000
,  // measure 43
1000
0000
0100
1000
0100
0000
1000
0000
0001
0000
0000
0100
0010
0000
0010
0000
,  // measure 44
1000
0100
1000
0001
1000
0000
0010
0100
0020
0000
0000
0000
1030
0000
0000
0000
,  // measure 45
0001
0000
0100
0001
0100
0000
0001
0000
1000
0000
0000
0100
0010
0000
0010
0000
,  // measure 46
0001
0100
0000
0001
1000
0000
0010
0000
1000
0100
0000
1000
0001
1000
0001
0000
,  // measure 47
1000
0000
0100
0001
0100
0000
1000
0100
1000
0001
1000
0000
0001
0000
0000
0000
,  // measure 48
0100
0000
0000
0010
0100
0000
0010
0000
1000
0000
0000
0001
0010
0000
0001
0000
,  // measure 49
0100
0000
0010
1000
0010
0000
1000
0000
0001
0000
0010
0001
0010
0000
0001
0000
,  // measure 50
1000
0000
0000
0100
0000
0000
0000
0000
0000
0100
0000
0000
0010
0000
0000
0000
0000
0000
0001
0000
0000
0000
0000
0000
0100
0000
0000
0010
0000
0000
0000
0000
0000
0010
0000
0000
1000
0000
0001
0000
1000
0000
0001
0000
0000
0000
0000
0000
,  // measure 51
2002
0000
0000
0000
,  // measure 52
3003
0000
0000
0000
;
