#VERSION:0.83;
#TITLE:HOT STUFF;
#SUBTITLE:;
#ARTIST:Sherry Savage;
#TITLETRANSLIT:;
#SUBTITLETRANSLIT:;
#ARTISTTRANSLIT:;
#GENRE:;
#CREDIT:;
#MUSIC:HOT STUFF.ogg;
#BANNER:;
#BACKGROUND:;
#CDTITLE:;
#SAMPLESTART:50.587;
#SAMPLELENGTH:16.348;
#SELECTABLE:YES;
#OFFSET:-0.506;
#BPMS:0.000=115.612;
#STOPS:;
#BGCHANGES:;
#FGCHANGES:;

//--------------- dance-single - ----------------
#NOTEDATA:;
#STEPSTYPE:dance-single;
#DESCRIPTION:;
#DIFFICULTY:Hard;
#METER:11;
#RADARVALUES:0,0,0,0,0;
#NOTES:
0000
0000
0000
0000
,
0000
0000
0000
0000
,
0000
0000
0000
0000
,
0000
0000
0000
0000
,
1001
1000
0001
0000
,
1000
0001
1001
0000
0110
0000
1000
0100
,
1000
0010
1000
0000
0000
0000
0010
0000
,
0000
1100
0110
0011
,
1001
0000
0000
0000
1000
0000
0001
0000
1000
0000
0100
0000
0001
0000
0000
0100
,
0000
0000
2000
0000
0000
0000
0000
0000
3010
0000
0100
0000
0001
0000
0000
0010
,
0000
0000
0002
0000
0000
0000
0103
0000
0001
0000
1000
0000
0010
0100
0000
0100
,
0000
0000
0010
0000
0110
0000
0000
1100
0000
0000
2002
0000
0000
0000
3003
0000
,
0110
0000
0000
0000
1000
0000
0010
0000
0100
0000
0010
0000
1000
0000
0000
0100
,
0000
0002
0000
0000
0103
1000
0010
0000
,
0101
0000
0011
0000
0001
0100
0010
0000
,
1000
0000
0010
0000
1000
0000
0000
0100
0000
0000
0010
0000
0100
0000
0000
0000
,
1100
0000
0000
0000
0010
0000
0000
0000
0100
0010
0000
0020
0000
0000
0000
0000
,
0000
0000
2030
0000
3002
0000
1003
0010
,
0100
0000
0001
0000
0010
0200
0000
0001
,
0000
0000
1300
0000
0001
0000
0100
0010
1000
0000
0001
0000
0010
0000
0001
0100
,
0000
0100
0010
0000
1000
0000
0100
2000
0000
0000
3010
0000
1000
0000
0001
0020
,
0000
0031
0100
0000
0101
0000
0001
1000
,
0100
0000
0010
0000
0001
0100
0010
0000
1000
0100
0010
0000
0001
0100
0010
0000
,
1000
0100
0010
0000
0001
0100
0000
0010
1000
0000
0001
0000
0120
0000
0000
0000
,
0130
1001
0110
1000
,
0001
0000
0000
0000
1000
0000
0100
0000
0010
0000
0001
1000
0000
0010
0100
0000
,
0110
0000
0000
0000
1000
0000
0010
0000
0100
0000
0010
2000
0000
0000
0000
0000
,
0100
3100
0010
0001
0101
0000
1100
0000
,
1000
0001
0011
0000
1010
0000
0100
0000
,
0001
0000
0100
0010
0001
0020
0000
1030
,
1010
0000
0000
0000
1000
0000
0100
0020
0000
0000
0130
0000
0010
0000
0000
0001
,
0000
0000
1000
0000
0001
0100
0001
0000
1000
0100
1000
0000
0010
0100
0001
0000
,
0011
1100
1001
1000
,
0001
0000
0000
0000
0100
0000
0010
0000
0100
0000
0010
1000
0000
0001
0100
0000
,
0110
0000
0000
0000
0010
0000
1000
0000
0100
0000
1000
0020
0000
0000
0000
0000
,
1030
0100
0001
0100
1000
0001
0011
0000
,
1000
0001
0101
0000
1001
0000
0010
0000
,
0001
0000
0000
0000
0100
0000
0010
0000
0001
0000
0020
0000
0000
0000
1030
0001
,
0000
0000
1000
0000
0001
0000
0000
0010
0000
0000
0001
0000
1000
0100
1000
0000
,
0010
0000
0100
0020
0000
0000
0000
0000
0000
0000
0000
0000
0030
0000
0000
0000
,
1001
1000
1100
0001
,
1000
0001
0100
0000
0010
0000
0110
0000
,
1000
0001
0010
0000
0001
0000
0101
0000
,
1000
0100
1000
0000
0010
0000
1100
0000
,
1000
0001
0010
0000
0011
0000
0101
0000
,
1100
0000
0000
0000
1010
0000
0000
0000
0110
0000
0000
0000
1000
0001
1000
0001
,
0000
0100
0010
0000
0010
0000
0000
0000
1000
0000
0100
0010
0000
0010
0000
0000
,
0100
1000
0010
0000
0100
0000
1001
0000
,
0001
0010
0200
0000
1000
0000
0301
0000
,
1001
0000
0000
0000
;

//--------------- dance-single - ----------------
#NOTEDATA:;
#STEPSTYPE:dance-single;
#DESCRIPTION:;
#DIFFICULTY:Challenge;
#METER:10;
#RADARVALUES:0,0,0,0,0;
#NOTES:
0000
0000
0000
0000
,
0000
0000
0000
0000
,
0000
0000
0000
0000
,
0000
0000
0000
0000
,
1001
1000
1000
MMMM
,
0001
0010
0001
0000
MMMM
0000
1000
0100
,
0010
0001
1000
0000
MMMM
0000
0010
0000
,
MMMM
1100
0110
0011
,
1001
0000
0000
0000
1000
0000
0001
0000
1000
0000
0010
0000
0200
0000
0000
0001
,
0000
0000
1300
0000
0000
MMMM
0000
0000
0001
0000
0100
0000
0020
0000
0000
1000
,
0000
0000
0031
0000
0000
0000
0100
0000
0001
0000
1000
0000
0010
0100
0000
0100
,
0000
0000
0010
0000
0110
0000
0000
1100
0000
0000
1001
0000
0000
MMMM
0000
0000
,
0110
0000
0000
0000
1000
0000
0100
0000
0001
0000
0100
0000
2000
0000
0000
0100
,
0000
0000
3100
0000
0000
MMMM
0000
0000
1000
0000
0010
0000
1000
0000
0000
0000
,
0011
0000
1010
0000
1000
0001
1000
0000
,
0100
0000
0010
0000
0100
0000
0000
0100
0000
0000
0100
0000
0000
MMMM
0000
0000
,
1100
0000
0000
0000
0001
0000
0000
0000
0100
0010
0000
1000
0000
0000
0000
0000
,
MMMM
0000
0100
0000
1000
0000
0001
0100
,
0010
0000
1000
0000
0200
0010
0000
1000
,
0000
0000
0301
0000
0100
0000
1000
0100
0010
0000
0001
0000
0010
0000
0000
0010
,
0000
0000
0010
0000
0001
0000
0000
1000
0000
0000
MMMM
0000
0020
0000
0000
0130
,
0000
MMMM
0001
0000
0101
0000
1000
0100
,
0001
0000
0010
0000
1000
0001
0010
0000
0001
0000
1000
0000
0001
0100
0010
0000
,
1000
0000
0100
0000
1000
0010
0000
0100
0001
0000
0100
0000
0110
0000
0000
0000
,
MMMM
1001
0110
MMMM
,
MMMM
0000
0000
0000
1000
0000
0100
0000
0010
0000
0001
1000
0000
0010
0100
0000
,
1001
0000
MMMM
0000
0010
0000
1000
0000
0010
0000
0100
0010
0000
0000
MMMM
0000
,
1000
0100
1000
0001
0100
0000
0110
0000
,
1000
0001
0010
0000
0110
0000
MMMM
0000
,
MMMM
0000
1000
0010
0100
0020
0000
0130
,
0000
MMMM
0000
0000
0001
0000
0000
0010
0000
0000
0010
0000
0001
0000
0000
0100
,
0000
0000
0100
0000
0001
1000
0001
0000
0010
0000
1000
0000
0010
0000
0001
0000
,
0011
0110
1001
MMMM
,
MMMM
0000
0000
0000
0100
0000
0010
0000
0100
0000
0001
0010
0000
0100
1000
0000
,
1010
0000
MMMM
0000
0010
0000
0100
0000
0010
0000
1000
0001
0000
0000
MMMM
0000
,
0010
0001
1000
0100
1000
0001
0101
MMMM
,
1000
0001
1100
0000
0011
0000
MMMM
0000
,
MMMM
0000
1000
0001
0100
0010
0000
MMMM
,
0000
0000
0100
0000
0010
0000
0000
1000
0000
0000
0100
0000
1000
0010
0100
0000
,
0001
0000
1000
0200
0000
0000
0000
0000
0000
0000
0000
0000
0300
0000
MMMM
0000
,
1010
1000
1100
MMMM
,
1000
0001
0100
0000
0010
0000
MMMM
0000
,
1000
0001
0010
0000
0001
0000
MMMM
0000
,
1000
0001
1000
0000
0010
0000
MMMM
0000
,
1000
0100
0010
MMMM
0110
MMMM
0011
MMMM
,
1010
MMMM
0101
MMMM
1100
MMMM
0001
1000
,
0001
0000
0100
0000
0010
0000
0000
0000
1000
0000
0100
0010
0000
0010
0000
0000
,
0100
1000
0001
0000
1000
0000
0100
MMMM
,
0110
0000
1000
MMMM
0001
MMMM
1000
0000
,
1001
0000
0000
0000
;
