#TITLE:Gunz In My House;
#SUBTITLE:;
#ARTIST:KURA;
#TITLETRANSLIT:;
#SUBTITLETRANSLIT:;
#ARTISTTRANSLIT:;
#GENRE:;
#CREDIT:;
#BANNER:Gunz In My House.png;
#BACKGROUND:Gunz In My House-bg.png;
#LYRICSPATH:;
#CDTITLE:cdtitle.png;
#MUSIC:Gunz In My House.ogg;
#OFFSET:-0.098000;
#SAMPLESTART:24.466999;
#SAMPLELENGTH:15.000000;
#SELECTABLE:YES;
#BPMS:0.000000=128.000000
;
#STOPS:
;
#BGCHANGES:0.000=Gunz In My House.avi=1.000=0=0=0=StretchNoLoop====,
99999=-nosongbg-=1.000=0=0=0 // don't automatically add -songbackground-
;
#KEYSOUNDS:;
#ATTACKS:;

//---------------dance-single - ----------------
#NOTES:
     dance-single:
     9646_ESP:
     Hard:
     12:
     0.513499,0.587939,0.361809,0.267424,0.440463,457.000000,411.000000,46.000000,34.000000,0.000000,0.000000,0.513499,0.587939,0.361809,0.267424,0.440463,457.000000,411.000000,46.000000,34.000000,0.000000,0.000000:
0000
0000
0000
0000
,
0000
0000
0000
0000
,
0000
0000
0000
0000
,
0000
0000
0000
0000
,
0000
0000
0000
0000
,
1000
1000
0100
0100
,
0001
0001
0010
0010
,
1000
1000
0010
0010
,
0001
0001
0100
0100
,
0110
0001
1000
0100
0001
0100
1000
0010
,
0100
1000
0100
0010
0001
0010
1000
0001
,
0010
0100
0010
0000
0001
0100
0001
0000
1000
0010
1000
0010
0100
0001
0010
0100
,
0010
0000
0000
0000
0000
0000
0010
0100
,
1001
0000
0000
0001
0010
0100
1000
0100
0010
0001
0000
0000
,
0101
0000
0000
0000
0000
0000
0100
0000
0010
0000
1000
0000
0010
0000
0100
0000
0001
0000
1000
0000
0000
0100
0000
0000
,
0110
0000
0000
0001
0010
0100
0010
0100
1000
0001
0000
0000
,
0101
0000
0000
0000
0000
0000
0010
0000
1000
0000
0001
0000
0010
0000
0100
0000
0010
0000
0001
0000
0000
0010
0000
0000
,
1100
0000
0000
0001
0100
0010
0100
0001
1000
0100
0000
0000
,
0110
0000
0000
0000
0000
0000
0001
0000
1000
0000
0100
0000
0010
0000
0001
0000
0100
0000
0010
0000
0000
1000
0000
0000
,
1001
0000
0000
1000
0100
0010
0001
0010
0100
1000
0000
0000
,
1100
0000
0101
0000
1001
0000
0100
0100
,
0110
0000
0000
0000
0000
1000
0010
0000
0000
0010
0000
0000
0100
0000
0000
0010
0000
0000
0001
0000
0000
0010
0000
0000
,
1000
0000
0000
0000
0000
0001
0010
0000
0000
0010
0000
0000
0100
0000
0000
0010
0000
0000
1000
0000
0000
0010
0000
0000
,
0011
0000
0000
1000
0100
0010
0001
0100
0010
1000
0000
0000
,
0011
0000
0000
0000
0000
0000
0010
0000
0100
0000
1000
0000
0001
0000
0010
0000
0100
0000
1000
0000
0000
0001
0000
0000
,
0110
0000
0000
0001
1000
0100
1000
0001
0010
0001
0000
0000
,
1100
0000
0000
0000
0000
0000
0001
0000
0100
0000
0001
0000
0100
0000
0010
0000
1000
0000
0001
0000
0000
1000
0000
0000
,
1100
0000
0000
0100
0010
0001
0010
0100
1000
0001
0000
0000
,
0101
0000
0011
0000
1100
1000
0010
0100
,
0002
0103
0200
1300
,
2000
3001
0002
0013
,
0020
1030
2000
3100
,
0001
0100
2000
3001
,
0020
0000
0130
0000
0010
0001
0100
0002
,
2003
3200
1300
0020
0230
2300
3100
0001
,
2000
0000
3100
0000
0020
2030
3020
0031
,
0010
0100
0200
0310
,
2002
3003
0002
0003
,
0002
0003
0002
0003
,
2000
3000
0020
0030
,
0200
0300
0002
0003
,
1000
0100
0001
0100
1000
0001
0100
1000
,
0100
0001
1000
0100
0001
0100
1000
0001
,
0010
0100
0010
0000
0100
1000
0001
0000
0100
0001
0100
0010
1000
0100
1000
0100
,
0010
0000
0000
0000
0000
0000
0010
0100
,
1001
0000
0000
0001
0010
0100
1000
0100
0010
0001
0000
0000
,
1100
0000
0000
0001
0000
0000
0100
0000
0010
0000
1000
0000
0010
0000
0100
0000
0001
0000
0010
0000
0000
0100
0000
0000
,
0011
0000
0000
1000
0100
0010
0100
1000
0001
0100
0000
0000
,
0110
0000
0000
0100
0000
0000
0001
0000
0010
0000
0100
0000
1000
0000
0001
0000
0010
0000
0100
0000
0000
0100
0000
0000
,
1001
0000
0000
0000
0000
0000
0001
0000
0010
0000
0100
0000
0010
0000
0001
0000
0100
0000
0010
0000
0000
1000
0000
0000
,
0100
0000
0000
0100
0000
0000
1000
0000
0001
0000
0010
0000
0100
0000
1000
0000
0010
0000
0100
0000
0000
0001
0000
0000
,
1001
0000
0000
1000
0100
0010
0001
0010
0100
1000
0000
0000
,
1100
0000
0101
0000
1001
0000
0100
0100
,
0110
0000
0000
0000
0000
1000
0010
0000
0000
0010
0000
0000
0100
0000
0000
0010
0000
0000
0001
0000
0000
0010
0000
0000
,
1000
0000
0000
0000
0000
0001
0010
0000
0000
0010
0000
0000
0100
0000
0000
0010
0000
0000
1000
0000
0000
0010
0000
0000
,
0011
0000
0000
1000
0100
0010
0001
0100
0010
1000
0000
0000
,
0011
0000
0000
0000
0000
0000
0010
0000
0100
0000
1000
0000
0001
0000
0010
0000
0100
0000
1000
0000
0000
0001
0000
0000
,
0110
0000
0000
0001
1000
0100
1000
0001
0010
0001
0000
0000
,
1100
0000
0000
0000
0000
0000
0001
0000
0100
0000
0001
0000
0100
0000
0010
0000
1000
0000
0001
0000
0000
1000
0000
0000
,
1100
0000
0000
0100
0010
0001
0010
0100
1000
0001
0000
0000
,
0101
0000
0011
0000
1100
1000
0010
0100
,
0101
0001
0020
0000
0230
0000
0310
0000
,
1100
1000
0020
0000
0230
0000
0310
1000
,
1001
2000
3002
1003
,
1100
0000
0101
0000
1001
0000
0100
0100
,
0110
0000
0000
0000
;

//---------------dance-single - ----------------
#NOTES:
     dance-single:
     9646_CSP:
     Challenge:
     14:
     0.653952,0.715752,0.346078,0.157308,0.825868,582.000000,538.000000,44.000000,20.000000,16.000000,0.000000,0.653952,0.715752,0.346078,0.157308,0.825868,582.000000,538.000000,44.000000,20.000000,16.000000,0.000000:
0000
0000
0000
0000
,
0000
0000
0000
0000
,
0000
0000
0000
0000
,
0000
0000
0000
0000
,
0000
0000
0000
0000
,
0120
1000
0001
0001
,
1000
0100
1000
0001
,
0230
1000
0001
0001
,
1000
0010
1000
0301
,
0110
0000
1000
0100
1000
0000
1000
0000
0001
0100
0001
0000
0010
0000
0100
0000
,
1001
0000
1000
0100
0001
0000
0100
0000
0100
1000
0001
0000
0100
0000
0010
0000
,
0100
1000
0100
0010
1000
0100
0001
0100
1000
0001
0010
0100
0010
0001
0100
0010
,
2000
0000
0000
0000
3000
0000
MMMM
MMMM
,
0110
0000
0000
0000
0000
0000
0001
0000
0010
0000
0100
0000
1000
0000
0100
0000
0010
0000
0001
0000
0000
0100
0000
0000
,
0010
0000
0000
1000
0000
0000
0010
0000
0000
0100
0000
0000
0001
0000
0000
0000
0010
0000
0000
0000
0100
0000
0000
0000
1000
0000
0000
0000
0100
0000
0000
0000
0010
0000
0000
0000
0001
0000
0000
0100
0000
0000
0010
0000
0000
1000
0000
0000
,
1001
0000
0000
0000
0000
0000
1000
0000
0100
0000
0010
0000
0001
0000
0010
0000
0100
0000
1000
0000
0000
1000
0000
0000
,
0001
0000
0000
0010
0000
0000
0100
0000
0000
1000
0000
0000
0100
0000
0000
0000
0001
0000
0000
0000
0100
0000
0000
0000
0010
0000
0000
0000
0001
0000
0000
0000
0010
0000
0000
0000
0100
0000
0000
1000
0000
0000
0001
0000
0000
0100
0000
0000
,
0110
0000
0000
0000
0000
0000
1000
0000
0100
0000
0100
0000
1000
0000
0010
0000
0010
0000
0100
0000
0000
1000
0000
0000
,
0100
0000
0000
0001
0000
0000
0010
0000
0000
0100
0000
0000
1000
0000
0000
0000
0010
0000
0000
0000
0010
0000
0000
0000
1000
0000
0000
0000
0100
0000
0000
0000
0100
0000
0000
0000
0010
0000
0000
1000
0000
0000
0010
0000
0000
0001
0000
0000
,
0011
0000
0000
0000
0000
0000
1000
0000
0010
0000
0010
0000
0001
0000
0100
0000
0100
0000
1000
0000
0000
0001
0000
0000
,
0101
0000
0000
0000
1100
0000
0000
0000
0110
0000
0000
0000
0001
1000
0010
0100
,
0110
0000
0000
0000
0000
0000
0001
0000
0000
1000
0100
0010
0001
0000
0000
0000
0000
0000
1000
0000
0000
0000
0000
0000
0010
0000
0000
0000
0000
0000
0010
0000
0000
0000
0000
0000
0100
0000
0000
0000
0001
0000
0000
0000
0010
0000
0000
0000
,
0100
0000
0000
0000
0000
0000
0010
0000
0000
0001
0010
0100
1000
0000
0000
0000
0000
0000
0100
0000
0000
0000
0000
0000
0010
0000
0000
0000
0000
0000
0010
0000
0000
0000
0000
0000
0100
0000
0000
0000
1000
0000
0000
0000
0010
0000
0000
0000
,
0110
0000
0000
0000
0000
0000
1000
0000
0010
0000
0001
0000
1000
0000
0100
0000
0001
0000
1000
0000
0000
0100
0000
0000
,
0010
0000
0000
0100
0000
0000
1000
0000
0000
0001
0000
0000
0010
0000
0000
0000
1000
0000
0000
0000
0001
0000
0000
0000
0101
0000
0000
0000
0100
0000
0000
0000
1000
0000
0000
0000
1001
0000
0000
0001
0000
0000
1000
0000
0000
0010
0000
0000
,
0110
0000
0000
0000
0000
0000
0100
0000
0001
0000
0001
0000
1000
0000
0100
0000
0100
0000
0001
0000
0000
0100
0000
0000
,
1000
0000
0000
0001
0000
0000
0010
0000
0000
0001
0000
0000
1000
0000
0000
0000
0010
0000
0000
0000
0010
0000
0000
0000
0001
0000
0000
0000
0010
0000
0000
0000
0010
0000
0000
0000
1000
0000
0000
0001
0000
0000
1000
0000
0000
0100
0000
0000
,
0110
0000
0000
0000
0000
0000
0001
0000
0010
0000
0010
0000
1000
0000
0100
0000
0100
0000
0001
0000
0000
1000
0000
0000
,
1100
0000
0000
0000
0000
0000
0000
0000
0011
0000
0000
0000
0000
0000
0000
0000
0110
0000
0000
0000
0001
0100
0001
0000
1000
0000
0001
0000
0100
0000
0010
0000
,
2000
3100
0200
0301
,
0002
0013
0020
1030
,
2000
3010
0020
0031
,
0001
0100
0200
1300
,
2000
0000
0000
0000
3010
0000
0100
0001
0100
0000
0001
0000
0010
0000
0100
0000
,
1000
0000
1000
0000
0001
0000
0100
0001
0100
0000
0010
0000
1000
0000
0100
0000
,
0020
0000
0000
0000
0130
0000
1000
0010
1000
0000
0010
0000
0100
0000
0001
0000
,
0010
0000
0010
0000
0100
0000
1000
0010
1000
0000
0100
0000
0010
0000
0100
0000
,
2100
0000
0000
3010
0100
1000
0100
0010
0100
0001
0000
0000
,
0200
0000
0000
0310
1000
0010
0100
0001
0010
0100
0000
0000
,
2000
0000
0000
3100
0010
1000
0010
0100
0010
0001
0000
0000
,
0020
0000
0000
0130
1000
0010
0100
0001
0100
0010
0000
0000
,
1000
0001
0100
0001
1000
0100
0001
0100
,
1000
0001
0010
0001
1000
0010
0001
0010
,
1000
0010
1000
0000
0001
0010
0001
0000
1000
0100
0010
0001
0010
0100
1000
0001
,
0200
0000
0000
0000
0300
0000
MMMM
MMMM
,
1001
0000
0000
0010
1000
0100
0010
0001
0100
0001
0000
0000
,
0010
0000
0000
0100
0000
0000
0010
0000
0000
0100
0000
0000
1000
0000
0000
0000
0001
0000
0000
0000
0010
0000
0000
0000
0001
0000
0000
0000
1000
0000
0000
0000
0010
0000
0000
0000
0100
0000
0000
0001
0000
0000
0100
0000
0000
0001
0000
0000
,
1001
0000
0000
0001
0010
1000
0001
0100
1000
0001
0000
0000
,
1000
0000
0000
0001
0000
0000
0100
0000
0000
0010
0000
0000
1000
0000
0000
0000
0010
0000
0000
0000
0001
0000
0000
0000
1000
0000
0000
0000
0100
0000
0000
0000
0001
0000
0000
0000
0100
0000
0000
0010
0000
0000
1000
0000
0000
0100
0000
0000
,
0110
0000
0000
0000
0000
0000
1000
0000
0100
0000
0100
0000
1000
0000
0010
0000
0010
0000
0100
0000
0000
1000
0000
0000
,
0100
0000
0000
0001
0000
0000
0010
0000
0000
0100
0000
0000
1000
0000
0000
0000
0010
0000
0000
0000
0010
0000
0000
0000
1000
0000
0000
0000
0100
0000
0000
0000
0100
0000
0000
0000
0010
0000
0000
1000
0000
0000
0010
0000
0000
0001
0000
0000
,
0011
0000
0000
0100
0000
0000
1000
0000
0010
0000
0010
0000
0001
0000
0100
0000
0100
0000
1000
0000
0000
0001
0000
0000
,
0101
0000
0000
0000
1100
0000
0000
0000
0110
0000
0000
0000
0001
1000
0010
0100
,
0110
0000
0000
0000
0000
0000
0001
0000
0000
1000
0100
0010
0001
0000
0000
0000
0000
0000
1000
0000
0000
0000
0000
0000
0010
0000
0000
0000
0000
0000
0010
0000
0000
0000
0000
0000
0100
0000
0000
0000
0001
0000
0000
0000
0010
0000
0000
0000
,
0100
0000
0000
0000
0000
0000
0010
0000
0000
0001
0010
0100
1000
0000
0000
0000
0000
0000
0100
0000
0000
0000
0000
0000
0010
0000
0000
0000
0000
0000
0010
0000
0000
0000
0000
0000
0100
0000
0000
0000
1000
0000
0000
0000
0010
0000
0000
0000
,
0110
0000
0000
0000
0000
0000
1000
0000
0010
0000
0001
0000
1000
0000
0100
0000
0001
0000
1000
0000
0000
0100
0000
0000
,
0010
0000
0000
0100
0000
0000
1000
0000
0000
0001
0000
0000
0010
0000
0000
0000
1000
0000
0000
0000
0001
0000
0000
0000
0101
0000
0000
0000
0100
0000
0000
0000
1000
0000
0000
0000
1001
0000
0000
0001
0000
0000
1000
0000
0000
0010
0000
0000
,
0110
0000
0000
0000
0000
0000
0100
0000
0001
0000
0001
0000
1000
0000
0100
0000
0100
0000
0001
0000
0000
0100
0000
0000
,
1000
0000
0000
0001
0000
0000
0010
0000
0000
0001
0000
0000
1000
0000
0000
0000
0010
0000
0000
0000
0010
0000
0000
0000
0001
0000
0000
0000
0010
0000
0000
0000
0010
0000
0000
0000
1000
0000
0000
0001
0000
0000
1000
0000
0000
0100
0000
0000
,
0110
0000
0000
0000
0000
0000
0001
0000
0010
0000
0010
0000
1000
0000
0100
0000
0100
0000
0001
0000
0000
1000
0000
0000
,
1100
0000
0000
0000
0000
0000
0000
0000
0011
0000
0000
0000
0000
0000
0000
0000
0110
0000
0000
0000
0001
0100
0001
0000
1000
0000
0001
0000
0100
0000
0010
0000
,
1000
0100
0201
0000
1000
0000
0310
0000
,
1000
0000
0010
0000
0021
0000
0000
0000
1000
0000
0000
0000
0031
0010
0100
1000
,
1100
0201
1000
0310
,
1001
0000
0000
0000
0101
0000
0000
0000
1100
0000
0000
0000
0010
0100
0010
0100
,
0011
0000
0000
0000
;

//---------------dance-single - ----------------
#NOTES:
     dance-single:
     9646_DSP:
     Medium:
     9:
     0.429226,0.460126,0.377540,0.220231,0.000000,382.000000,334.000000,48.000000,28.000000,0.000000,0.000000,0.429226,0.460126,0.377540,0.220231,0.000000,382.000000,334.000000,48.000000,28.000000,0.000000,0.000000:
0000
0000
0000
0000
,
0000
0000
0000
0000
,
0000
0000
0000
0000
,
0000
0000
0000
0000
,
0000
0000
0000
0000
,
0002
0010
0100
0100
,
0010
0100
0010
1003
,
2000
0100
0010
0010
,
0100
0001
0100
3010
,
0101
0100
0010
0000
0100
0001
0010
0000
,
0100
1000
0010
0000
0100
0010
1000
0000
,
1000
0100
0010
0001
0100
0010
1000
0100
,
0020
0000
0030
0100
,
1001
0000
0001
0010
0100
1000
0100
0000
,
0101
0000
1000
0010
0100
0001
0010
0010
,
0110
0000
0001
1000
0010
0100
0001
0000
,
1100
0000
1000
0001
0010
1000
0010
0010
,
1001
0000
0001
0100
0010
0100
0001
0000
,
1001
0000
1000
0100
0010
0100
1000
1000
,
1001
0000
0001
0010
1000
0010
0001
0000
,
1100
0000
0101
0000
1001
0000
0100
0100
,
0110
0000
0001
1000
0010
0010
0001
0010
,
1000
0000
0001
1000
0100
0100
0001
0100
,
1100
0000
0001
0010
0100
1000
0100
0000
,
0101
0000
1000
0100
0010
0010
0100
0100
,
1001
0000
0001
0010
0100
1000
0010
0000
,
0011
0000
0100
1000
0001
0100
0010
0010
,
1010
0000
1000
0100
0001
0100
1000
0000
,
0011
0000
0101
0000
1001
0001
0010
0100
,
2000
3001
0002
0103
,
0200
0310
0020
1030
,
2000
3100
0200
0310
,
0010
0001
0002
1003
,
2000
0000
3100
0000
1000
0010
1000
0000
,
0100
0000
0100
0000
0010
0001
1000
0000
,
0002
0000
0103
0000
0001
0010
0001
0000
,
1000
0100
0002
0103
,
2100
3001
0002
0103
,
2000
3100
0002
0013
,
2000
3100
2000
3010
,
0002
1003
2000
3010
,
0101
0100
0010
0000
0100
0001
0010
0000
,
0100
1000
0010
0000
0100
0010
1000
0000
,
1000
0100
0010
0001
0100
0010
1000
0100
,
0020
0000
0030
0100
,
1001
0000
1000
0001
0010
0100
0010
0000
,
1100
0000
0001
0010
1000
0010
0001
0100
,
0110
0000
0001
1000
0010
0100
0010
0000
,
0101
0000
1000
0100
0001
0100
1000
1000
,
0110
0000
0001
0100
0010
0100
0001
0000
,
1001
0000
1000
0100
0010
0100
1000
1000
,
1001
0000
0001
0010
1000
0010
0001
0000
,
1100
0000
0101
0000
1001
0000
0100
0100
,
0110
0000
0001
1000
0010
0010
0001
0010
,
1000
0000
0001
1000
0100
0100
0001
0100
,
1100
0000
0001
0010
0100
1000
0100
0000
,
0101
0000
1000
0100
0010
0010
0100
0100
,
1001
0000
0001
0010
0100
1000
0010
0000
,
0011
0000
0100
1000
0001
0100
0010
0010
,
1010
0000
1000
0100
0001
0100
1000
0000
,
0011
0000
0101
0000
1001
0001
0010
0100
,
0110
0002
0203
0310
,
0110
0000
2000
0000
3200
0000
0310
0001
,
1001
0020
2030
3001
,
0011
0000
0101
0000
1010
0000
1000
0100
,
1001
0000
0000
0000
;

//---------------dance-single - ----------------
#NOTES:
     dance-single:
     9646_BSP:
     Easy:
     6:
     0.298885,0.357876,0.401136,0.267424,0.000000,266.000000,215.000000,51.000000,34.000000,0.000000,0.000000,0.298885,0.357876,0.401136,0.267424,0.000000,266.000000,215.000000,51.000000,34.000000,0.000000,0.000000:
// measure 0
0000
0000
0000
0000
,  // measure 1
0000
0000
0000
0000
,  // measure 2
0000
0000
0000
0000
,  // measure 3
0000
0000
0000
0000
,  // measure 4
0000
0000
0000
0000
,  // measure 5
0001
0001
0010
0001
,  // measure 6
2000
3100
2000
3010
,  // measure 7
0100
0100
0001
0010
,  // measure 8
0100
0100
1000
0001
,  // measure 9
0220
0330
2002
3003
,  // measure 10
0220
0330
2002
3003
,  // measure 11
0110
0100
1000
0001
,  // measure 12
0020
0000
0030
0010
,  // measure 13
0110
0001
0100
0001
,  // measure 14
1100
0001
0010
0100
,  // measure 15
1001
0010
0100
0010
,  // measure 16
0101
0010
0100
0100
,  // measure 17
1010
0100
0010
0001
,  // measure 18
0101
0100
0010
0010
,  // measure 19
1001
0010
0100
1000
,  // measure 20
1100
0100
0101
0010
,  // measure 21
1001
0010
0100
0100
,  // measure 22
1000
0100
0010
0010
,  // measure 23
1001
0010
0100
0001
,  // measure 24
0001
0010
0110
0110
,  // measure 25
1001
0001
0010
0001
,  // measure 26
1100
0001
0010
0100
,  // measure 27
1001
0100
0010
0010
,  // measure 28
0101
0101
1100
0001
,  // measure 29
0020
0030
0200
0300
,  // measure 30
2000
3000
0002
0003
,  // measure 31
0200
0300
0020
0030
,  // measure 32
0010
0100
0001
1000
,  // measure 33
0200
0300
0010
0001
,  // measure 34
2000
3100
2000
3010
,  // measure 35
0200
0300
0001
0001
,  // measure 36
0010
0100
1000
0001
,  // measure 37
0220
0300
0002
0003
,  // measure 38
2000
3000
0002
0003
,  // measure 39
0230
0000
0002
0003
,  // measure 40
2000
3000
0020
0330
,  // measure 41
1000
0100
0001
0010
,  // measure 42
1000
0100
0001
0010
,  // measure 43
1000
0100
0001
0100
,  // measure 44
0020
0000
0030
0010
,  // measure 45
0110
1000
0010
0000
,  // measure 46
0110
0001
0010
0010
,  // measure 47
1100
0010
0100
0000
,  // measure 48
0101
0010
0100
0100
,  // measure 49
1010
0100
0010
0001
,  // measure 50
0101
0100
0010
0010
,  // measure 51
1001
0010
0100
1000
,  // measure 52
1100
0100
0101
0010
,  // measure 53
1001
0010
0100
0100
,  // measure 54
1000
0100
0010
0010
,  // measure 55
1001
0010
0100
0001
,  // measure 56
0001
0010
0110
0110
,  // measure 57
1001
0001
0010
0001
,  // measure 58
1100
0001
0010
0100
,  // measure 59
1001
0100
0010
0010
,  // measure 60
0101
0101
1100
0001
,  // measure 61
0110
0002
0100
0103
,  // measure 62
1001
2000
0100
3100
,  // measure 63
0110
0002
1000
1003
,  // measure 64
0110
1001
0110
0100
,  // measure 65
1001
0000
0000
0000
;

//---------------dance-single - ----------------
#NOTES:
     dance-single:
     9646_BEG:
     Beginner:
     4:
     0.164050,0.230063,0.165174,0.086519,0.000000,146.000000,125.000000,21.000000,11.000000,0.000000,0.000000,0.164050,0.230063,0.165174,0.086519,0.000000,146.000000,125.000000,21.000000,11.000000,0.000000,0.000000:
0000
0000
0000
0000
,
0000
0000
0000
0000
,
0000
0000
0000
0000
,
0000
0000
0000
0000
,
0000
0000
0000
0000
,
0002
0000
0003
0000
,
0020
0000
0030
0000
,
0200
0000
0300
0000
,
2000
0000
3000
0000
,
1001
0000
0100
0000
,
1001
0000
0100
0000
,
0010
0010
0010
0010
,
0010
0000
0000
0000
,
1001
0000
0100
0000
,
0001
0001
0001
0000
,
0110
0000
1000
0000
,
0010
0010
0010
0100
,
0110
0000
0001
0000
,
0010
0000
1000
1000
,
1001
0000
0001
0000
,
0100
0100
0100
0000
,
0110
0000
0001
0000
,
1000
0000
0001
0000
,
0110
0000
0001
0000
,
0100
0000
1000
1000
,
1001
0000
0001
0000
,
0010
0000
0100
0100
,
0110
0000
0001
0000
,
0010
0010
0010
0000
,
0200
0000
0300
0000
,
0200
0000
0300
0000
,
0020
0000
0030
0000
,
0010
0000
0010
0000
,
0001
0000
0001
0000
,
1000
0000
0100
0000
,
1000
0000
1000
0000
,
0001
0000
0100
0000
,
0020
0000
0000
0000
,
0000
0000
0000
0000
,
0000
0000
0000
0000
,
0000
0000
0000
0030
,
0010
0000
1000
0000
,
0100
0000
0001
0000
,
0010
0010
0010
0010
,
0010
0000
0000
0000
,
1001
0000
0010
0000
,
1000
1000
1000
0000
,
0110
0000
0001
0000
,
0100
0000
0010
0010
,
0110
0000
1000
0000
,
0100
0000
0001
0001
,
1001
0000
1000
0000
,
0010
0010
0010
0000
,
0110
0000
1000
0000
,
0001
0000
1000
0000
,
0110
0000
1000
0000
,
0010
0000
0001
0001
,
1001
0000
1000
0000
,
0100
0000
0010
0010
,
0110
0000
1000
0000
,
0100
0100
0100
0000
,
0110
0000
0002
0003
,
1000
0000
0002
0003
,
1001
0000
0002
0003
,
0010
0010
0010
0000
,
0110
0000
0000
0000
;
