#TITLE:Greenhorn;
#SUBTITLE:;
#ARTIST:Lexy;
#TITLETRANSLIT:;
#SUBTITLETRANSLIT:;
#ARTISTTRANSLIT:;
#GENRE:;
#CREDIT:;
#BANNER:Greenhorn.png;
#BACKGROUND:Greenhorn-bg.png;
#LYRICSPATH:;
#CDTITLE:cdtitle.png;
#MUSIC:Greenhorn.ogg;
#OFFSET:2.100000;
#SAMPLESTART:30.927000;
#SAMPLELENGTH:15.000000;
#LASTBEATHINT:1.998333;
#SELECTABLE:YES;
#BPMS:0.000000=109.000000
;
#STOPS:48.000000=1.651000,
101.000000=1.651000,
114.000000=1.651000
;
#BGCHANGES:3.875=Greenhorn.avi=1.000=0=0=0=StretchNoLoop====,
99999=-nosongbg-=1.000=0=0=0 // don't automatically add -songbackground-
;
#KEYSOUNDS:;
#ATTACKS:;

//---------------dance-single - ----------------
#NOTES:
     dance-single:
     9646_CSP:
     Challenge:
     9:
     0.374000,0.387647,0.587126,0.000000,0.000000,272.000000,211.000000,61.000000,0.000000,68.000000,0.000000,0.374000,0.387647,0.587126,0.000000,0.000000,272.000000,211.000000,61.000000,0.000000,68.000000,0.000000:
// measure 0
0000
0000
0000
0000
,  // measure 1
0000
0000
0000
0000
,  // measure 2
0000
0000
0000
0000
,  // measure 3
0000
0000
0000
0000
,  // measure 4
0000
0000
0000
MMMM
,  // measure 5
0110
0000
1001
0000
1000
0001
0100
0001
,  // measure 6
0010
0010
0010
MMMM
,  // measure 7
0110
0000
1001
0000
0001
1000
0100
1000
,  // measure 8
0010
0010
0010
MMMM
,  // measure 9
0001
0100
0010
0100
0001
0000
1100
0000
,  // measure 10
0001
0010
1000
0010
0001
0000
0110
0000
,  // measure 11
1000
0100
0001
0000
0100
1000
0010
0000
,  // measure 12
MMMM
1000
0100
0001
,  // measure 13
MMMM
0010
MMMM
0100
,  // measure 14
MMMM
0000
0110
0000
1001
0000
0100
0001
,  // measure 15
0100
1000
1100
0000
0101
0000
0010
1000
,  // measure 16
0010
0001
0011
0000
1010
0000
0010
1000
,  // measure 17
0100
1000
0101
0000
0110
0000
1000
0100
,  // measure 18
0001
0100
1100
0000
1010
0000
0011
0000
,  // measure 19
0100
0010
0010
0000
MMMM
0000
0100
0100
,  // measure 20
0001
1000
1100
0000
MMMM
0001
0101
0000
,  // measure 21
MMMM
1000
1100
0001
0101
0010
0110
0000
,  // measure 22
MMMM
0000
1010
0000
0010
1000
0100
0100
,  // measure 23
0001
0100
0011
0000
0010
0001
0100
0100
,  // measure 24
1000
0100
1010
0000
0001
1000
0010
0010
,  // measure 25
0100
0010
1001
0000
0101
0000
1000
0000
,  // measure 26
0100
0001
0100
0000
1000
0010
0010
0000
,  // measure 27
0001
0010
1000
0000
0001
0010
0010
0000
,  // measure 28
1000
0010
0001
0000
1100
0000
1001
0000
,  // measure 29
0101
0000
0001
1000
0100
1000
0101
0000
,  // measure 30
1001
0000
0100
1000
0010
1000
1100
0000
,  // measure 31
0101
0000
1000
0100
0001
0010
1010
0000
,  // measure 32
0011
0000
0100
1000
0001
0100
1001
0000
,  // measure 33
1100
0000
0011
0000
0100
0001
0001
0000
,  // measure 34
MMMM
0000
1000
1000
0010
0001
0011
0000
,  // measure 35
MMMM
1000
1100
0000
MMMM
0001
0101
1000
,  // measure 36
1100
0010
0110
0000
MMMM
0000
0110
0000
,  // measure 37
1001
0000
0010
0001
0010
1000
1010
0000
,  // measure 38
0011
0000
0100
1000
0100
0001
0101
0000
,  // measure 39
1100
0000
0100
1000
0010
1000
0011
0000
,  // measure 40
0110
0000
1000
0010
0001
0010
1010
0000
,  // measure 41
1100
0000
0101
0000
0010
0100
0100
0000
,  // measure 42
MMMM
0000
0010
0001
0100
0010
1010
0000
,  // measure 43
0000
0010
0011
0000
0000
0100
1001
0010
,  // measure 44
0110
0100
1001
0000
MMMM
0000
0110
0000
;

//---------------dance-single - ----------------
#NOTES:
     dance-single:
     9646_ESP:
     Hard:
     12:
     0.493625,0.559935,0.587126,0.000000,0.154000,359.000000,298.000000,61.000000,0.000000,0.000000,0.000000,0.493625,0.559935,0.587126,0.000000,0.154000,359.000000,298.000000,61.000000,0.000000,0.000000,0.000000:
0000
0000
0000
0000
,
0000
0000
0000
0000
,
0000
0000
0000
0000
,
0000
0000
0000
0000
,
0000
0000
0000
0000
,
1100
0000
0001
0100
0001
0000
1000
0000
0100
0000
0001
0000
0100
0000
1000
0000
,
0001
0010
0010
1000
0010
0000
1001
0000
,
0101
0000
1000
0100
1000
0000
0001
0000
0100
0000
1000
0000
0100
0000
0001
0000
,
1000
0010
0010
0001
0010
0000
1001
0100
,
1000
1000
0010
0100
0010
0000
0101
0000
,
0001
0001
0010
0100
0010
0001
1100
0000
,
0001
0000
1000
0100
1000
0000
0010
0000
0100
0000
0001
0000
0010
0000
0100
0000
,
0110
1001
0100
1000
,
0001
0010
1000
0100
,
0110
0000
0000
0000
1001
0000
0000
0100
0001
0000
0001
0000
0100
0000
1000
0000
,
0001
0000
1000
0000
1100
0000
0000
0001
0100
0000
0100
0000
0010
0000
0001
0000
,
0010
0000
1000
0000
1001
0000
0000
0010
0100
0000
0100
0000
1000
0000
0001
0000
,
0010
0000
0100
0000
0110
0000
0000
1000
0001
0000
0001
0000
0100
0000
0010
0000
,
1000
0001
0101
0000
1100
0000
0110
0000
,
1000
0010
0010
0000
0110
0100
0001
0010
,
0100
0010
0011
0000
0100
1000
1010
0000
,
0100
0010
1010
0001
0101
1000
0110
0000
,
1001
0000
0000
0000
0110
0000
0000
0000
0001
0100
0010
0000
0001
0000
0010
0100
,
0001
0000
0010
0000
1100
0000
0000
0000
0001
0100
0010
1000
0001
0000
0100
0010
,
1000
0000
0010
0000
0101
0000
0000
0000
1000
0100
0010
0100
1000
0000
0001
0010
,
0100
0000
1000
0000
0101
0000
0000
0000
1001
0000
0100
0010
0100
0000
1000
0000
,
0001
0010
1000
0010
0001
0000
0100
0000
1010
0000
0010
0100
0010
0000
0010
0000
,
0100
0001
0010
1000
0010
0000
0001
0000
0110
0000
0100
1000
0001
0000
0010
0000
,
0100
1000
0010
0100
0010
0000
0100
0000
1001
0000
0000
0000
0110
0000
0000
1000
,
0100
0000
0100
0000
1000
0000
0010
0000
0100
0000
0010
0000
1010
0000
0000
0100
,
1000
0000
1000
0000
0001
0000
0100
0000
0001
0000
0010
0000
0110
0000
0000
0001
,
1000
0000
1000
0000
0010
0000
0100
0000
0001
0000
1000
0000
1001
0000
0000
0010
,
0100
0100
1000
0001
0010
0100
1100
0000
,
1010
0000
1001
0000
0010
0001
0001
0000
,
1001
1000
0100
0001
1000
0001
0101
0000
,
1000
0010
0011
0000
1000
0001
0011
0100
,
1100
0000
0010
0000
1001
0000
0000
0000
0110
0000
0000
0000
1001
0000
1000
0100
,
0001
0000
0001
0000
0100
0000
1000
0000
0001
0000
1000
0000
1100
0000
1000
0001
,
0100
0000
0100
0000
0010
0000
0001
0000
0010
0000
1000
0000
1001
0000
0001
0010
,
0100
0000
0100
0000
1000
0000
0001
0000
0010
0000
0100
0000
0110
0000
0100
1000
,
0001
0001
0100
0010
1000
0001
0101
0100
,
1100
0000
0110
0000
1000
0010
0110
0000
,
0110
0100
0001
0010
0100
0010
0011
0000
,
0000
0100
1100
0000
0000
0010
0110
0001
,
1100
1000
0101
0000
0110
0000
1001
0000
;

//---------------dance-single - ----------------
#NOTES:
     dance-single:
     9646_DSP:
     Medium:
     7:
     0.309375,0.323039,0.404250,0.000000,0.000000,225.000000,183.000000,42.000000,0.000000,0.000000,0.000000,0.309375,0.323039,0.404250,0.000000,0.000000,225.000000,183.000000,42.000000,0.000000,0.000000,0.000000:
0000
0000
0000
0000
,
0000
0000
0000
0000
,
0000
0000
0000
0000
,
0000
0000
0000
0000
,
0000
0000
0000
0000
,
1001
0000
0100
0000
0001
0100
1000
0000
,
0001
0001
0001
0000
,
1001
0000
0100
0000
1000
0100
0001
0000
,
1000
1000
1000
0000
,
0010
0100
0010
0101
,
0010
0100
0010
1100
,
0010
0100
0001
0000
0010
0100
1000
0000
,
0101
1100
0001
1000
,
0001
0010
1000
0100
,
0001
0000
0110
0000
1000
0000
0001
0100
,
1000
0000
1001
0000
0100
0000
0010
1000
,
0100
0000
0110
0000
0001
0000
1000
0100
,
0001
0000
1001
0000
0100
0000
0010
0001
,
0100
1001
1100
0101
,
1000
0100
0010
0000
0000
0000
0001
0100
,
0010
0101
0000
1100
,
0000
0000
0010
0100
0010
0100
0010
0000
,
0001
0000
1100
0000
0001
0000
0010
1000
,
0001
0000
1100
0000
0001
0000
0100
1000
,
0001
0000
0110
0000
0001
0000
0100
1000
,
0010
1001
0110
0010
,
0100
0001
1000
0000
1001
0000
0001
0000
,
1000
0100
0001
0000
0011
0000
1000
0000
,
0001
0100
1000
0000
0101
0000
1001
0000
,
0100
0000
0010
0001
0100
0000
0110
0000
,
0001
0000
1000
0100
0001
0000
1001
0000
,
0010
0000
0100
0001
0010
0000
0110
0000
,
0001
0000
1000
0010
0001
0000
0110
0000
,
0101
0000
0011
0000
0100
0001
1000
0000
,
0000
0000
0010
0001
1000
0000
0011
0000
,
0000
0000
0101
0000
0000
0000
1000
0001
,
1000
0001
1000
0000
0100
0000
0110
0000
,
0001
0000
1000
0010
0001
0000
1001
0000
,
0010
0000
0100
0001
0010
0000
0110
0000
,
1000
0000
0001
0010
1000
0000
1001
0000
,
0010
0000
0100
1000
0010
0000
1001
0000
,
0011
0000
1010
0000
0001
0010
0100
0000
,
0000
0000
1000
0010
0100
0000
1010
0000
,
0000
0000
0011
0000
0000
0000
0100
0010
,
0100
0010
0100
0000
0010
0000
1001
0000
;

//---------------dance-single - ----------------
#NOTES:
     dance-single:
     9646_BSP:
     Easy:
     5:
     0.273625,0.301503,0.481250,0.000000,0.000000,199.000000,149.000000,50.000000,0.000000,0.000000,0.000000,0.273625,0.301503,0.481250,0.000000,0.000000,199.000000,149.000000,50.000000,0.000000,0.000000,0.000000:
0000
0000
0000
0000
,
0000
0000
0000
0000
,
0000
0000
0000
0000
,
0000
0000
0000
0000
,
0000
0000
0000
0000
,
0110
0001
1000
0100
,
0010
0010
0010
0000
,
1001
0100
0010
1000
,
0001
0001
0001
0000
,
1000
0100
0001
0101
,
1000
0010
0001
0011
,
1000
0100
0001
0100
,
1001
0010
0100
0010
,
0100
0010
0010
0100
,
0100
1001
0110
1000
,
0001
0101
1100
0001
,
0010
1010
0011
0100
,
0010
0110
1001
0100
,
0010
1100
0001
1100
,
0001
0110
0000
0001
,
1000
0101
0000
1100
,
0000
0001
1000
0001
,
0110
1001
0001
0010
,
0010
1001
1000
0100
,
0100
0110
0010
1000
,
1000
0110
0101
1000
,
0001
0001
1100
0001
,
1000
1000
1010
0100
,
1000
0001
0010
0100
,
1001
0010
0100
1001
,
0100
0010
0001
1100
,
0001
0100
0001
0011
,
1000
0100
1000
1010
,
0100
1001
0100
0011
,
0000
0100
1000
1001
,
0000
0110
0000
1000
,
0010
0001
0100
1001
,
0110
0001
1000
1100
,
0101
1000
0010
0011
,
1010
0100
0010
0110
,
1001
0100
0010
0101
,
1000
0101
1000
0110
,
0000
1000
0001
1100
,
0000
0101
0000
1000
,
0001
1000
0110
1001
;

//---------------dance-single - ----------------
#NOTES:
     dance-single:
     9646_BEG:
     Beginner:
     3:
     0.149875,0.193824,0.182875,0.000000,0.000000,109.000000,90.000000,19.000000,0.000000,0.000000,0.000000,0.149875,0.193824,0.182875,0.000000,0.000000,109.000000,90.000000,19.000000,0.000000,0.000000,0.000000:
0000
0000
0000
0000
,
0000
0000
0000
0000
,
0000
0000
0000
0000
,
0000
0000
0000
0000
,
0000
0000
0000
0000
,
0001
0000
0001
0000
,
0001
0001
0001
0000
,
1000
0000
1000
0000
,
1000
1000
1000
0000
,
0010
0000
0100
0000
,
0010
0000
0001
0000
,
0010
0000
1000
0000
,
1001
0001
0000
0001
,
0000
0010
0000
0100
,
0000
0110
0000
0100
,
0000
1000
0000
0001
,
0000
1000
0000
0010
,
0000
0100
0000
0010
,
0000
0110
0000
1001
,
0000
0110
0000
0100
,
0100
0100
0000
0001
,
0000
0010
0010
0010
,
0000
1001
0000
0010
,
0000
1001
0000
0100
,
0000
1001
0000
0010
,
0000
0110
0100
0000
,
0010
0000
0001
0000
,
1000
0000
0010
0000
,
0100
0000
0110
1001
,
0000
0001
0000
0010
,
0000
0100
0000
0010
,
0000
1000
0000
0001
,
0000
1000
0000
1001
,
0000
0110
0000
1001
,
0000
0001
0001
0001
,
0000
0100
0000
1000
,
1000
1000
0000
0110
,
0000
0010
0000
1000
,
0000
0001
0000
1000
,
0000
0100
0000
0010
,
0000
0100
0000
0110
,
0000
1001
0000
0110
,
0000
0010
0010
0010
,
0000
0100
0000
0010
,
0010
0010
0000
1001
;

//---------------dance-double - ----------------
#NOTES:
     dance-double:
     :
     Challenge:
     1:
     0.075625,0.321235,0.077000,0.000000,0.000000,55.000000,47.000000,8.000000,0.000000,136.000000,0.000000,0.075625,0.321235,0.077000,0.000000,0.000000,55.000000,47.000000,8.000000,0.000000,136.000000,0.000000:
00000000
00000000
00000000
00000000
,
00000000
00000000
00000000
00000000
,
00000000
00000000
00000000
00000000
,
00000000
00000000
00000000
00000000
,
00000000
00000000
00000000
MMMMMMMM
,
11000000
00000000
00010000
00000000
00001000
00000100
00000001
00000000
,
00000010
00000010
00000010
MMMMMMMM
,
00000101
00000000
00001000
00000000
00010000
01000000
10000000
00000000
,
00100000
00100000
00100000
MMMMMMMM
,
10000000
01000000
00010000
00001000
00010000
00000000
00001010
00000000
,
00000001
00000010
00001000
00010000
00001000
00000000
01010000
00000000
,
00010000
10000000
01000000
00000000
00010000
00001000
00000100
00000000
,
MMMMMMMM
00000001
00000010
00001000
,
MMMMMMMM
00100000
MMMMMMMM
01000000
,
MMMMMMMM
00000000
10010000
00000000
01100000
00000000
10000000
01000000
,
00010000
00001000
00000110
00000000
00001001
00000000
00000000
00000000
,
00000000
00000000
00000000
00000000
,
00000000
00000000
00000000
00000000
,
00000000
00000000
00000000
00000000
,
00000000
00000000
MMMMMMMM
00000000
,
00000000
00000000
MMMMMMMM
00000000
,
MMMMMMMM
00000000
00000000
00000000
,
MMMMMMMM
00000000
00000000
00000000
,
00000000
00000000
00000000
00000000
,
00000000
00000000
00000000
00000000
,
00000000
00000000
00000000
00000000
,
00000000
00000000
00000000
00000000
,
00000000
00000000
00000000
00000000
,
00000000
00000000
00000000
00000000
,
00000000
00000000
00000000
00000000
,
00000000
00000000
00000000
00000000
,
00000000
00000000
00000000
00000000
,
00000000
00000000
00000000
00000000
,
00000000
00000000
00000000
00000000
,
MMMMMMMM
00000000
00000000
00000000
,
MMMMMMMM
00000000
MMMMMMMM
00000000
,
00000000
00000000
MMMMMMMM
00000000
,
00000000
00000000
00000000
00000000
,
00000000
00000000
00000000
00000000
,
00000000
00000000
00000000
00000000
,
00000000
00000000
00000000
00000000
,
00000000
00000000
00000000
00000000
,
MMMMMMMM
00000000
00000000
00000000
,
00000000
00000000
00000000
00000000
,
00000000
00000000
MMMMMMMM
00000000
;
