#TITLE:ギタドラシカ;
#SUBTITLE:;
#ARTIST:Rookie.F feat.HIZAKI(Jupiter & Versailles);
#TITLETRANSLIT:GITADORASSICA;
#SUBTITLETRANSLIT:;
#ARTISTTRANSLIT:;
#GENRE:;
#CREDIT:;
#MENUCOLOR:;
#METERTYPE:DDR;
#BANNER:GITADORASSICA.png;
#BACKGROUND:GITADORASSICA-bg.png;
#LYRICSPATH:;
#CDTITLE:./CDTITLES/GITADORA.PNG;
#MUSIC:GITADORASSICA.ogg;
#OFFSET:0.000;
#SAMPLESTART:88.000;
#SAMPLELENGTH:15.000;
#SELECTABLE:YES;
#LISTSORT:;
#BPMS:0.000=180.000;
#STOPS:230.000=0.33333333333333333333333333333333‬
,327.000=1.000
;
#BGCHANGES:0.000=GITADORASSICA.avi=1.000=0=0=0,
99999=-nosongbg-=1.000=0=0=0 // don't automatically add -songbackground-
;
#ATTACKS:;

//---------------dance-single - ----------------
#NOTES:
     dance-single:
     :
     Beginner:
     5:
     0.174,0.281,0.008,0.000,0.000: // measure 1
0000
0000
0000
0000
,  // measure 2
0000
0000
0000
0000
,  // measure 3
0000
0000
0000
0000
,  // measure 4
0000
0000
0000
0000
,  // measure 5
0000
0000
0000
0000
,  // measure 6
0000
0000
0000
0000
,  // measure 7
0000
0000
0000
0000
,  // measure 8
0000
0000
0000
0000
,  // measure 9
0000
0000
0000
0000
,  // measure 10
0001
0000
0000
0000
,  // measure 11
0001
0000
0000
0000
,  // measure 12
1000
0000
0000
0000
,  // measure 13
0010
0010
0010
0010
,  // measure 14
0010
0000
0000
0000
,  // measure 15
0100
0000
0000
0000
,  // measure 16
0010
0000
0000
0000
,  // measure 17
1000
1000
1000
1000
,  // measure 18
1000
0000
0001
0000
,  // measure 19
1000
0000
0001
0000
,  // measure 20
0000
0100
0000
0100
,  // measure 21
0000
0100
0000
0100
,  // measure 22
0100
0000
0010
0000
,  // measure 23
0100
0000
0010
0000
,  // measure 24
0000
1000
0000
0001
,  // measure 25
0000
1000
0000
0001
,  // measure 26
0001
0000
0010
0000
,  // measure 27
0000
0001
0001
0000
,  // measure 28
1000
0000
0010
0000
,  // measure 29
0000
1000
1000
0000
,  // measure 30
0001
0000
0100
0000
,  // measure 31
0000
0010
0010
0000
,  // measure 32
0100
0000
0010
0000
,  // measure 33
1000
0000
0001
0000
,  // measure 34
1000
1000
1000
1000
,  // measure 35
1000
1000
0000
0000
,  // measure 36
0001
0001
0001
0001
,  // measure 37
0001
0001
0000
0000
,  // measure 38
0100
0100
0100
0100
,  // measure 39
0100
0100
0000
0000
,  // measure 40
0010
0000
0010
0000
,  // measure 41
1000
0000
0001
0000
,  // measure 42
0000
1000
1000
0000
,  // measure 43
0000
0000
0000
0000
,  // measure 44
0000
0001
0001
0000
,  // measure 45
0000
0000
0000
0000
,  // measure 46
1000
0000
0001
0000
,  // measure 47
1000
0000
1000
0000
,  // measure 48
0001
0000
1000
0000
,  // measure 49
0001
0000
0000
0000
,  // measure 50
0100
0000
0010
0000
,  // measure 51
0100
0000
0100
0000
,  // measure 52
0010
0000
0100
0000
,  // measure 53
0010
0000
1000
0000
,  // measure 54
0001
0000
0010
0000
,  // measure 55
0100
0000
1000
0000
,  // measure 56
0001
0000
0010
0000
,  // measure 57
0001
0001
0001
0001
,  // measure 58
0001
0001
0001
1000
,  // measure 59
0000
0000
0000
0001
,  // measure 60
0000
0000
0000
1000
,  // measure 61
0000
0000
0000
0100
,  // measure 62
0000
0000
0000
0010
,  // measure 63
0000
0000
0000
0001
,  // measure 64
0000
0000
0000
1000
,  // measure 65
0000
0001
0000
1000
,  // measure 66
0000
0000
0000
0001
,  // measure 67
0000
0001
0001
0001
,  // measure 68
0000
0000
0000
1000
,  // measure 69
0000
1000
1000
1000
,  // measure 70
0000
0000
0000
0010
,  // measure 71
0000
0010
0010
0010
,  // measure 72
0000
0000
0000
0100
,  // measure 73
0000
0100
0100
0100
,  // measure 74
0000
0000
0000
0010
,  // measure 75
0000
1000
0000
0001
,  // measure 76
0000
0100
0000
0001
,  // measure 77
0000
0010
0000
0100
,  // measure 78
0000
1000
0000
0001
,  // measure 79
0000
0000
0000
1000
,  // measure 80
0000
0000
0000
0001
,  // measure 81
0000
1000
0000
0001
,  // measure 82
0001
0001
0000
1000
,  // measure 83
1001
0000
0000
0000
,  // measure 84
0010
0000
0000
0000
;

//---------------dance-single - ----------------
#NOTES:
     dance-single:
     :
     Easy:
     8:
     0.413,0.493,0.254,0.186,0.008: // measure 1
0000
0000
0000
0000
,  // measure 2
0000
0000
0000
0000
,  // measure 3
0000
0000
0000
0000
,  // measure 4
0000
0000
0000
0000
,  // measure 5
0000
0000
0000
0000
,  // measure 6
0000
0000
0000
0000
,  // measure 7
0000
0000
0000
0000
,  // measure 8
0000
0000
0000
0000
,  // measure 9
0000
0000
0000
0000
,  // measure 10
0110
0000
0000
0000
0000
0000
0000
1000
,  // measure 11
1000
0000
0000
0000
0000
0000
0000
0001
,  // measure 12
0001
0000
0000
1000
,  // measure 13
0001
0010
0100
0110
,  // measure 14
0010
0000
0001
0000
1000
0001
1000
0000
,  // measure 15
0010
0000
1000
0000
0001
1000
0001
0000
,  // measure 16
0100
0000
0001
0000
1000
0001
1000
0000
,  // measure 17
0001
0010
0100
0110
,  // measure 18
0010
0000
0001
0000
0100
0001
0100
0000
,  // measure 19
0001
0010
0100
1000
,  // measure 20
0010
1010
0010
1010
,  // measure 21
0010
1010
0010
1010
,  // measure 22
0010
0000
1000
0000
0100
1000
0100
0000
,  // measure 23
1000
0010
0100
0001
,  // measure 24
0010
0011
0010
0011
,  // measure 25
0010
0011
0010
0011
,  // measure 26
0001
0000
0100
0000
0001
0010
0001
0000
,  // measure 27
1000
0200
1000
0310
,  // measure 28
1000
0000
0100
0000
1000
0010
1000
0000
,  // measure 29
0001
0200
0001
0310
,  // measure 30
0001
0000
0010
0000
0001
1000
0001
0000
,  // measure 31
1000
0020
1000
0130
,  // measure 32
0001
0001
0000
0000
1000
0000
0010
0000
,  // measure 33
1000
1000
0000
0000
0001
0000
0010
0000
,  // measure 34
0001
0000
0100
0000
0001
0010
0001
0000
,  // measure 35
1000
1002
0100
0013
,  // measure 36
1000
0000
0100
0000
1000
0010
1000
0000
,  // measure 37
0001
2001
0010
3100
,  // measure 38
0010
0000
0100
0000
0001
0010
0001
0000
,  // measure 39
0100
0120
1000
0031
,  // measure 40
1000
1000
0000
0000
0001
0000
0010
0000
,  // measure 41
0100
0100
0000
0000
0010
0000
0001
0000
,  // measure 42
2000
0000
3020
0000
0230
0000
0000
0001
,  // measure 43
0000
0001
0000
0000
0010
0000
0310
0000
,  // measure 44
0002
0000
0023
0000
0230
0000
0000
1000
,  // measure 45
0000
1000
0000
0000
0010
0000
0310
0000
,  // measure 46
1001
0000
0000
0010
0100
0000
0010
0000
,  // measure 47
1000
0000
0000
0001
0010
0000
0100
0000
,  // measure 48
0010
0000
0000
0001
0100
0000
0001
0000
,  // measure 49
1000
0000
0010
0010
0000
0100
0100
0000
,  // measure 50
0001
0000
0000
0010
0100
0000
0010
0000
,  // measure 51
0001
0000
0000
1000
0010
0000
0100
0000
,  // measure 52
0010
0000
0000
1000
0100
0000
1000
0000
,  // measure 53
0001
0100
1000
0100
,  // measure 54
0001
0010
1000
0010
,  // measure 55
0001
0010
1000
0100
,  // measure 56
1000
0010
0001
0100
,  // measure 57
0001
0101
1100
0011
,  // measure 58
1010
0110
1001
0200
,  // measure 59
0000
0000
0300
0020
,  // measure 60
0000
0000
0030
2000
,  // measure 61
0000
0000
3000
0002
,  // measure 62
0000
0000
0003
2000
,  // measure 63
0000
3100
0000
0020
,  // measure 64
0000
0031
0000
1000
,  // measure 65
0010
0001
0010
1000
,  // measure 66
0100
0010
0001
1000
,  // measure 67
0010
0000
1000
0100
1000
0000
0020
0000
,  // measure 68
0100
0001
1030
0001
,  // measure 69
0010
0000
0001
0100
0001
0000
0200
0000
,  // measure 70
0010
1000
0301
1000
,  // measure 71
0010
0000
1000
0100
1000
0000
0001
0000
,  // measure 72
0010
0000
0001
0100
0001
0000
1000
0000
,  // measure 73
0100
0000
1000
0010
0100
0000
0001
0000
,  // measure 74
0010
0100
1000
0001
,  // measure 75
0101
0001
0101
0001
,  // measure 76
0101
0001
0101
1000
,  // measure 77
1100
1000
1100
1000
,  // measure 78
1100
1000
1100
0020
,  // measure 79
0130
0000
0000
0000
0001
0000
0000
1000
0000
0000
0001
0000
1000
0000
0000
0000
,  // measure 80
0000
0000
0000
0000
0010
0000
0000
0010
0000
0000
0010
0000
0100
0000
0000
0000
,  // measure 81
0001
0010
1000
0010
,  // measure 82
0001
0100
1000
0100
,  // measure 83
0210
0000
0000
0000
,  // measure 84
0301
1000
0000
0000
0000
0000
0000
0000
;

//---------------dance-single - ----------------
#NOTES:
     dance-single:
     :
     Medium:
     12:
     0.580,0.634,0.237,0.263,0.093: // measure 1
0000
0000
0000
0000
,  // measure 2
0000
0000
0000
0000
,  // measure 3
0000
0000
0000
0000
,  // measure 4
0000
0000
0000
0000
,  // measure 5
0000
0000
0000
0000
,  // measure 6
0000
0000
0000
0000
,  // measure 7
0000
0000
0000
0000
,  // measure 8
0000
0000
0000
0000
,  // measure 9
0000
0000
0000
0000
,  // measure 10
0210
0000
0001
0000
0310
0000
0000
0001
,  // measure 11
2000
0000
0100
0000
3001
0000
0000
1000
,  // measure 12
0002
0100
1003
0010
,  // measure 13
0100
0110
0101
1100
,  // measure 14
0001
0000
0010
0000
0001
0100
0001
0000
,  // measure 15
1000
0000
0010
0000
1000
0100
1000
0000
,  // measure 16
0001
0000
0010
0000
0001
1000
0100
0000
,  // measure 17
1000
1001
0101
0110
,  // measure 18
0010
1000
0000
0001
0100
0001
0010
0000
,  // measure 19
0001
0100
0010
1000
0001
0100
0010
1000
,  // measure 20
0001
0011
0001
0011
,  // measure 21
0100
0110
0100
0110
,  // measure 22
0010
0001
0000
1000
0100
1000
0010
0000
,  // measure 23
1000
0010
0100
0001
1000
0010
0100
0001
,  // measure 24
1000
1010
1000
1010
,  // measure 25
0100
0110
0100
0110
,  // measure 26
0010
0000
0001
0100
0020
0000
1030
0000
,  // measure 27
0001
0010
1000
0010
0001
1000
0001
0000
,  // measure 28
2000
0000
3010
0100
0002
0000
1003
0000
,  // measure 29
0001
0100
1000
0100
0010
1000
0001
0000
,  // measure 30
2000
0000
3100
0010
0200
0000
1300
0000
,  // measure 31
0010
0000
0000
1000
0000
0000
0001
0000
0000
0000
0010
0000
0002
0000
0000
0000
0000
0000
1003
0000
0000
0000
0000
0000
,  // measure 32
0010
0010
0000
0000
1000
0000
0001
0000
,  // measure 33
1000
1000
0000
0000
0010
0000
0100
0000
,  // measure 34
0010
1000
0010
1000
0100
0000
0010
0001
,  // measure 35
0010
0001
0100
0000
0001
1000
0100
0000
,  // measure 36
1000
0010
1000
0010
0100
0000
0001
0010
,  // measure 37
0001
0000
0000
0010
0000
0000
0100
0000
0020
0000
0000
0000
0031
0000
1000
0000
,  // measure 38
0001
0010
1000
0010
0001
0000
1000
0010
,  // measure 39
0001
0010
1000
0000
0001
1000
0100
0000
,  // measure 40
1000
1000
0000
0000
0001
0000
0100
0000
,  // measure 41
0010
0010
0000
0000
0100
0000
0001
0000
,  // measure 42
2000
0000
3002
0000
0203
0000
0000
0010
,  // measure 43
0000
0010
0000
0000
1000
0000
1300
0000
,  // measure 44
0002
0000
2003
0000
3020
0000
0000
0100
,  // measure 45
0000
0130
0000
0000
0001
0000
1000
0001
,  // measure 46
0100
0000
0010
1000
0100
1000
0010
1000
,  // measure 47
0001
0000
0010
0001
0100
0001
0010
0001
,  // measure 48
1000
0000
0001
0010
0100
1000
0001
0100
,  // measure 49
0001
0000
1000
2000
0000
3010
0100
0000
,  // measure 50
0010
1000
0010
1000
0100
0001
0100
0000
,  // measure 51
0010
0001
0010
0001
0100
1000
0100
0000
,  // measure 52
0010
1000
0100
0001
0100
0010
0001
1000
,  // measure 53
0001
0100
0001
0100
1000
0100
1000
0100
,  // measure 54
0001
0010
0001
0010
1000
0010
1000
0010
,  // measure 55
0001
0100
1000
0100
0001
0100
1000
0100
,  // measure 56
0001
0010
1000
0010
0001
0010
1000
0010
,  // measure 57
0001
0011
1010
1100
,  // measure 58
0101
0110
1001
0220
,  // measure 59
0000
0000
0330
2020
,  // measure 60
0000
0000
3030
2200
,  // measure 61
0000
0000
3300
0022
,  // measure 62
0000
0000
0033
2001
,  // measure 63
0000
0000
0000
3010
0000
0000
0100
0000
0000
0001
0000
1000
,  // measure 64
0000
0000
0001
0000
0000
0000
0100
0000
0000
0000
0000
0000
0001
0000
0000
0000
0000
0000
1000
0000
0000
0010
0000
0000
,  // measure 65
0100
0000
0001
0010
0100
0000
1000
0010
,  // measure 66
1000
0010
1000
0001
1000
0001
1000
0100
,  // measure 67
0010
0100
1000
0100
0010
0001
1000
0010
,  // measure 68
0100
0010
2000
0000
3010
0100
0001
0010
,  // measure 69
0100
0010
0001
0010
0100
1000
0001
0100
,  // measure 70
0010
0100
0002
0000
1003
0010
1000
0100
,  // measure 71
1000
0100
0001
0100
0001
0100
1000
0010
,  // measure 72
1000
0010
0001
0010
0001
0010
1000
0100
,  // measure 73
0010
0001
0010
0100
1000
0001
0100
0010
,  // measure 74
0100
0000
0010
0000
1000
0000
0001
0000
0100
0000
0001
0000
1000
0000
0000
1000
,  // measure 75
0010
0000
1000
0000
0100
0000
0000
0100
0010
0000
0001
0000
0100
0000
0000
0100
,  // measure 76
0010
0000
1000
0000
0010
0000
0000
0010
1000
0000
0001
0000
0010
0000
0000
0010
,  // measure 77
0001
0000
1000
0000
0001
0000
0000
0001
0100
0000
1000
0000
0100
0000
0000
0100
,  // measure 78
0001
0000
0010
0000
1000
0000
0000
1000
0010
0000
0001
0000
2000
0000
0000
0000
,  // measure 79
3010
0000
0000
0000
0100
0000
0000
0110
0000
0000
0010
0000
0200
0000
0000
0000
,  // measure 80
0300
0000
0000
0000
0010
0000
0000
0010
0000
0000
0010
0000
1000
0000
0000
0000
,  // measure 81
0001
1000
0001
0100
0000
0000
0001
0000
0000
1000
0100
1000
,  // measure 82
0001
0000
0000
1000
0010
1000
0010
0100
0001
1000
0000
0000
,  // measure 83
0210
0000
0000
0000
,  // measure 84
0301
1000
0000
0000
0000
0000
0000
0000
;

//---------------dance-single - ----------------
#NOTES:
     dance-single:
     :
     Hard:
     16:
     0.864,0.951,0.254,0.229,0.720: // measure 1
0000
0000
0000
0000
,  // measure 2
0000
0000
0000
0000
,  // measure 3
0000
0000
0000
0000
,  // measure 4
0000
0000
0000
0000
,  // measure 5
0000
0000
0000
0000
,  // measure 6
0000
0000
0000
0000
,  // measure 7
0000
0000
0000
0000
,  // measure 8
0000
0000
0000
0000
,  // measure 9
0000
0000
0000
0000
,  // measure 10
0001
0000
0010
0000
0100
0000
1000
0000
0001
0100
0001
0100
0001
0000
0010
0000
,  // measure 11
0001
0000
0100
0000
0010
0000
1000
0000
0001
0010
0001
0010
0001
0000
1000
0000
,  // measure 12
0001
0000
1000
0000
0100
0000
0010
0000
0100
1000
0001
1000
0001
0000
0100
0000
,  // measure 13
0010
0110
1001
0101
,  // measure 14
1000
0000
0100
0000
0010
0000
0001
0000
1000
0010
1000
0010
1000
0000
0001
0000
,  // measure 15
1000
0000
0010
0000
0100
0000
0001
0000
1000
0100
1000
0100
1000
0000
0001
0000
,  // measure 16
0100
0000
0001
0010
0001
1000
0001
0000
1000
0100
1000
0100
1000
0000
0001
0000
,  // measure 17
0010
0000
0001
0100
0001
0000
1000
0010
1000
0000
0001
0010
0001
0000
1000
0001
,  // measure 18
1000
0000
0100
1000
0100
1000
0100
0000
1000
0010
1000
0001
1000
0000
0001
0000
,  // measure 19
0100
0000
0001
0010
0001
0000
1000
0000
0001
0000
0100
0001
0100
0000
0001
0000
,  // measure 20
1000
0100
1000
0100
1000
0000
0001
0000
1000
0010
1000
0010
1000
0000
0001
0000
,  // measure 21
1000
0100
0010
0100
1000
0000
0001
0000
1000
0010
0100
0010
1000
0000
0001
1000
,  // measure 22
0001
0000
0100
0001
0100
0001
0100
0000
0001
0010
0001
1000
0001
0000
1000
0000
,  // measure 23
0100
0000
1000
0010
1000
0000
0001
0000
1000
0000
0100
1000
0100
0000
1000
0000
,  // measure 24
0001
0010
0001
0010
0001
0000
1000
0000
0001
0100
0001
0100
0001
0000
1000
0000
,  // measure 25
0001
0010
0100
0000
0110
0000
0010
0000
0001
0000
1000
0010
0100
0001
1000
0000
,  // measure 26
0001
0100
0001
0100
0001
0000
1000
0010
2000
0000
0000
0000
3001
0000
0000
0000
,  // measure 27
1000
0000
0100
1000
0100
0000
1000
0010
1000
0000
0001
1000
0001
0000
0100
0001
,  // measure 28
0200
0000
0301
0010
0001
0100
0010
0000
,  // measure 29
1000
0010
0001
0010
0100
0001
1000
0001
,  // measure 30
0020
0000
0130
0010
0002
0000
1003
0000
,  // measure 31
0001
0000
0000
0100
0000
0000
0001
0000
1000
0000
0001
0000
0020
0000
0000
0000
0000
0000
0031
0000
0000
1000
0000
0000
,  // measure 32
0001
0000
1001
0000
0000
0000
0000
0000
1000
0000
0100
0010
0001
0000
0100
0010
,  // measure 33
1000
0000
1010
0000
0000
0000
0001
0010
0100
0010
0000
0010
0001
0100
0001
0000
,  // measure 34
1000
0000
0010
0000
0001
0000
0010
0100
0001
0000
1000
0000
0100
0000
0010
0000
,  // measure 35
0001
0000
0010
0000
1000
0000
0010
0100
1000
0000
0010
0000
0100
0000
0001
0000
,  // measure 36
1000
0000
0100
0000
0001
0000
0100
0010
0001
0000
0010
0000
0100
0000
1000
0000
,  // measure 37
0001
0000
0100
0001
0000
0100
1000
0000
0200
0000
0000
0000
0310
0000
1000
0000
,  // measure 38
0001
0000
0010
0000
1000
0000
0010
0100
1000
0000
0010
1000
0000
0010
0001
0000
,  // measure 39
0010
0100
0001
0010
0002
0000
1003
0000
,  // measure 40
0010
0000
0110
0000
0000
0000
0100
0000
0001
0000
0010
0100
1000
0001
1000
0000
,  // measure 41
0100
0000
0110
0000
0000
0000
0010
0001
1000
0010
1000
0010
0100
0000
0001
0000
,  // measure 42
2000
0000
3200
0000
0302
0000
0000
0010
,  // measure 43
0000
0010
0000
0000
1000
0000
0103
0000
,  // measure 44
0002
0000
0203
0000
2300
0000
0000
0010
,  // measure 45
0000
0000
3010
0000
0100
0000
0000
0100
0010
1000
0010
1000
0001
0100
0001
0000
,  // measure 46
0010
0000
0001
0000
0100
0000
1000
0100
0010
0000
1000
0000
0100
0000
0010
0000
,  // measure 47
0100
0000
1000
0000
0010
0000
0001
0010
0100
0000
0010
0000
1000
0000
0001
0000
,  // measure 48
1000
0100
1000
0100
1000
0000
0001
0000
0020
0000
0000
0000
0031
0000
0100
0000
,  // measure 49
0001
0000
0010
0001
1000
0000
1002
0000
0000
0000
1003
0000
0001
1000
0001
0000
,  // measure 50
0100
0000
0001
0010
0001
0000
1000
0010
1000
0000
0001
0100
0001
0000
1000
0000
,  // measure 51
0100
0000
1000
0100
1000
0000
0001
0010
0001
0000
1000
0010
1000
0000
0001
0000
,  // measure 52
1000
0000
0100
0000
0110
0000
0010
0000
0011
0000
0000
0001
0100
0001
1000
0000
,  // measure 53
0001
0000
0100
0000
1000
0000
0100
0000
0010
0000
1000
0100
1000
0001
1000
0000
,  // measure 54
0001
0000
0010
0000
1000
0000
0010
0000
0100
0000
1000
0010
1000
0001
1000
0000
,  // measure 55
0001
0000
0100
0000
1000
0000
0100
0000
0010
0000
1000
0010
0100
0001
1000
0000
,  // measure 56
0001
0000
0010
0000
1000
0000
0010
0000
0100
0000
0010
0001
1000
0001
0010
0000
,  // measure 57
0001
0101
1010
1001
,  // measure 58
1100
0011
1001
0220
,  // measure 59
0000
0000
0330
0202
,  // measure 60
0000
0000
0303
2020
,  // measure 61
0000
0000
3030
2200
,  // measure 62
0000
0000
3300
0012
,  // measure 63
0000
0000
0000
0103
0000
0000
0010
0000
0000
0000
0000
0000
1000
0000
0000
0001
0000
0000
1000
0000
0000
0000
1100
0000
,  // measure 64
0000
0000
1001
0000
0000
0000
0102
0000
0000
0000
0000
0000
0013
0000
0000
0000
0000
0000
0001
0000
0000
0100
0000
0000
,  // measure 65
1000
0100
0001
0010
1000
0010
0001
0100
,  // measure 66
1000
0000
0100
0000
0010
0000
1000
0001
0100
0001
1000
0001
1000
0000
0100
0000
,  // measure 67
0010
0100
1000
0100
0010
0000
0001
0000
0100
0001
0010
0001
0100
0000
0001
0000
,  // measure 68
1000
0010
0100
0010
1000
0000
0001
0000
0010
0001
1000
0001
0010
0000
0001
0000
,  // measure 69
1000
0010
0100
0010
1000
0000
0010
0000
0100
0001
0010
0001
0100
0000
0001
0000
,  // measure 70
1000
0100
0010
0100
1000
0000
0001
0000
0100
0001
1000
0001
0010
0000
0001
0000
,  // measure 71
1000
0010
0100
0001
1000
0000
0001
0000
0010
0100
1000
0001
0100
0000
0010
0000
,  // measure 72
0100
0001
1000
0010
1000
0000
0001
0000
0010
0001
1000
0100
1000
0000
0001
0000
,  // measure 73
1000
0100
0010
0001
1000
0000
0010
0000
0100
0001
1000
0010
0100
0000
0001
0100
,  // measure 74
0001
0000
1000
0100
1000
0000
0001
0010
0001
0000
1000
0010
1000
0100
1000
0100
,  // measure 75
1000
0000
0001
0000
1000
0010
1000
0010
1000
0000
0001
0000
1000
0010
0100
0010
,  // measure 76
1000
0000
0001
0000
1000
0100
0010
0100
1000
0000
0001
1000
0001
0010
0001
0010
,  // measure 77
0001
0000
1000
0000
0001
0100
0001
0100
0001
0000
1000
0000
0001
0010
0100
0010
,  // measure 78
0001
0000
1000
0000
0001
0100
0010
0100
0001
1000
0001
1000
0010
0100
0010
0100
,  // measure 79
0010
0000
1000
0000
1001
0000
0001
0100
0000
1000
0100
0000
0002
0000
0000
0000
,  // measure 80
0000
0000
0000
0000
0013
0000
0000
0011
0000
0000
1001
0000
1100
0000
0000
0000
,  // measure 81
1000
0010
0100
0010
0000
0000
1000
0000
0000
0001
0100
0001
,  // measure 82
1000
0000
0000
0001
0010
1000
0010
0100
1000
0001
0000
0000
,  // measure 83
0210
0000
0000
0000
,  // measure 84
0310
0100
0001
0000
0000
0000
0000
0000
0000
0000
0000
0000
0000
0000
0000
0000
;
