#TITLE:GALAXY HidE and SeeK;
#SUBTITLE:;
#ARTIST:AZALEA;
#TITLETRANSLIT:;
#SUBTITLETRANSLIT:;
#ARTISTTRANSLIT:;
#GENRE:;
#CREDIT:;
#BANNER:GALAXY HidE and SeeK-bn.png;
#BACKGROUND:GALAXY HidE and SeeK-bg.png;
#LYRICSPATH:;
#CDTITLE:;
#MUSIC:GALAXY HidE and SeeK.ogg;
#OFFSET:-0.680000;
#SAMPLESTART:55.147999;
#SAMPLELENGTH:12.000000;
#SELECTABLE:YES;
#BPMS:0.000000=141.000000
,56.000000=70.500000
,72.000000=141.000000
;
#STOPS:
;
#BGCHANGES:;
#KEYSOUNDS:;
#ATTACKS:;

//---------------dance-single - ----------------
#NOTES:
     dance-single:
     :
     Challenge:
     13:
     0.583124,0.657581,0.409161,0.321484,0.428645,419.000000,377.000000,42.000000,33.000000,0.000000,0.000000,0.583124,0.657581,0.409161,0.321484,0.428645,419.000000,377.000000,42.000000,33.000000,0.000000,0.000000:
0000
0000
0000
0000
,
0000
0000
0000
0000
,
0001
1000
0200
0000
1300
0001
0200
0000
,
0301
0000
1000
0000
0100
0000
0000
0000
0110
0000
0000
0000
1001
0000
0001
0100
,
0010
1000
0100
0001
1000
0010
0011
0000
,
0001
0000
0100
0000
0010
0000
1000
0000
0100
0000
0010
0001
0000
0001
1000
0000
,
0010
0100
1000
0100
0001
1000
1100
0000
,
0100
0000
1000
0000
0010
0000
0100
0000
0001
1000
0000
0100
1000
0000
0100
0010
,
0200
0000
0001
0000
0010
0000
1300
0001
,
0200
0000
1000
0000
0010
0000
0301
1000
,
0100
0000
1000
0100
1000
0000
0001
0100
0001
1000
0000
0100
0010
0000
0002
0000
,
0000
0000
1003
0000
0010
0000
0100
0001
1000
0100
0010
0100
1000
0010
0100
0001
,
2000
0000
0000
0000
0000
0000
3001
2002
,
3003
0001
1000
1100
0000
0022
0000
0033
,
0002
0000
0000
1000
0000
0000
0000
0100
0000
0000
0000
1000
0000
1000
0000
0000
,
2003
0000
0000
0000
0010
0000
0010
0000
0000
0000
0001
0000
0000
0000
0010
0000
0000
0000
0000
0000
0000
0000
3001
0100
0001
0000
0010
0000
0100
0000
1000
0000
,
0020
0000
0000
0000
0000
0000
0001
0000
0000
0000
1030
0000
0001
0000
0010
0000
0200
0000
0000
0000
0000
0000
0001
0000
0000
0000
0010
0000
0000
0000
1300
0001
,
2000
0000
0010
0010
0000
3001
0010
0100
2000
0000
0000
3002
0000
0000
0000
0000
,
0103
0000
0000
0000
0010
0000
1000
0000
0100
0000
0010
0001
0010
0000
0000
0000
,
1001
0000
1000
1010
0000
0001
0011
0000
,
1001
0000
0000
0000
0001
0000
0010
0000
0100
0000
1000
0001
1000
0000
0000
0000
,
1010
0000
0000
0101
0000
0000
1001
0000
0000
0000
1000
0000
1100
0000
0100
0010
,
0002
0000
0000
0000
1000
0000
1003
0000
0000
0000
0010
0100
0001
0000
0000
0000
,
2001
0000
3001
0101
0000
1000
1100
0000
,
0100
0000
0010
0000
0001
0000
0001
0000
1000
0000
0010
0000
0100
0000
0010
1000
,
0001
0000
0010
0000
0100
0000
1000
0000
0001
0100
0010
0100
0001
1000
0100
0010
,
0002
0000
0000
0003
,
1001
1000
0010
0100
0110
0000
1001
0000
,
0001
0000
1000
0010
1000
0000
0100
0000
0010
0000
0001
0100
0001
0000
1000
0000
,
0100
0000
0010
0000
0100
0000
1000
0000
0001
0100
0010
0000
0110
0000
0000
0000
,
0100
0000
0001
0010
0001
0000
0010
0000
0100
0000
1000
0001
1000
0000
0010
0000
,
0100
0000
0001
0000
1000
0000
0100
0000
0010
0001
0000
1000
0010
0000
0100
0001
,
2000
0100
0001
3010
,
0110
0101
1100
1001
,
0120
0000
0000
0000
0001
0000
0000
0000
0130
0001
0000
0001
1000
0000
2002
0000
,
3003
0000
0001
0000
0010
0000
0001
1000
0010
1000
0100
0010
0001
0010
0100
1000
,
0001
0000
0100
0010
0100
0000
0001
0000
1000
0000
0100
1000
0100
0000
0010
0000
,
0001
0000
1000
0010
0100
0000
0010
0000
0100
0010
1000
0000
1001
0000
0000
0000
,
0001
0000
1000
0100
1000
0000
0010
0000
0100
0000
0010
1000
0010
0000
0100
0000
,
0001
0000
1000
0000
0100
0000
0001
0000
0100
0010
0000
0001
0100
0000
0010
1000
,
0002
0010
1000
0103
,
0110
1010
0011
1001
,
0210
0000
0000
0000
1000
0000
0000
0000
0310
1000
0000
0001
0010
0000
0220
0000
,
0000
0000
0000
0000
0330
0000
0000
0000
0110
0000
0010
0000
1001
0000
0001
0010
,
0100
0001
0100
1000
0010
0100
0101
0000
,
0001
0000
0010
0000
1000
0000
0010
0000
0001
0000
0100
0010
0000
0010
1000
0000
,
0100
0010
0001
0100
1000
0100
0101
0000
,
0001
0000
1000
0000
0010
0000
0100
0000
0001
1000
0000
0100
0010
0000
0001
1000
,
0010
0000
0100
0001
2000
0000
0100
0000
3100
0000
1000
0001
0100
0000
0000
0000
,
0010
0000
1000
0100
0020
0000
0001
0000
0031
0000
1000
0010
0100
0000
0001
0000
,
1000
0000
0100
0010
0100
0000
1000
0001
1000
0010
0100
0001
1000
0100
0020
0000
,
0000
0030
0011
1100
,
2002
0000
0000
0000
,
0000
0000
0000
0000
,
3003
0000
0000
0000
;

//---------------dance-double - ----------------
#NOTES:
     dance-double:
     :
     Challenge:
     14:
     0.555290,0.657581,0.282516,0.331226,0.418903,399.000000,370.000000,29.000000,34.000000,0.000000,0.000000,0.555290,0.657581,0.282516,0.331226,0.418903,399.000000,370.000000,29.000000,34.000000,0.000000,0.000000:
00000000
00000000
00000000
00000000
,
00000000
00000000
00000000
00000000
,
10000000
01000000
00010000
00000000
00001000
00000010
00000001
00000000
,
00000001
00000100
00001000
00000000
00011000
00000000
01001000
00000000
,
01000000
00000000
00010000
10000000
00010000
00000000
00100000
00000000
01000000
00000000
00010000
00000000
00001000
00000000
00000000
00000000
,
00000010
00000000
00000001
00000000
00001000
00000000
00000010
00000000
00000100
00000000
00001000
00010000
00000000
00001000
01000000
00000000
,
00010000
00100000
01000000
10000000
00100000
00010000
00001000
00000000
,
00010000
00000000
01000000
00000000
00010000
00000000
00001000
00000000
00000010
00000100
00000000
00001000
00000001
00000000
00000100
00000010
,
00002000
00000100
00000001
00000010
,
00023000
01000000
10000000
00100000
,
00031000
00000000
00000100
00000010
00000100
00000000
00001000
00000001
00001000
00000100
00000000
00010000
00000100
00000000
00020000
00000000
,
00000000
00000000
00031000
00000000
01000000
00000000
00100000
10000000
00010000
00100000
00001000
00010000
00000010
00001000
00000100
00000010
,
00000002
00000000
00000000
00000000
00000000
00000003
00000000
00002200
,
00000000
00000000
00003300
00010100
00000000
02002000
00003000
00000000
,
03020000
00000000
00000000
01000000
00000000
00000000
00000000
10000000
00000000
00000000
00000000
00100000
00000000
00100000
00000000
00000000
,
00032000
00000000
00000000
00000000
00000100
00000000
00000100
00000000
00000000
00000000
00000001
00000000
00000000
00000000
00000001
00000000
00000000
00000000
00000000
00000000
00000000
00000000
00003010
00010000
00000010
00000000
00000100
00000000
00001000
00000000
00010000
00000000
,
02000000
00000000
00000000
00000000
00000000
00000000
00100000
00000000
00000000
00000000
13000000
00000000
00010000
00000000
00100000
00000000
00002000
00000000
00000000
00000000
00000000
00000000
00000100
00000000
00000000
00000000
00010000
00000000
00000000
00000000
00003100
00000010
,
00000200
00000000
00000000
00000001
00000000
00000310
00010000
00001000
00200000
00000000
00000000
02300000
00000000
00000000
00000000
00000000
,
13000000
00000000
00000000
00000000
01000000
00000000
00100000
00000000
00001000
00000000
00010000
00000010
00010000
00000000
00000000
00000000
,
00001010
00000000
00000010
00000101
00000000
00000010
00001100
00000000
,
00010100
00000000
00000000
00000000
00010000
00000000
00001000
00000000
01000000
00000000
00100000
10000000
00100000
00000000
00000000
00000000
,
10100000
00000000
00000000
01010000
00000000
00000000
01001000
00000000
00000000
00000000
00001000
00000000
00010000
00000000
00000010
00000100
,
00000002
00000000
00000000
00000000
00001000
00000000
00001003
00000000
00000000
00000000
00000100
00010000
00001000
00000000
00000000
00000000
,
00012000
00000000
01003000
01010000
00000000
00100000
10010000
00000000
,
10000000
00000000
01000000
00000000
00010000
00000000
00010000
00000000
00001000
00000000
00000100
00000000
00000001
00000000
00000010
00000100
,
00000010
00000000
00000001
00000000
00001000
00000000
00000100
00000000
00010000
00001000
01000000
00010000
00100000
01000000
10000000
01000000
,
00200000
00000000
00000000
00300000
,
00101000
00001000
00010000
00000010
00001010
00000000
00001001
00000000
,
00000001
00000000
00001000
00000010
00001000
00000000
00000100
00000000
00010000
00000000
00001000
01000000
00001000
00000000
00010000
00000000
,
01000000
00100000
00001000
00010000
00100000
10000000
10010000
00000000
,
00010000
00000000
01000000
00001000
01000000
00000000
00010000
00000000
00001000
00000000
00000100
00000010
00000100
00000000
00001000
00000000
,
00000001
00000000
00000100
00000000
00001000
00000000
00010000
00000000
00001000
00100000
00000000
01000000
00100000
00000000
00001000
01000000
,
00020000
01000000
10000000
00100000
,
00032000
00000100
00000001
00003010
,
00000120
00000000
00000000
00000000
00000001
00000000
00000000
00000000
00000130
00001000
00000000
00001000
00010000
00000000
00022000
00000000
,
00033000
00000000
00001000
00000000
01000000
00000000
00010000
00100000
01000000
10000000
01000000
00100000
00001000
00010000
00000010
00001000
,
00000100
00000000
00000010
00000001
00000010
00000000
00000100
00000000
00010000
00000000
00001000
00000100
00001000
00000000
00010000
00000000
,
00100000
00000000
01000000
00010000
10000000
00000000
01000000
00000000
00010000
00000000
00001000
00000000
00011000
00000000
00000000
00000000
,
00010000
00000000
00000010
00001000
00000100
00000000
00000010
00000000
00000001
00000000
00001000
00000010
00001000
00000000
00000100
00000000
,
00010000
00000000
00001000
00000000
01000000
00000000
00100000
00000000
10000000
01000000
00000000
00100000
00001000
00000000
00010000
00000010
,
00002000
00000100
00000001
00000010
,
00023000
01000000
10000000
00130000
,
01000000
00000000
00010000
00000000
01000000
00000000
10000000
00000000
00100000
01000000
00000000
00001000
00010000
00000000
00022000
00000000
,
00000000
00000000
00033000
00010000
00010010
00001000
00002200
00003300
,
00001000
00000000
00000001
00000100
00000001
00000000
00000010
00000000
00001000
00000000
00010000
00000000
00000100
00000000
00000000
00000000
,
00010000
00000000
00001000
00000000
00010000
00000000
01000000
00000000
00100000
00000000
00010000
10000000
00000000
00100000
01000000
00000000
,
00010000
00001000
00000010
00000100
00000001
00001000
00000100
00000000
,
00010000
00000000
00001000
00000000
01000000
00000000
00100000
00000000
10000000
00010000
00000000
00100000
01000000
00000000
00100000
00001000
,
00010000
00000000
00000010
00001000
00000200
00000000
00000010
00000000
00000310
00000000
00000001
00000100
00000010
00000000
00000000
00000000
,
00010000
00000000
00001000
01000000
00200000
00000000
01000000
00000000
01300000
00000000
00010000
10000000
01000000
00000000
00100000
00000000
,
00101000
00000000
00001000
00010000
00000010
00000000
00001000
00000010
00001000
00000001
00000010
00000001
00001000
00000100
00020000
00000000
,
00000000
00030000
00011000
01001000
,
20020000
00000000
00000000
00000000
,
00000000
00000000
00000000
00000000
,
30030000
00000000
00000000
00000000
;

//---------------dance-single - ----------------
#NOTES:
     dance-single:
     :
     Hard:
     10:
     0.414728,0.447155,0.204581,0.350710,0.082806,298.000000,277.000000,21.000000,36.000000,0.000000,0.000000,0.414728,0.447155,0.204581,0.350710,0.082806,298.000000,277.000000,21.000000,36.000000,0.000000,0.000000:
0000
0000
0000
0000
,
0000
0000
0000
0000
,
1000
1000
0001
0001
,
0100
0100
0110
1001
,
0001
0100
0010
0000
0001
0010
2000
0000
,
3002
0000
0000
0000
0013
0000
0100
0000
0010
0000
0000
0001
0000
0000
1000
0000
,
0010
0100
0010
0000
1000
0001
0010
0000
,
0100
1000
0001
0100
0010
0010
1000
1000
,
0002
1000
0100
1003
,
2000
0100
0001
0100
,
3001
0100
0010
0001
1000
0100
0001
2000
,
0000
3100
0010
0100
1000
1000
0001
0001
,
0200
0000
0000
0000
0000
0300
0000
0220
,
0000
0330
0000
0001
0000
2001
0000
0000
,
3200
0000
0000
0010
0000
0000
0000
0010
0000
0000
0000
1000
0000
1000
0000
0000
,
2300
0000
0000
0001
0000
0100
0000
0001
0000
0000
0000
0100
0100
0000
0001
0000
,
3002
0000
0000
0000
0000
0100
0100
0000
0203
0000
0000
0010
0000
0010
0000
0000
,
0302
0000
0000
1000
0000
0100
0100
0000
0203
0000
0000
0010
0000
0000
0000
0000
,
0301
0000
1000
0001
0010
0000
0110
0000
,
0100
0000
1000
0010
0000
1000
1001
0000
,
0001
0000
1000
0100
0010
0000
0110
0000
,
0011
0000
0000
1001
0000
0000
1010
0000
0000
0000
0010
0000
0110
0000
0000
0000
,
0200
0000
0000
0301
0000
1000
1100
0000
,
0200
0000
0000
0310
0000
0001
0101
0000
,
0100
0010
1000
1000
0100
0010
0001
0100
,
0001
1000
0010
0100
0001
0001
1000
1000
,
0200
0000
0000
0300
,
0010
0001
1000
0010
0110
0000
1001
0000
,
0001
1000
0100
0000
0001
0100
1000
0000
,
0010
0100
0001
0100
0010
0001
0010
0000
,
1000
0001
0010
1000
0020
0000
0031
1000
,
0010
0100
0001
0100
0010
0010
1000
1000
,
0002
0010
1000
0010
,
2003
0010
0001
0010
,
3020
0000
0130
0000
0001
1000
0100
0020
,
0000
0031
1000
0010
0100
0100
0001
1000
,
0100
0010
0001
0000
1000
0010
0001
0000
,
1000
0100
0010
0100
0001
1000
0100
0000
,
0001
0100
0010
0001
2000
0000
3010
0100
,
0001
1000
0100
0010
0100
0100
1000
1000
,
0020
0100
1000
0100
,
0230
0001
0010
0001
,
0302
0000
0013
0000
0100
1000
0001
2002
,
0000
3003
1001
0110
,
0010
1000
0100
0001
0100
0010
0002
0000
,
1003
0000
0010
0000
0100
0000
0001
0000
0100
0000
0000
0010
0000
0000
1000
0000
,
0100
0010
0001
0010
0100
0001
0200
0000
,
0310
0001
1000
0010
0100
0100
0010
0010
,
2000
0001
0010
3001
,
0002
1000
0010
1003
,
0010
1000
0100
0001
0100
1000
0010
0200
,
0000
0300
1001
0110
,
2002
0000
0000
0000
,
0000
0000
0000
0000
,
3003
0000
0000
0000
;

//---------------dance-double - ----------------
#NOTES:
     dance-double:
     :
     Hard:
     10:
     0.396636,0.394548,0.155871,0.389677,0.082806,285.000000,269.000000,16.000000,40.000000,0.000000,0.000000,0.396636,0.394548,0.155871,0.389677,0.082806,285.000000,269.000000,16.000000,40.000000,0.000000,0.000000:
00000000
00000000
00000000
00000000
,
00000000
00000000
00000000
00000000
,
10000000
10000000
00010000
00010000
,
00001000
00001000
00000001
00001001
,
00001000
00000100
00010000
00000000
00001000
00010000
01000000
00000000
,
00100000
00000000
00010000
00000000
10000000
00000000
00100000
00000000
01000000
00000000
00000000
00010000
00000000
00000000
00001000
00000000
,
00000010
00000100
00000010
00000000
00010000
00000100
00001000
00000000
,
00000100
00000010
00000001
00001000
00000010
00010000
00000100
00001000
,
00000200
00000000
00010000
00000000
00001000
00000000
00010300
00001000
,
02000000
00000000
00010000
00000000
00001000
00000000
03010000
01000000
,
00001000
00010000
00000010
00000000
00000100
00000010
00001000
00000002
,
00000000
00000013
00000100
00010000
00001000
01000000
00001000
00010000
,
02000000
00000000
00000000
00000000
00000000
03000000
00000000
20010000
,
00000000
00000000
00000000
30200000
00000000
00320000
00000000
00000000
,
00030200
00000000
00000000
00000010
00000000
00000000
00000000
00001000
00000000
00000000
00000000
00000010
00000000
00000010
00000000
00000000
,
00020300
00000000
00000000
00001000
00000000
00000100
00000000
00001000
00000000
00000000
00000000
00000100
00000100
00000000
00001000
00000000
,
00230000
00000000
00000000
00000000
00000000
10000000
10000000
00000000
02300000
00000000
00000000
00001000
00000000
00001000
00000000
00010000
,
03020000
00000000
00000000
00100000
00000000
00000000
00001000
00000000
00032000
00000000
00000000
00000200
00000000
00000000
00003300
00000000
,
00000100
00000000
00000010
00000001
00001000
00000000
00001001
00000000
,
00000001
00000000
00000100
00010000
00000000
00001000
00010000
00000000
,
01010000
00000000
01000000
00100000
10000000
00000000
10010000
00000000
,
00020000
00000000
00000000
00230000
00000000
00000000
00302000
00000000
00000000
00000000
00013000
00000000
00000010
00000000
00000100
00000000
,
00000002
00000000
00000000
00000013
00000000
00000100
00010100
00000000
,
00020000
00000000
00000000
00031000
00000000
01000000
01010000
00000000
,
00010000
10000000
01000000
00000000
00010000
00001000
00000010
00000000
,
00000100
00001000
00000001
00000100
00001000
00010000
00000100
00010000
,
00002000
00000000
00000000
00003000
,
01000000
00001000
00100000
00010000
10010000
00000000
01100000
00000000
,
00100000
10000000
01000000
00000000
00100000
00001000
00010000
00000000
,
00100000
01000000
00001000
00010000
00000100
00000000
00001100
00000000
,
00001000
00000001
00000100
00000000
00000020
00000000
00010030
00001000
,
01000000
00010000
00100000
00000000
00001000
00010000
00200000
00000000
,
20300000
01000000
30020000
00100000
,
00032000
00000100
00003002
00000100
,
00002003
00000000
00003100
00000000
00010000
00001000
01000000
00020000
,
00000000
10030000
01000000
00010000
00001000
01000000
00010000
00001000
,
00000010
00000100
00000001
00000000
00001000
00000100
00000010
00000000
,
00001000
00010000
01000000
00100000
00010000
00000000
10010000
00000000
,
10000000
00100000
01000000
00000000
00002000
00000000
00103000
00001000
,
00010000
00000010
00001000
00000100
00000010
00000100
00001000
00000000
,
00000002
00000100
00002003
00000100
,
00023000
00100000
20030000
00100000
,
30020000
00000000
00130000
00000000
00001000
00010000
00000010
00000200
,
00000000
00000300
00000110
00001001
,
00000001
00000100
00000010
00010000
00000100
00000000
00001000
00000000
,
00000100
00000000
00010000
00000000
00001000
00000000
00100000
00000000
01000000
00000000
00000000
00100000
00000000
00000000
00010000
00000000
,
10000000
00100000
00010000
00001000
00100000
00010000
01000000
00000000
,
00010000
00100000
00001000
00010000
00000010
00001000
00000100
00000000
,
00020000
00001000
00000100
00001000
,
00032000
00010000
01000000
00010000
,
01003000
00010000
10000000
01000000
00010000
00001000
00000010
00000002
,
00000000
00000003
00001001
00000110
,
00002002
00000000
00000000
00000000
,
00000000
00000000
00000000
00000000
,
00003003
00000000
00000000
00000000
;

//---------------dance-single - ----------------
#NOTES:
     dance-single:
     :
     Medium:
     9:
     0.359060,0.368245,0.204581,0.175355,0.073065,258.000000,237.000000,21.000000,18.000000,0.000000,0.000000,0.359060,0.368245,0.204581,0.175355,0.073065,258.000000,237.000000,21.000000,18.000000,0.000000,0.000000:
0000
0000
0000
0000
,
0000
0000
0000
0000
,
1000
0001
1000
0001
,
2000
3000
1001
0110
,
0010
1000
0100
0000
0001
0000
0100
0000
,
0010
0000
0001
0000
1000
0000
0000
0000
0010
0000
0000
0010
0000
0000
0010
0000
,
0100
0001
1000
0000
0100
0000
0010
0000
,
0001
1000
0010
0000
0001
0010
1000
0001
,
1000
0010
0100
0101
,
0001
0010
0100
1100
,
1000
0000
0001
0000
0100
0000
0010
2000
,
0000
3001
0010
0001
1000
0000
0010
0000
,
0220
0000
0000
0000
0000
0330
0000
0200
,
0000
0000
0000
0302
0000
1000
0000
0000
,
0103
0000
0000
0010
0000
0000
0000
1000
0000
0000
0000
0001
0000
0010
0000
0000
,
0001
0000
0000
1000
0000
0010
0000
1000
0000
0000
0000
0000
0001
0000
0010
0000
,
0200
0000
0000
0000
0000
1300
0001
0000
0200
0000
0000
0010
0000
0310
0000
0000
,
2000
0000
0000
3001
0000
0000
0000
0000
0020
0000
0000
0100
0000
0000
0000
0000
,
0031
0000
0000
1000
0000
0001
1001
0000
,
1000
0000
0000
0010
0000
0010
0110
0000
,
0100
0000
0000
0001
0000
1000
1001
0000
,
0001
0000
0000
0001
0000
0000
0001
0000
0000
0000
1000
0000
1100
0000
0000
0000
,
0100
0000
0010
0001
0000
0001
1001
0000
,
1000
0000
0010
0100
0000
0100
0101
0000
,
0001
1000
0010
0000
1000
0001
0010
0000
,
0001
0100
0010
0000
1000
0010
0100
0001
,
0200
0000
0000
0300
,
0001
1000
0001
0000
1000
0000
1001
0000
,
0001
0000
0010
0000
0001
1000
0010
0000
,
1000
0000
0001
0010
0100
0010
0001
0000
,
1000
0000
0010
0100
0001
0000
0100
0010
,
1000
0001
0010
0000
1000
0010
0100
0000
,
1000
0001
0100
0110
,
0010
1000
0001
1001
,
2000
0000
0000
0000
3001
0010
0100
0020
,
0000
0031
1000
0100
0010
0001
1000
0010
,
0100
0000
0001
0000
1000
0100
0010
0000
,
0100
0000
1000
0010
0100
0010
1000
0000
,
0001
0000
0010
0001
1000
0000
0001
0100
,
0001
1000
0100
0000
0010
0001
1000
0000
,
0010
0100
0001
1001
,
1000
0100
0010
0110
,
0200
0000
0000
0000
0000
0000
1300
1002
,
0000
0000
0103
0110
,
0010
0000
1000
0000
0001
0010
0100
0000
,
0001
0000
0000
0000
0100
0000
0000
0000
1000
0000
0000
1000
0000
0000
1000
0000
,
0010
0000
0100
0000
0001
0100
0010
0000
,
1000
0100
0010
0000
0001
1000
0010
1000
,
0100
0010
0001
0101
,
0100
0010
1000
1100
,
0100
0010
0001
0000
1000
0000
0010
0200
,
0000
0300
0001
1000
,
2002
0000
0000
0000
,
0000
0000
0000
0000
,
3003
0000
0000
0000
;

//---------------dance-double - ----------------
#NOTES:
     dance-double:
     :
     Medium:
     8:
     0.318700,0.341942,0.107161,0.136387,0.068194,229.000000,218.000000,11.000000,14.000000,0.000000,0.000000,0.318700,0.341942,0.107161,0.136387,0.068194,229.000000,218.000000,11.000000,14.000000,0.000000,0.000000:
00000000
00000000
00000000
00000000
,
00000000
00000000
00000000
00000000
,
10000000
00010000
01000000
00000000
,
00002000
00003000
00010000
00011000
,
00001000
00000100
00000001
00000000
,
00001000
00000000
00000000
00000000
00000100
00000000
00000000
00000000
00010000
00000000
00000000
00010000
00000000
00000000
00010000
00000000
,
00001000
00100000
01000000
00000000
,
10000000
00000000
00100000
00000000
01000000
00010000
00100000
00000000
,
00001000
00010000
00000100
00000100
,
00010000
00001000
01000000
01000000
,
00010000
00000000
10000000
00000000
01000000
00000000
00100000
00002000
,
00000000
00013000
00000010
00000000
00000100
00000001
00001000
00000000
,
00000200
00000000
00000000
00000000
00000000
00000000
00010300
00001000
,
00000000
01000000
00010000
00100000
00000000
01100000
00000000
00000000
,
01000000
00000000
00000000
10000000
00000000
00000000
00000000
00010000
00000000
00000000
00000000
01000000
00000000
01000000
00000000
00000000
,
00010000
00000000
00000000
00100000
00000000
00001000
00000000
00010000
00000000
00000000
00000000
00000000
00000010
00000000
00001000
00000000
,
00000002
00000000
00000000
00000000
00000000
00000000
00000013
00000000
00000200
00000000
00000000
00010000
00000000
00010300
00000000
00000000
,
00002000
00000000
00000000
01003000
00000000
00000000
00010000
00000000
00200000
00000000
00000000
01300000
00000000
00000000
00000000
00000000
,
10000000
00000000
00000000
00010000
00000000
00010000
01000000
00000000
,
00001000
00000000
00000000
00010000
00000000
00010000
00010010
00000000
,
00000010
00000000
00000000
00001000
00000000
00001000
00000001
00000000
,
00000010
00000000
00000000
00000010
00000000
00000000
00000100
00000000
00000000
00000000
00010000
00000000
00011000
00000000
00000000
00000000
,
00001000
00000000
01000000
00010000
00000000
00010000
10000000
00000000
,
01000000
00000000
00010000
00001000
00000000
00001000
00000010
00000000
,
00000001
00001000
00000100
00010000
,
00001000
00100000
01000000
00000000
00100000
00010000
01000000
00000000
,
00200000
00000000
00000000
00000000
,
10300000
00010000
10000000
00000000
01000000
00000000
01100000
00000000
,
00100000
00001000
00010000
00000000
00001000
00000000
00010000
00000000
,
00000010
00000000
00001000
00000000
00000010
00001000
00000100
00000000
,
00000010
00000001
00001000
00000000
00000010
00000000
00010000
00000000
,
00001000
00100000
00010000
00000000
01000000
00010000
10000000
00000000
,
00010000
00001000
00000001
00001001
,
00001000
00010000
10000000
10010000
,
00020000
00000000
00000000
00000000
00000000
00000000
00130000
00001000
,
00000000
00010000
00000010
00001000
00000100
00001000
00000010
00000000
,
00000100
00000001
00001000
00000000
00000100
00000000
00000001
00000000
,
00000100
00000000
00001000
00000000
00000100
00010000
00001000
00000000
,
01000000
00001000
00010000
00000000
01000000
00000000
00100000
00000000
,
00010000
01000000
00001000
00000000
00010000
00000010
00000100
00000000
,
00000001
00001000
00010000
10010000
,
10000000
00010000
00001000
00001001
,
00000002
00000000
00000000
00000000
00000000
00000000
00000103
00000020
,
00000000
00000030
00010000
00011000
,
00001000
01000000
00010000
10000000
,
01000000
00000000
00000000
00000000
00010000
00000000
00000000
00000000
00001000
00000000
00000000
00001000
00000000
00000000
00001000
00000000
,
00010000
00000010
00000100
00000001
,
00001000
00000000
00000100
00000000
00010000
00001000
01000000
00000000
,
00010000
00001000
00000001
00000001
,
00001000
00010000
10000000
10000000
,
01000000
00000000
00100000
00000000
00001000
00010000
00000010
00020000
,
00000000
00030000
00001000
00010000
,
00022000
00000000
00000000
00000000
,
00000000
00000000
00000000
00000000
,
00033000
00000000
00000000
00000000
;

//---------------dance-single - ----------------
#NOTES:
     dance-single:
     :
     Easy:
     5:
     0.235198,0.289335,0.087677,0.233806,0.014613,169.000000,160.000000,9.000000,24.000000,0.000000,0.000000,0.235198,0.289335,0.087677,0.233806,0.014613,169.000000,160.000000,9.000000,24.000000,0.000000,0.000000:
0000
0000
0000
0000
,
0000
0000
0000
0000
,
1000
0000
0001
0000
,
2000
0000
3000
1001
,
0001
0100
0010
0000
,
1000
0001
0010
0010
,
0001
1000
0010
0000
,
0100
0001
1000
0100
,
0010
0001
0200
0300
,
0010
1000
0200
0300
,
0010
0001
1000
0010
,
0100
0001
1000
1000
,
0200
0000
0000
0000
0300
0000
0000
0010
,
0000
0000
0000
0001
0000
1000
0000
0000
,
0002
0000
0000
0000
0000
0000
0000
0000
0003
0000
0000
0100
0000
0010
0000
0000
,
2000
0000
0000
0000
3000
0000
0001
0010
,
0200
0000
0000
0300
2000
0000
0000
3000
,
0002
0000
0000
0003
0200
0000
0000
0300
,
0010
1000
0001
0001
,
0010
0001
1000
1001
,
0001
0010
0100
0100
,
1000
0000
0000
0001
0000
0000
1000
0000
0000
0000
0000
0000
1001
0000
0000
0000
,
0001
0100
0010
0010
,
1000
0001
0000
0010
,
0001
1000
0010
1000
,
0100
0010
0001
0001
,
2000
0000
0000
3000
,
0001
0100
0010
0110
,
0100
0001
1000
0000
,
0100
0010
0100
0100
,
1000
0001
0100
0000
,
0010
1000
0010
0010
,
0100
0001
0020
0030
,
0100
1000
0020
0030
,
0220
0000
0000
0330
,
0100
0001
1000
1000
,
0100
0010
0001
0000
,
0010
0001
0100
0100
,
0010
1000
0001
0000
,
0010
0001
0100
0100
,
0010
1000
0200
0300
,
0010
0001
0200
0300
,
0220
0000
0000
0000
0330
0000
0000
0110
,
0000
0000
0001
1001
,
1000
0001
0010
0100
,
1000
0100
0010
0010
,
0001
0100
0010
0100
,
0001
0100
0010
0010
,
1000
0001
0020
0030
,
0001
1000
0020
0030
,
0100
0000
0001
0000
1000
0000
0100
0020
,
0000
0000
0030
0001
,
2002
0000
0000
0000
,
0000
0000
0000
0000
,
3003
0000
0000
0000
;

//---------------dance-double - ----------------
#NOTES:
     dance-double:
     :
     Easy:
     5:
     0.224065,0.289335,0.068194,0.136387,0.014613,161.000000,154.000000,7.000000,14.000000,0.000000,0.000000,0.224065,0.289335,0.068194,0.136387,0.014613,161.000000,154.000000,7.000000,14.000000,0.000000,0.000000:
00000000
00000000
00000000
00000000
,
00000000
00000000
00000000
00000000
,
10000000
00000000
00010000
00000000
,
20000000
00000000
30000000
10010000
,
00010000
01000000
00001000
00000000
,
00010000
00000010
00000100
00000100
,
00001000
00010000
00000100
00000000
,
00000010
00000001
00001000
00001000
,
00000010
00001000
00010000
00000000
,
00100000
00010000
00001000
00000000
,
00000010
00000100
00000010
00010000
,
00000100
00001000
00010000
00010000
,
00200000
00000000
00000000
00000000
00300000
00000000
00000000
00010000
,
00000000
00000000
00000000
10000000
00000000
00100000
00000000
00000000
,
02000000
00000000
00000000
00000000
00000000
00000000
00000000
00000000
03000000
00000000
00000000
00001000
00000000
00010000
00000000
00000000
,
00000200
00000000
00000000
00000000
00000300
00000000
00000010
00000001
,
00000200
00000000
00000000
00000300
00000020
00000000
00000000
00000030
,
00020000
00000000
00000000
00030000
00002000
00000000
00000000
00003000
,
00100000
00010000
01000000
01000000
,
00010000
10000000
00000000
10010000
,
00010000
00100000
00001000
00010000
,
00000010
00000000
00000000
00001000
00000000
00000000
00000010
00000000
00000000
00000000
00000000
00000000
00000110
00000000
00000000
00000000
,
00000100
00000001
00001000
00000000
,
00000100
00010000
00001000
00000000
,
01000000
01000000
00010000
00010000
,
10000000
01000000
00100000
00000000
,
00002000
00000000
00000000
00000000
,
00003000
00000000
00010000
00011000
,
00001000
00000100
00000010
00000000
,
00001000
00000100
00000010
00000010
,
00000100
00010000
00001000
00000000
,
00000100
00010000
00001000
00001000
,
00100000
00010000
00001000
00000000
,
00000010
00001000
00010000
00000000
,
02000000
00000000
00000000
03000000
,
00100000
00010000
10000000
10000000
,
00100000
00010000
00001000
00000000
,
00100000
00010000
00001000
00001000
,
00000010
00000100
00000001
00000000
,
00000010
00000100
00000001
00000001
,
00000100
00001000
00010000
00000000
,
01000000
00010000
00001000
00000000
,
00000020
00000000
00000000
00000000
00000030
00000000
00000000
00000110
,
00000000
00000000
00000001
00001001
,
00001000
00000100
00010000
00010000
,
00001000
01000000
00010000
00100000
,
01000000
00100000
00010000
00010000
,
01000000
00001000
00010000
00000000
,
00000010
00001000
00010000
00000000
,
00100000
00010000
00001000
00000000
,
00000100
00000000
00000010
00000000
00000001
00000000
00001000
00000020
,
00000000
00000000
00000030
00000100
,
00000220
00000000
00000000
00000000
,
00000000
00000000
00000000
00000000
,
00000330
00000000
00000000
00000000
;

//---------------dance-single - ----------------
#NOTES:
     dance-single:
     :
     Beginner:
     2:
     0.119687,0.184123,0.068194,0.233806,0.000000,86.000000,79.000000,7.000000,24.000000,0.000000,0.000000,0.119687,0.184123,0.068194,0.233806,0.000000,86.000000,79.000000,7.000000,24.000000,0.000000,0.000000:
0000
0000
0000
0000
,
0000
0000
0000
0000
,
0000
0000
0000
0000
,
0000
0000
0000
0000
,
0001
0000
0100
0000
,
0010
0000
0100
0000
,
0001
0000
1000
0000
,
0100
0000
0100
0000
,
0020
0000
0030
0000
,
0002
0000
0003
0000
,
1000
0000
0010
0000
,
0100
0000
0100
0000
,
0020
0000
0000
0000
,
0030
0000
1001
0000
,
2000
3000
0002
0003
,
0200
0300
0020
0030
,
2000
3000
0020
0030
,
0200
0300
0002
0003
,
1000
0000
0100
0000
,
1000
0000
1001
0000
,
0001
0000
0100
0000
,
0001
0000
1001
0000
,
1000
0000
0100
0000
,
0010
0000
0001
0000
,
0200
0000
0000
0000
,
0300
0000
0010
0000
,
0020
0000
0030
0000
,
0100
0000
0110
0000
,
0010
0000
1000
0000
,
0010
0000
0010
0000
,
0100
0000
0001
0000
,
0010
0000
0010
0000
,
0002
0000
0003
0000
,
2000
0000
3000
0000
,
0020
0000
0000
0000
,
0030
0000
0110
0000
,
0100
0000
0001
0000
,
0100
0000
0100
0000
,
0010
0000
1000
0000
,
0100
0000
0100
0000
,
0020
0000
0030
0000
,
0002
0000
0003
0000
,
2000
0000
0000
0000
,
3000
0000
1001
0000
,
0001
0000
0100
0000
,
0010
0000
1000
0000
,
0100
0000
0010
0000
,
0001
0000
0001
0000
,
2000
0000
3000
0000
,
0002
0000
0003
0000
,
0100
0000
0010
0000
,
0200
0000
0300
0000
,
2002
0000
0000
0000
,
0000
0000
0000
0000
,
3003
0000
0000
0000
;
