#TITLE:GAI∀PEX;
#SUBTITLE:;
#ARTIST:MYUKKE.;
#TITLETRANSLIT:GAIAPEX;
#SUBTITLETRANSLIT:;
#ARTISTTRANSLIT:;
#GENRE:;
#CREDIT:;
#BANNER:gaiapex-bn.jpg;
#BACKGROUND:gaiapex-bg.jpg;
#LYRICSPATH:;
#CDTITLE:cdtitle.png;
#MUSIC:gaiapex.mp3;
#OFFSET:-0.092000;
#SAMPLESTART:24.091999;
#SAMPLELENGTH:11.294000;
#SELECTABLE:YES;
#BPMS:0.000000=170.000000
;
#STOPS:
;
#BGCHANGES:;
#KEYSOUNDS:;
#ATTACKS:;

//---------------dance-single - ----------------
#NOTES:
     dance-single:
     :
     Challenge:
     15:
     0.732738,0.886102,0.272647,0.621975,0.417490,602.000000,570.000000,32.000000,73.000000,0.000000,0.000000,0.732738,0.886102,0.272647,0.621975,0.417490,602.000000,570.000000,32.000000,73.000000,0.000000,0.000000:
0000
0000
0000
0000
,
0000
0000
0000
0000
,
0000
0000
0000
0000
,
0000
0000
0000
0000
,
0000
0000
0000
0000
,
0001
0000
0000
0000
0010
0000
0000
0000
0100
0000
0000
1000
0000
0000
0001
0000
,
0000
0100
0010
0100
0001
0000
1001
0000
,
1000
0000
0010
0000
1000
0001
0100
0010
,
1000
0000
0100
0000
0010
0000
0001
1000
0001
0100
0010
0000
1010
0000
0000
0000
,
0101
0000
0001
0100
0001
0000
0100
0010
0100
0000
0010
1000
0010
0000
1000
0100
,
1000
0000
0010
1000
0010
0000
0100
0001
0100
0000
0001
1000
0001
0000
0100
0000
,
0010
0000
1000
0100
1000
0000
0001
0010
0001
0000
1000
0010
1000
0000
0001
0100
,
0010
0000
1000
0100
0010
0000
0001
1000
0001
0100
0010
0100
0001
0000
0010
0000
,
1100
0000
1100
0000
1100
0000
1100
1000
,
0011
0000
0011
0000
0011
0000
0011
0001
,
0110
0010
1000
0100
0010
0001
0100
0010
,
1000
0100
1000
0001
1000
0100
1000
0001
0100
0010
0100
0001
2000
0000
0000
0000
,
3001
0000
0100
0000
0010
0000
1000
0100
0010
0000
0001
0000
0100
0001
1000
0000
,
0001
0000
0100
0001
0010
0000
0001
0000
1000
0100
0010
0100
1000
0000
0010
0000
,
1000
0000
0001
0000
0100
0000
0010
0100
0001
0000
1000
0000
0010
1000
0001
0000
,
1000
0000
0100
1000
0010
0000
0100
0000
0001
0100
0010
0100
0001
1000
0100
0000
,
1000
0001
0010
0000
0100
0000
1000
0001
0100
0000
0010
0000
1000
0100
0010
0000
,
0001
0000
1000
0010
0100
0000
0001
0000
0010
0100
1000
0100
0010
0000
0001
0000
,
1000
0010
0100
0000
0001
0000
0010
0001
0100
0000
0010
0000
1000
0100
0010
0000
,
0100
0000
1000
0001
0100
0000
0010
0000
1000
0010
0100
0001
0010
0100
1000
0000
,
0001
0100
1000
0001
0010
0100
0010
0001
,
1000
0100
0001
1000
0100
0010
0100
1000
,
0001
0010
1000
0001
0100
0010
0100
0001
,
1000
0010
0001
1000
0010
0100
0010
1000
,
0001
0100
1000
0001
0010
0100
0010
1000
,
0001
0010
1000
0001
0100
0010
0100
1000
,
0001
0100
1000
0001
0010
1000
0100
0001
,
1000
0010
0001
0100
1000
0100
0001
0010
,
0001
0100
0001
0100
0010
1000
0010
1000
,
0100
0010
0100
0010
0001
1000
0200
0000
,
0310
0001
0010
0001
0100
0010
0100
0010
,
1000
0001
1000
0001
0100
0010
2000
0000
,
3010
0100
0001
1000
0100
0010
0001
1000
,
0010
0100
0001
0010
0100
1000
0002
0000
,
0103
0010
1000
0001
0010
0100
1000
0001
,
1001
0110
2002
3003
,
2000
3020
0230
0302
0023
0230
2300
3002
,
2003
3200
0320
0230
2300
0000
0000
0000
,
3020
0230
0302
2003
3002
0203
0320
2030
,
3002
0023
0230
2300
3020
0000
0000
0000
,
0230
0302
2003
3200
0320
0032
0203
0320
,
2030
3200
0302
0203
2300
0000
0000
0000
,
3020
2030
3002
0203
0302
0023
0230
0320
,
0002
0000
0000
0033
,
1001
0010
0101
0001
1010
1000
0100
0010
,
0001
0010
1000
0010
0002
0000
1003
0000
,
0011
1000
1100
0001
0100
0010
1000
0001
,
0011
0010
0100
1000
1010
0010
0100
0001
,
1001
0001
0101
0100
1010
1000
0100
0010
,
0001
0100
0010
1000
0200
0000
0310
0000
,
1001
0001
1000
0010
0110
0100
0001
1000
,
0010
1000
0010
0000
1000
0010
1000
0000
0001
0100
0001
0000
0100
0001
0100
0000
,
0001
0000
0010
0100
0010
0000
1000
0010
1000
0000
0010
0100
0010
0000
0001
0000
,
1000
0000
0010
0100
0010
0000
0001
0010
0001
0000
0010
0100
0010
0000
1000
0000
,
0001
0000
0100
0010
0100
0000
1000
0100
1000
0000
0100
0010
0100
0000
0001
0000
,
1100
0010
0101
0010
2002
3003
0110
0000
,
1000
0000
0010
1000
0100
0000
1000
0100
0001
0000
0100
0010
0001
0000
1000
0000
,
0001
0000
0010
0001
0100
0000
0001
0100
1000
0000
0100
0010
1000
0000
0001
0000
,
1000
0000
0100
1000
0001
0000
0010
0001
1000
0000
0010
1000
0001
0000
0010
0000
,
0001
0000
0000
1000
0000
0000
0001
0000
0000
1000
0000
0000
0100
0000
0010
0000
0100
0000
0010
0000
0100
0000
0010
0000
,
0002
0103
2000
3100
,
0002
0000
0000
0103
0000
0000
1010
0000
1000
0001
0000
0100
,
0002
0013
2000
3010
,
0002
0000
0000
0013
0000
0000
1000
0100
0010
0001
0000
0000
,
0100
0000
0100
0010
0000
0010
1000
0000
1000
0001
0000
0001
,
0100
0000
0100
0001
0000
0001
1000
0000
1000
0010
0000
0010
,
1000
0000
0100
0010
0100
0010
0001
0000
0100
0010
0100
0010
,
1000
0100
0010
0001
0100
0010
1000
0001
1000
0001
0000
0000
,
0200
0000
0000
0000
,
0320
0000
2030
0000
,
3002
0000
0000
0000
,
0023
0000
0000
0000
,
0230
0000
0000
0000
,
2300
0000
3002
0000
,
0203
0000
0000
0000
,
0300
0000
0000
0000
;

//---------------dance-double - ----------------
#NOTES:
     dance-double:
     :
     Challenge:
     15:
     0.719349,0.897178,0.298207,0.639016,0.366369,591.000000,556.000000,35.000000,75.000000,0.000000,0.000000,0.719349,0.897178,0.298207,0.639016,0.366369,591.000000,556.000000,35.000000,75.000000,0.000000,0.000000:
// measure 0
00000000
00000000
00000000
00000000
,  // measure 1
00000000
00000000
00000000
00000000
,  // measure 2
00000000
00000000
00000000
00000000
,  // measure 3
00000000
00000000
00000000
00000000
,  // measure 4
00000000
00000000
00000000
00000000
,  // measure 5
10000000
00000000
00000000
00000000
10100000
00000000
00000000
00000000
00010000
00000000
00000000
01000000
00000000
00000000
00001000
00000000
,  // measure 6
00000000
00010000
00000010
00001000
00000100
00000000
00000110
00000000
,  // measure 7
00000010
00000000
00001001
00000000
00000001
00000100
00000010
00001000
,  // measure 8
00000100
00000000
00010000
00001000
00010000
00000000
00001000
00100000
00010000
00100000
00010000
01000000
00200000
00000000
00300000
00000000
,  // measure 9
10100000
00000000
10000000
01000000
10000000
00000000
00100000
01000000
00100000
00000000
01000000
00010000
01000000
00000000
00001000
00010000
,  // measure 10
00001000
00000000
00000100
00000010
00000100
00000000
00000001
00000010
00000001
00000000
00001000
00000001
00001000
00000000
00000001
00000000
,  // measure 11
00000100
00000000
00000010
00001000
00000010
00000000
00010000
00000100
00010000
00000000
00001000
00100000
00001000
00000000
01000000
00010000
,  // measure 12
01000000
00000000
00010000
10000000
00010000
00000000
10000000
01000000
00100000
00010000
00100000
00010000
10000000
00000000
00100000
00000000
,  // measure 13
01000000
01000000
00010000
00010000
,  // measure 14
00001000
00000000
00001000
00000000
00000010
00000000
00000010
00001000
,  // measure 15
00000001
00000010
00000100
00001000
00000010
00000100
00000010
00001000
,  // measure 16
00000100
00010000
00000100
00010000
00001000
00100000
00001000
00100000
00010000
10000000
00010000
10000000
00200000
00000000
00000000
00000000
,  // measure 17
10300000
00000000
00100000
00000000
01000000
00000000
00010000
00100000
00001000
00000000
00100000
00000000
00001000
00010000
00001000
00000000
,  // measure 18
00000010
00000000
00000001
00000100
00000010
00000000
00001000
00000000
00000100
00010000
00001000
00010000
00001000
00000000
00100000
00000000
,  // measure 19
00010000
00000000
10000000
00000000
00100000
00000000
10000000
01000000
00100000
00000000
01000000
00000000
10000000
00010000
00100000
00000000
,  // measure 20
00001000
00000000
00010000
00001000
00000100
00000000
00000001
00000000
00000010
00000100
00000010
00000100
00001000
00000100
00001000
00000100
,  // measure 21
00010000
00001000
00100000
00000000
00010000
00000000
10000000
01000000
00100000
00000000
01000000
00000000
00100000
00010000
00100000
00000000
,  // measure 22
00010000
00000000
00010000
00000100
00001000
00000000
00000010
00000000
00000010
00001000
00000001
00000100
00000010
00000000
00001000
00000000
,  // measure 23
00000001
00000000
00000010
00000000
00000100
00000000
00001000
00000010
00000100
00000000
00001000
00000000
00000100
00001000
00010000
00000000
,  // measure 24
00100000
00000000
01000000
10000000
00010000
00000000
01000000
00000000
00010000
00100000
01000000
00100000
00010000
00000000
00000000
00000000
,  // measure 25
10000000
01000000
00010000
00001000
00000100
00000001
00000010
00000010
,  // measure 26
00000001
00000100
00001000
00010000
01000000
10000000
00100000
00100000
,  // measure 27
10000000
00100000
00010000
00001000
00000010
00000001
00000100
00000100
,  // measure 28
00000001
00000010
00001000
00010000
00100000
10000000
01000000
01000000
,  // measure 29
10000000
00100000
00010000
00001000
00000100
00000001
00000010
00000010
,  // measure 30
00000001
00000100
00001000
00010000
00100000
10000000
01000000
01000000
,  // measure 31
10000000
01000000
00010000
00001000
00000010
00000001
00000100
00000100
,  // measure 32
00000001
00000010
00001000
00010000
00100000
10000000
01000000
01000000
,  // measure 33
10000000
01000000
00100000
00010000
01000000
00100000
00010000
00001000
,  // measure 34
00100000
00010000
00001000
00000100
00010000
00001000
00000200
00000000
,  // measure 35
00000301
00000010
00000100
00001000
00000010
00000100
00001000
00010000
,  // measure 36
00000100
00001000
00010000
00100000
00001000
00010000
00200000
00000000
,  // measure 37
10300000
00100000
01000000
00010000
00100000
01000000
00010000
00001000
,  // measure 38
00100000
00001000
00010000
00000100
00001000
00000010
00000200
00000000
,  // measure 39
00000301
00000100
00000010
00001000
00000100
00000010
00001000
00010000
,  // measure 40
02000000
03000000
00200000
00300000
10010000
00000000
01100000
00000000
,  // measure 41
20000000
32000000
23000000
30200000
02300000
03020000
00230000
00302000
,  // measure 42
00023000
00030200
00002300
00003020
00000230
00000000
00000001
00000000
,  // measure 43
00000302
00000023
00000032
00000203
00000320
00002030
00003200
00020300
,  // measure 44
00032000
00203000
00320000
02030000
03200000
00000000
10000000
00000000
,  // measure 45
20300000
30200000
20300000
32000000
03200000
00320000
02030000
03002000
,  // measure 46
00023000
00030020
00002030
00003200
00000320
00000000
00000001
00000000
,  // measure 47
00000032
00000203
00000302
00000023
00000230
00002300
00003020
00020030
,  // measure 48
00002000
00000000
00000000
00033000
,  // measure 49
00110000
00010000
01000000
10000000
11000000
01000000
00100000
10000000
,  // measure 50
01100000
00100000
00010000
00001000
00000200
00000000
00000310
00000000
,  // measure 51
00001010
00001000
00000001
00010000
00010010
00000010
00001000
00000100
,  // measure 52
00010100
00010000
00001000
00100000
00110000
00100000
10000000
00100000
,  // measure 53
10010000
10000000
01000000
00100000
01010000
01000000
00001000
00010000
,  // measure 54
00011000
00010000
00001000
00000100
00001002
00000000
00000103
00000000
,  // measure 55
00000110
00000100
00001000
00000010
00001010
00001000
00010000
01000000
,  // measure 56
00200000
00010000
00010000
00310000
,  // measure 57
10010000
00000000
10000000
01000000
00100000
00000000
01000000
00100000
00010000
00000000
00100000
00010000
00001000
00000000
00000010
00000000
,  // measure 58
00001001
00000000
00000001
00000010
00000100
00000000
00000010
00000100
00001000
00000000
00000100
00001000
00010000
00000000
01000000
00000000
,  // measure 59
01010000
00000000
10000000
01000000
00010000
00000000
00001000
00000000
00001100
00000000
00000001
00000100
00001000
00000000
00010000
00000000
,  // measure 60
10010000
00010000
10000000
00100000
02000000
00000000
03010000
00000000
,  // measure 61
10100000
00000000
10000000
00100000
01000000
00000000
00100000
01000000
00010000
00000000
00100000
00001000
00010000
00000000
00000010
00000000
,  // measure 62
00001001
00000000
00000001
00000100
00000010
00000000
00000100
00000010
00001000
00000000
00000100
00010000
00001000
00000000
00100000
00010000
,  // measure 63
10000000
00000000
00100000
01000000
00010000
00000000
00100000
00010000
01000000
00000000
00100000
00010000
00001000
00000000
00100000
00000000
,  // measure 64
00001000
00000000
00000000
00010000
00000000
00000000
00001000
00000000
00000000
00010000
00000000
00000000
00001000
00000000
00010000
00000000
00001000
00000000
00010000
00000000
00001000
00000000
00010000
00000000
,  // measure 65
00200000
10300000
20000000
31000000
,  // measure 66
00200000
00000000
00000000
01300000
00000000
00000000
10000000
01000000
00010000
00001000
00000000
00001000
,  // measure 67
00000020
00000031
00000002
00000103
,  // measure 68
00000020
00000000
00000000
00000130
00000000
00000000
00001000
00000100
00000001
00000010
00000000
00000000
,  // measure 69
00001001
00001100
00011000
00110000
,  // measure 70
10010000
10100000
01100000
01010000
,  // measure 71
00011000
00000000
00010000
00100000
00000000
10000000
01000000
00000000
10000000
00100000
00000000
01000000
,  // measure 72
00001000
00010000
00001000
00010000
00000100
00001000
00000100
00001000
00000010
00000200
00000000
00000000
,  // measure 73
00000320
00000000
00000000
00000000
,  // measure 74
00002030
00000000
00003002
00000000
,  // measure 75
00000023
00000000
00000000
00000000
,  // measure 76
00000230
00000000
00000000
00000000
,  // measure 77
00002300
00000000
00000000
00000000
,  // measure 78
00003020
00000000
00002030
00000000
,  // measure 79
00020000
00000000
00000000
00000000
,  // measure 80
00000000
00000000
00000000
00000000
,  // measure 81
00033000
00000000
00000000
00000000
;

//---------------dance-single - ----------------
#NOTES:
     dance-single:
     :
     Hard:
     13:
     0.544076,0.613455,0.255606,0.332288,0.144844,447.000000,417.000000,30.000000,39.000000,0.000000,0.000000,0.544076,0.613455,0.255606,0.332288,0.144844,447.000000,417.000000,30.000000,39.000000,0.000000,0.000000:
0000
0000
0000
0000
,
0000
0000
0000
0000
,
0000
0000
0000
0000
,
0000
0000
0000
0000
,
0000
0000
0000
0000
,
2000
0000
0000
0000
3010
0000
0000
0000
0100
0000
0000
0001
0000
0000
1000
0000
,
0000
0010
1000
0010
0100
0000
1001
0000
,
0001
0000
1000
0000
0001
0100
0010
1000
,
0100
0010
0001
1000
0010
0000
0110
0000
,
1000
0100
0001
0100
0010
0100
0001
0100
,
1000
0010
0100
0010
0001
0010
1000
0000
,
0001
0100
0010
0100
1000
0100
0010
0100
,
0001
0010
1000
0010
0100
0010
0001
0000
,
1000
0100
1000
0010
1000
0001
0100
0000
,
0010
1000
0010
0100
0010
1000
0100
0000
,
1000
0100
0010
0000
0001
0100
0010
0000
,
1000
0010
0100
0001
1000
0100
0010
0000
,
0001
0100
0000
0001
1000
0000
0100
1000
,
0000
0010
1000
0000
0001
0001
1000
0000
,
0100
0010
0000
0001
1000
0000
0010
1000
,
0000
0000
0100
0000
0010
0000
0000
0000
0001
0100
0001
0100
0001
0000
0000
0000
,
1000
0001
0000
1000
0010
0000
0100
0001
,
0000
0010
0001
0000
0010
0010
0100
0000
,
1000
0010
0000
0100
0001
0000
1000
0100
,
0000
0000
0010
0000
0001
0000
0000
0000
0100
0010
0100
0010
0100
0000
0000
0000
,
0001
0100
0010
1000
0001
0100
0010
1000
,
0001
0010
0100
1000
0001
0010
0100
0000
,
1000
0010
0100
0001
1000
0010
0100
0001
,
1000
0100
0010
0001
1000
0100
0010
0000
,
0001
0100
0001
1000
0001
0100
0001
0000
,
1000
0100
1000
0001
1000
0100
1000
0000
,
0001
0010
0001
1000
0001
0010
0001
1000
,
0001
0100
0010
1000
0100
0010
0001
0000
,
1000
0010
1000
0000
0001
0100
0001
0000
,
1000
0100
1000
0000
0001
0010
0001
0000
,
1000
0010
0100
0000
0010
0100
0001
0000
,
1000
0100
0010
0000
0100
0010
0001
0000
,
1000
0010
1000
0010
0100
0001
0100
0001
,
1000
0100
1000
0100
0010
0001
0010
0000
,
0001
0100
0001
0100
0010
1000
0010
1000
,
0001
0110
2002
3003
,
2000
3200
0320
0230
,
2300
3002
0203
0000
,
0320
2030
3020
0230
,
0302
0023
0230
0000
,
2300
3002
2003
3200
,
0320
0032
2003
0000
,
3002
0203
0320
2030
,
0002
0000
0000
3003
,
1000
0100
0001
0100
0010
0001
0100
0010
,
1000
0010
0100
0001
2000
0000
0000
0000
,
3001
0010
0100
0010
0100
1000
0010
0100
,
0001
0010
1000
0010
0001
0100
1000
0000
,
0100
0010
1000
0010
0100
0001
0010
0100
,
1000
0001
1000
0100
0020
0000
0000
0000
,
0031
0100
0010
1000
0001
0010
0100
1000
,
1001
0110
1001
0110
,
1000
0000
0000
1000
0100
0000
0000
0100
0010
0000
0000
0010
0001
0000
0000
0001
,
0100
0000
0000
0100
0001
0000
0000
0001
1000
0000
0000
1000
0010
0000
0000
0010
,
0100
0000
0000
0100
0010
0000
0000
0010
1000
0000
0000
1000
0010
0000
0000
0010
,
0100
0001
1000
0001
0100
0000
0101
0000
,
0001
0000
0000
0001
0010
0000
0000
0010
0100
0000
0000
0100
0010
0000
0000
0010
,
0100
0000
0000
0100
1000
0000
0000
1000
0001
0000
0000
0001
0100
0000
0000
0100
,
0010
0000
0000
0010
0100
0000
0000
0100
0001
0000
0000
0001
1000
0000
0000
0000
,
0010
0000
0000
0100
0000
0000
0010
0000
0000
0100
0000
0000
0001
0000
0010
0000
0100
0000
1000
0000
0000
0000
0000
0000
,
1010
0010
0101
0001
,
1100
0010
2002
3003
,
1010
0100
1001
1000
,
0101
1100
0101
0000
,
0011
0011
0110
0110
,
1100
1100
1001
1001
,
1010
0011
0101
1100
,
1000
0100
0010
0001
0000
0000
1000
0010
0100
0001
0000
0000
,
0020
0000
0000
0000
,
0230
0000
0000
0000
,
2300
0000
0000
0000
,
0001
0000
0000
0000
,
3020
0000
0000
0000
,
0230
0000
0000
0000
,
0302
0000
0000
0000
,
0003
0000
0000
0000
;

//---------------dance-single - ----------------
#NOTES:
     dance-single:
     :
     Medium:
     11:
     0.429662,0.511213,0.153364,0.391930,0.008520,353.000000,335.000000,18.000000,46.000000,0.000000,0.000000,0.429662,0.511213,0.153364,0.391930,0.008520,353.000000,335.000000,18.000000,46.000000,0.000000,0.000000:
0000
0000
0000
0000
,
0000
0000
0000
0000
,
0000
0000
0000
0000
,
0000
0000
0000
0000
,
0000
0000
0000
0000
,
0002
0000
0000
0000
,
2003
0000
0000
0000
,
3020
0000
0000
0000
,
0130
0001
1000
1001
,
0001
0100
0001
0000
0001
0010
0001
0000
,
1000
0010
1000
0000
1000
0100
1000
0000
,
0001
0100
0001
0000
1000
0010
1000
0000
,
0010
0000
0100
0000
0001
0001
1000
0000
,
0100
1000
0100
0000
0100
1000
0100
0000
,
0010
0001
0010
0000
0010
0001
0010
0000
,
0001
0100
0010
1000
,
0001
1000
0001
0000
1000
0001
1001
0000
,
1000
0000
0010
0000
0100
0010
0100
0000
,
0010
1000
0010
0000
2000
0000
3002
0000
,
0103
0000
0001
0000
0010
0001
0010
0000
,
0001
0100
0001
0000
0100
0100
0010
0000
,
1000
0000
0001
0000
0010
0100
0010
0000
,
0100
1000
0100
0000
2000
0000
3002
0000
,
0013
0000
0100
0000
1000
0001
1000
0000
,
0001
0000
0100
0010
1000
1000
0010
0000
,
1000
0100
0010
0000
0100
0010
0001
0000
,
0001
0010
0100
0000
0010
0100
1000
0000
,
1000
0100
0010
0000
0100
0010
0001
0000
,
0001
0010
0100
0000
1000
0010
0100
0000
,
0001
0100
0010
0000
0100
0010
1000
0000
,
1000
0010
0100
0000
0010
0100
0001
0000
,
0001
0100
0010
0000
0100
0010
1000
0000
,
1000
0010
0100
0000
0001
0010
0100
0000
,
1000
0100
1000
0000
0100
1000
0100
0000
,
1000
0100
1000
0000
0100
1000
0200
0000
,
0310
0001
0010
0000
0001
0010
0001
0000
,
0010
0001
0010
0000
0001
0010
0002
0000
,
1003
0010
1000
0000
0001
0010
0001
0000
,
1000
0010
1000
0000
0001
0100
0020
0000
,
1030
0100
1000
0000
0001
0100
0001
0000
,
1001
0110
1001
0000
,
1000
0002
0103
0002
,
0013
0002
1003
0002
,
0103
0020
1030
0020
,
0130
0020
1030
0020
,
1030
0001
0200
0310
,
0200
1300
0200
0310
,
2000
3002
0203
0320
,
2030
0000
0000
3001
,
0100
0000
0010
0000
1000
0100
0010
0000
,
0001
0100
0010
1000
0001
0000
0000
0000
,
0010
0000
0100
0000
1000
0100
0010
0000
,
0001
1000
0001
0000
1000
0001
1000
0000
,
0001
0000
0100
0000
0001
1000
0001
0000
,
0010
0001
0010
0100
2000
0000
0000
0000
,
3001
0000
0100
0000
0010
1000
0001
0000
,
2000
3002
0203
0320
,
1030
1000
0100
0000
0010
0000
0100
0000
,
1000
1000
0010
0000
0100
0000
0010
0000
,
0100
0100
0001
0000
0010
0000
0001
0000
,
0100
0100
0010
0000
1000
0000
0001
0000
,
0010
0010
0100
0000
1000
0000
0001
0000
,
0010
0010
0001
0000
0100
0000
0010
0000
,
1000
1000
0001
0000
0001
0001
1000
0000
,
0010
0000
0000
0100
0000
0000
0001
0010
0100
1000
0000
0000
,
0002
0013
2000
3010
,
1001
0110
1001
0000
,
2000
3010
0002
0013
,
1001
0110
1001
0000
,
0002
0103
2000
3100
,
1001
0110
1001
0000
,
2000
3100
0002
0103
,
1001
0110
1001
0000
,
2000
0000
0000
0000
,
3002
0000
0000
0000
,
0203
0000
0000
0000
,
0320
0000
0000
0000
,
2030
0000
0000
0000
,
3001
0000
0100
0000
,
0220
0000
0000
0000
,
0330
0000
0000
0000
;

//---------------dance-single - ----------------
#NOTES:
     dance-single:
     :
     Easy:
     6:
     0.231263,0.340808,0.119283,0.238566,0.000000,190.000000,176.000000,14.000000,28.000000,0.000000,0.000000,0.231263,0.340808,0.119283,0.238566,0.000000,190.000000,176.000000,14.000000,28.000000,0.000000,0.000000:
0000
0000
0000
0000
,
0000
0000
0000
0000
,
0000
0000
0000
0000
,
0000
0000
0000
0000
,
0000
0000
0000
0000
,
0000
0000
0000
0000
,
0000
0000
0000
0000
,
0000
0000
0000
0000
,
0000
0000
0000
0000
,
1000
1000
0100
0100
,
0001
0001
0010
0010
,
1000
1000
0010
0010
,
0001
0001
0100
0100
,
1000
1000
1000
1000
,
0001
0001
0001
0001
,
0010
0010
0001
1000
,
0010
0100
0010
1001
,
1000
0100
1000
0100
,
0001
0100
0001
0100
,
1000
0100
1000
0100
,
0001
0100
0001
0000
,
0001
0100
0001
0100
,
1000
0100
1000
0100
,
0001
0100
0001
0100
,
1000
0100
1000
0000
,
0002
0000
0100
0103
,
2000
0000
0100
3100
,
0002
0000
0010
0013
,
2000
0000
0010
3010
,
0002
0000
0100
0013
,
2000
0000
0100
3010
,
0002
0000
0010
0103
,
2000
0000
0010
3100
,
0001
0100
1000
0100
,
0001
0100
1000
0000
,
1000
0100
0001
0100
,
1000
0100
0001
0000
,
0001
0010
1000
0010
,
0001
0010
1000
0000
,
1000
0010
0001
0010
,
1001
0000
1001
0000
,
2000
0000
3200
0000
,
0302
0000
0023
0000
,
2030
0000
3200
0000
,
0302
0000
0023
0000
,
2030
0000
3020
0000
,
0032
0000
0203
0000
,
2300
0000
0002
0000
,
0000
0000
0000
3003
,
1000
0000
0001
0000
,
1000
0001
1000
0000
,
0100
0000
0010
0000
,
0100
0010
0100
0000
,
0001
0000
1000
0000
,
0001
1000
0001
0000
,
0010
0000
0100
0000
,
0010
0100
0010
0000
,
1000
0000
1000
0000
,
0001
0000
0001
0000
,
1000
0000
0100
0000
,
0001
0000
0010
0000
,
1000
0000
1000
0000
,
0001
0000
0001
0000
,
0010
0000
0100
0000
,
1000
0100
0001
0010
,
1001
0000
0000
0000
,
1001
0000
0000
0000
,
1001
0000
0000
0000
,
1001
0000
0000
0000
,
1100
0000
0000
0000
,
0101
0000
0000
0000
,
0011
0000
0000
0000
,
1010
0000
0000
0000
,
2002
0000
0000
0000
,
0000
0000
0000
0000
,
0000
0000
0000
3003
,
0220
0000
0000
0330
,
2002
0000
0000
0000
,
0000
0000
0000
0000
,
0000
0000
0000
0000
,
3003
0000
0000
0000
;

//---------------dance-single - ----------------
#NOTES:
     dance-single:
     :
     Beginner:
     1:
     0.093722,0.181480,0.042601,0.000000,0.000000,77.000000,72.000000,5.000000,0.000000,0.000000,0.000000,0.093722,0.181480,0.042601,0.000000,0.000000,77.000000,72.000000,5.000000,0.000000,0.000000,0.000000:
0000
0000
0000
0000
,
0000
0000
0000
0000
,
0000
0000
0000
0000
,
0000
0000
0000
0000
,
0000
0000
0000
0000
,
0000
0000
0000
0000
,
0000
0000
0000
0000
,
0000
0000
0000
0000
,
0000
0000
0000
0000
,
1000
0000
0000
0000
,
0001
0000
0000
0000
,
1000
0000
0000
0000
,
0001
0000
0000
0000
,
0100
0000
0000
0000
,
0010
0000
0000
0000
,
0100
0000
0000
0000
,
0010
0000
0000
0000
,
1000
0000
0000
0000
,
0100
0000
0000
0000
,
0001
0000
0000
0000
,
0010
0000
0000
0000
,
1000
0000
0000
0000
,
0010
0000
0000
0000
,
0001
0000
0000
0000
,
0100
0000
0000
0000
,
1000
0000
0000
0000
,
1000
0000
0000
0000
,
0001
0000
0000
0000
,
0001
0000
0000
0000
,
0010
0000
0000
0000
,
0010
0000
0000
0000
,
0100
0000
0000
0000
,
0100
0000
0000
0000
,
1000
0000
0000
0000
,
0100
0000
0000
0000
,
0010
0000
0000
0000
,
0001
0000
0000
0000
,
1000
0000
0000
0000
,
0010
0000
0000
0000
,
0100
0000
0000
0000
,
1001
0000
0000
0000
,
1000
0000
1000
0000
,
1000
0000
0000
0000
,
0001
0000
0001
0000
,
0001
0000
0000
0000
,
0010
0000
0010
0000
,
0010
0000
0000
0000
,
0100
0000
0100
0000
,
0100
0000
0000
0000
,
1000
0000
0000
0000
,
0001
0000
0000
0000
,
1000
0000
0000
0000
,
0001
0000
0000
0000
,
0100
0000
0000
0000
,
0010
0000
0000
0000
,
0100
0000
0000
0000
,
0010
0000
0000
0000
,
1000
0000
0001
0000
,
1000
0000
0001
0000
,
0100
0000
0010
0000
,
0100
0000
0010
0000
,
1000
0000
0001
0000
,
1000
0000
0001
0000
,
0100
0000
0010
0000
,
0100
0000
0010
0000
,
1001
0000
0000
0000
,
0000
0000
0000
0000
,
1001
0000
0000
0000
,
0000
0000
0000
0000
,
0110
0000
0000
0000
,
0000
0000
0000
0000
,
0110
0000
0000
0000
;

//---------------dance-double - ----------------
#NOTES:
     dance-double:
     :
     Hard:
     13:
     0.568420,0.613455,0.408970,0.110763,0.110763,467.000000,419.000000,48.000000,13.000000,0.000000,0.000000,0.568420,0.613455,0.408970,0.110763,0.110763,467.000000,419.000000,48.000000,13.000000,0.000000,0.000000:
00000000
00000000
00000000
00000000
,
00000000
00000000
00000000
00000000
,
00000000
00000000
00000000
00000000
,
00000000
00000000
00000000
00000000
,
00000000
00000000
00000000
00000000
,
00010000
00000000
00000000
00000000
00001000
00000000
00000000
00000000
00100000
00000000
00000000
00010000
00000000
00000000
10000000
00000000
,
00000000
00010000
01000000
00010000
00100000
00000000
00001000
00000000
,
00010000
00000000
00000100
00000000
00001000
00000100
00000010
00000001
,
00001000
00000010
00001000
00000001
00000100
00000000
00000110
00000000
,
00000001
00000100
00000010
00001000
00000010
00010000
00001000
00100000
,
00010000
01000000
00010000
10000000
01000000
10000000
00010000
00000000
,
01000000
00010000
00100000
00010000
10000000
01000000
00100000
00001000
,
00010000
00001000
00010000
00000010
00000100
00000001
00001000
00000000
,
00000101
00000101
00001100
00001100
,
00011000
00011000
00110000
00110000
,
00010000
01000000
00100000
00000000
10000000
01000000
10000000
00000000
,
01000000
10000000
00100000
01000000
00010000
00100000
00002000
00000000
,
00013000
01000000
10000000
01000000
00010000
00000000
00001000
00000100
,
00000001
00000100
00001000
00000000
00010000
00001000
00010000
00000000
,
00001000
00000100
00000001
00000100
00001000
00000000
00010000
01000000
,
10000000
01000000
00010000
00000000
00001000
00010000
00001000
00000000
,
00010000
00100000
10000000
00100000
00010000
00000000
00001000
00000010
,
00000001
00000010
00001000
00000000
00010000
00001000
00010000
00000000
,
00001000
00000100
00000001
00000010
00001000
00000000
00010000
01000000
,
10000000
00100000
00010000
00000000
00001000
00010000
00001000
00000000
,
00000010
00000001
00000010
00000001
00000100
00000001
00000100
00000001
,
00000100
00001000
00000100
00001000
00010000
00001000
00010000
00000000
,
00100000
10000000
00100000
10000000
01000000
10000000
01000000
10000000
,
01000000
00010000
01000000
00010000
00001000
00010000
00001000
00000000
,
00000010
00000001
00000010
00000001
00000100
00000010
00000100
00000010
,
00001000
00000100
00001000
00000100
00010000
00001000
00010000
00000000
,
00100000
10000000
00100000
10000000
01000000
00100000
01000000
00100000
,
00010000
01000000
00010000
01000000
00001000
00010000
00001000
00000000
,
00100000
00000000
10010000
00000000
00000000
10000000
00010000
00000000
,
01000000
00000000
01010000
00010000
00000000
00100000
00001000
00000000
,
00001000
00000000
00011000
00000000
00000000
00010000
00000100
00000000
,
00001000
00000000
00001010
00000010
00000000
00000100
00000001
00001000
,
00000001
00000000
00000101
00000000
00000100
00000000
00000110
00000100
,
00000010
00000000
00001010
00000000
00000100
00000000
00011000
00001000
,
00100000
00010000
00100000
00010000
01000000
00100000
01000000
00100000
,
10010000
01100000
10010000
00000000
,
00100000
10000000
01000000
00010000
00002000
00000000
00010000
00000000
,
00003010
00000001
00000100
00001000
00020000
00000000
00001000
00000000
,
00130000
10000000
01000000
00100000
00002000
00000000
00010000
00000000
,
00003010
00000001
00000100
00000010
00020000
00000000
00001000
00000000
,
00130000
01000000
00010000
00100000
00002000
00000000
00010000
00000000
,
00003010
00000100
00001000
00000010
00001000
00000000
00001001
00000000
,
00000001
00000010
00000100
00001000
00010000
00100000
01000000
10000000
,
00000000
00000000
00000000
00000000
,
10000000
00100000
01000000
00010000
01000000
00001000
00010000
00001000
,
00000100
00000010
00001000
00000001
00000200
00000000
00000000
00000000
,
00000301
00000010
00000100
00001000
00000010
00010000
00001000
00010000
,
00000100
00001000
00010000
00100000
00010000
01000000
00100000
00000000
,
10000000
00100000
01000000
00010000
00100000
01000000
00100000
00001000
,
00010000
00001000
00000100
00000010
00002000
00000000
00000000
00000000
,
00003010
00001000
00000010
00010000
00001000
01000000
00010000
01000000
,
00100000
10100000
10000000
10010000
,
10000000
00000000
00000000
10000000
01000000
00000000
00000000
01000000
00100000
00000000
00000000
00100000
00010000
00000000
00000000
00010000
,
00001000
00000000
00000000
00001000
00000100
00000000
00000000
00000100
00000010
00000000
00000000
00000010
00000001
00000000
00001000
00000000
,
00000001
00000000
00000000
00000001
00000010
00000000
00000000
00000010
00000100
00000000
00000000
00000100
00001000
00000000
00000000
00001000
,
00010000
00100000
01000000
10000000
00020000
00000000
10030000
00000000
,
10000000
00000000
00000000
10000000
00100000
00000000
00000000
00100000
01000000
00000000
00000000
01000000
00010000
00000000
00000000
00010000
,
00001000
00000000
00000000
00001000
00000010
00000000
00000000
00000010
00000100
00000000
00000000
00000100
00000001
00000000
00000000
00001000
,
00000001
00000000
00000000
00010000
00000010
00000000
00000000
00001000
00000100
00000000
00000000
00010000
00001000
00000000
00000000
00100000
,
00010000
00000000
00000000
10000000
00000000
00000000
00100000
00000000
00000000
01000000
00000000
00000000
00010000
00000000
00100000
00000000
01000000
00000000
10000000
00000000
00000000
00000000
00000000
00000000
,
10010000
00100000
01010000
10000000
,
11000000
01010000
00011000
00000000
,
00001001
00000010
00000101
00001000
,
00000101
00001100
00011000
00000000
,
00110000
10100000
11000000
01010000
,
00101000
00011000
00010100
00000000
,
00001010
00000011
00000101
00001100
,
00010100
00011000
00101000
00000000
,
20100000
00000000
00000000
00000000
,
00010000
00000000
00000000
00000000
,
30200000
00000000
00000000
00000000
,
01000000
00000000
00000000
00020000
,
00300000
00000000
00000000
00000000
,
00001000
00000000
00000000
00000000
,
00002000
00000000
00000000
00000000
,
00033000
00000000
00000000
00000000
;

//---------------dance-double - ----------------
#NOTES:
     dance-double:
     :
     Medium:
     11:
     0.427228,0.545293,0.127803,0.281167,0.000000,351.000000,336.000000,15.000000,33.000000,0.000000,0.000000,0.427228,0.545293,0.127803,0.281167,0.000000,351.000000,336.000000,15.000000,33.000000,0.000000,0.000000:
00000000
00000000
00000000
00000000
,
00000000
00000000
00000000
00000000
,
00000000
00000000
00000000
00000000
,
00000000
00000000
00000000
00000000
,
00000000
00000000
00000000
00000000
,
20000000
00000000
00000000
00000000
,
30200000
00000000
00000000
00000000
,
02300000
00000000
00000000
00000000
,
03001000
00010000
00011000
00000000
,
00001000
00000010
00001000
00000000
00001000
00000100
00001000
00000000
,
00010000
00001000
00010000
00001000
00010000
00001000
00010000
00000000
,
00100000
00010000
00100000
00000000
00100000
00010000
00100000
00000000
,
10000000
00010000
10000000
00010000
10000000
00010000
10000000
00000000
,
00010000
01000000
00010000
00000000
01000000
00000000
00010000
00000000
,
00100000
00001000
00100000
00000000
00001000
00000000
00010000
00000000
,
00000100
00010000
00000100
00000000
00010000
00000000
00000100
00000000
,
00001000
00000010
00001000
00000000
00000001
00000100
00000001
00000000
,
00001000
00000010
00000100
00000000
00000001
00000100
00000000
00000010
,
00001000
00000000
00000010
00000100
00000001
00001000
00000100
00000000
,
00010000
00001000
00010000
00000000
00001000
00100000
00000000
00010000
,
01000000
00000000
00100000
10000000
00100000
01000000
00010000
00000000
,
10000000
01000000
00100000
00000000
01000000
10000000
00000000
00010000
,
01000000
00000000
00010000
00100000
00001000
00010000
00001000
00000000
,
00000100
00000010
00000100
00000000
00000001
00001000
00000000
00000100
,
00001000
00000000
00000100
00010000
00001000
00010000
00001000
00000000
,
00100000
00010000
00100000
00000000
00010000
01000000
00010000
00000000
,
10000000
01000000
10000000
00000000
00100000
00000000
01000000
00000000
,
00010000
10000000
00010000
00000000
01000000
00010000
01000000
00000000
,
00001000
00010000
00001000
00000000
00010000
00000000
00000010
00000000
,
00001000
00000100
00001000
00000000
00000001
00000100
00000001
00000000
,
00000010
00000001
00000010
00000000
00000100
00000000
00001000
00000000
,
00000010
00001000
00000010
00000000
00010000
00001000
00010000
00000000
,
00001000
00100000
00001000
00000000
01000000
00000000
00010000
00000000
,
10000000
00000000
00100000
00000000
10000000
00010000
00000000
00000000
,
01000000
00000000
00010000
00100000
00000000
00001000
00010000
00000000
,
00000010
00000000
00001000
00000000
00000000
00000001
00000010
00000000
,
00000100
00000000
00001000
00000010
00000000
00010000
00001000
00000000
,
00100000
00010000
00100000
00000000
00010000
00100000
00010000
00000000
,
10000000
01000000
10000000
00000000
01000000
10000000
01000000
00000000
,
00100000
00010000
10000000
01000000
00100000
00010000
10000000
00000000
,
11000000
01010000
10010000
00000000
,
00020000
20030000
30200000
02300000
,
03020000
00230000
00302000
00000000
,
00023000
00030200
00000320
00000032
,
00000203
00000320
00020030
00000000
,
00032000
00203000
02300000
03200000
,
00320000
02030000
03200000
00000000
,
20300000
32000000
03200000
00320000
,
00002000
00000000
00000000
00033000
,
00001000
00000010
00001000
00000000
00000010
00001000
00000000
00000001
,
00000100
00000000
00000010
00010000
00001000
00000000
00011000
00000000
,
00001000
01000000
00100000
00000000
10000000
00010000
00000000
10000000
,
00100000
00000000
01000000
00010000
01000000
00000000
00010000
00000000
,
00100000
00001000
00100000
00000000
00001000
00010000
00000000
00000010
,
00001000
00000000
00000001
00000100
00000010
00000000
00000110
00000000
,
00000010
00001000
00000010
00000000
00010000
00001000
00000000
00100000
,
00010000
00010000
10000000
10000000
,
00100000
01000000
00100000
01000000
00010000
00100000
00010000
00000000
,
00100000
00010000
00100000
00001000
00010000
00001000
00010000
00000000
,
00001000
00010000
00001000
00010000
00000010
00001000
00000010
00000000
,
00001000
00000100
00000010
00000001
00001000
00000000
00001001
00000000
,
00000001
00000100
00000001
00000100
00000010
00000100
00000010
00000000
,
00000010
00001000
00000010
00001000
00000100
00001000
00000100
00000000
,
00010000
00001000
00010000
00001000
00100000
00010000
00100000
00010000
,
02000000
03200000
10300000
10010000
,
10000000
01000000
00010000
00001000
,
00000100
00000001
00001000
00000000
,
00000001
00000100
00001000
00010000
,
01000000
10000000
00010000
00000000
,
00010000
10000000
00100000
01000000
,
01010000
01010000
00011000
00000000
,
00001000
00000001
00000010
00000100
,
00001100
00001100
00011000
00000000
,
00022000
00000000
00000000
00000000
,
00000000
00000000
00000000
00000000
,
00000000
00000000
00000000
00000000
,
00000000
00000000
00000000
00000000
,
00000000
00000000
00000000
00000000
,
00000000
00000000
00000000
00000000
,
00000000
00000000
00000000
00000000
,
00033000
00000000
00000000
00000000
;

//---------------dance-double - ----------------
#NOTES:
     dance-double:
     :
     Easy:
     7:
     0.270212,0.340808,0.076682,0.144844,0.000000,222.000000,213.000000,9.000000,17.000000,0.000000,0.000000,0.270212,0.340808,0.076682,0.144844,0.000000,222.000000,213.000000,9.000000,17.000000,0.000000,0.000000:
00000000
00000000
00000000
00000000
,
00000000
00000000
00000000
00000000
,
00000000
00000000
00000000
00000000
,
00000000
00000000
00000000
00000000
,
00000000
00000000
00000000
00000000
,
00000000
00000000
00000000
00000000
,
00000000
00000000
00000000
00000000
,
00000000
00000000
00000000
00000000
,
00000000
00000000
00000000
00000000
,
10000000
01000000
10000000
01000000
,
00010000
01000000
00010000
01000000
,
00001000
00010000
00001000
00010000
,
00000010
00001000
00000010
00001000
,
00000001
00000000
00000001
00000000
,
00001000
00000000
00001000
00000000
,
00000010
00000000
00000010
00000000
,
00010000
00001000
00011000
00000000
,
00010000
00001000
00100000
00010000
,
10000000
01000000
00010000
01000000
,
10000000
00010000
00100000
00001000
,
00010000
00001000
00010000
00000000
,
00001000
00010000
00000010
00001000
,
00000001
00000100
00001000
00000100
,
00000001
00001000
00000010
00010000
,
00001000
00010000
00001000
00000000
,
00100000
00100000
00010000
00010000
,
10000000
10000000
00100000
00100000
,
01000000
01000000
00010000
00010000
,
00100000
00100000
00001000
00001000
,
00010000
00010000
00000100
00000100
,
00001000
00001000
00000010
00000010
,
00000100
00000100
00000001
00000001
,
00000010
00000010
00000001
00000001
,
00001000
00000000
00001100
00000000
,
00010000
00000000
00011000
00000000
,
00100000
00000000
00110000
00000000
,
10000000
00000000
10010000
00000000
,
00010000
01000000
00100000
10000000
,
00010000
00100000
01000000
10000000
,
00010000
01000000
00001000
00010000
,
00011000
00000000
00011000
00000000
,
00002000
00000000
00003200
00000000
,
00000302
00000000
00000203
00000000
,
00002300
00000000
00023000
00000000
,
00230000
00000000
02300000
00000000
,
23000000
00000000
32000000
00000000
,
03020000
00000000
00032000
00000000
,
00003200
00000000
00000320
00000000
,
00002030
00000000
00000000
00000000
,
00003100
00010000
00001000
00010000
,
00001000
00100000
00010000
00000000
,
10000000
00100000
10000000
00100000
,
01000000
00010000
00100000
00000000
,
00001000
00010000
00000010
00001000
,
00000001
00000100
00000010
00000000
,
00001000
00000100
00000010
00000100
,
00010000
00001000
00010000
00001000
,
00100000
00010000
01000000
00100000
,
10000000
01000000
10000000
00100000
,
01000000
00010000
00100000
00001000
,
00010000
00000100
00001000
00001000
,
00000010
00000100
00000001
00001000
,
00000001
00000100
00000010
00001000
,
00000100
00010000
00000100
00000010
,
00000001
00001000
00001001
00000000
,
00000001
00000100
00001000
00010000
,
00001000
01000000
00010000
00000000
,
10000000
01000000
00010000
00001000
,
00010000
00000100
00001000
00000000
,
00000001
00000010
00001000
00010000
,
00001000
00100000
00010000
00000000
,
10000000
00100000
00010000
00001000
,
00010000
00000010
00001000
00000000
,
00022000
00000000
00000000
00000000
,
00000000
00000000
00000000
00000000
,
00000000
00000000
00000000
00000000
,
00000000
00000000
00000000
00000000
,
00000000
00000000
00000000
00000000
,
00000000
00000000
00000000
00000000
,
00000000
00000000
00000000
00000000
,
00033000
00000000
00000000
00000000
;
