#TITLE:Future Cider;
#SUBTITLE:;
#ARTIST:YUC'e;
#TITLETRANSLIT:;
#SUBTITLETRANSLIT:;
#ARTISTTRANSLIT:;
#GENRE:;
#CREDIT:BadWolf;
#BANNER:Future Cider.png;
#BACKGROUND:Future Cider-bg.png;
#LYRICSPATH:;
#CDTITLE:cdtitle.png;
#MUSIC:Future Cider.ogg;
#OFFSET:-0.060000;
#SAMPLESTART:43.046799;
#SAMPLELENGTH:10.293331;
#SELECTABLE:YES;
#BPMS:0.000000=180.000000
;
#STOPS:
;
#BGCHANGES:;
#KEYSOUNDS:;
#ATTACKS:;

//---------------dance-single - ----------------
#NOTES:
     dance-single:
     :
     Hard:
     16:
     0.855458,1.034536,0.482426,0.214412,0.501570,782.000000,719.000000,63.000000,28.000000,0.000000,0.000000,0.855458,1.034536,0.482426,0.214412,0.501570,782.000000,719.000000,63.000000,28.000000,0.000000,0.000000:
0000
0000
0000
0000
,
0000
0000
0000
0000
,
0000
0000
0000
0000
,
0000
0000
0000
0000
,
0000
0000
0000
0000
,
0000
0000
0000
0000
,
0000
0000
0000
0000
,
0000
0000
0000
0000
,
1000
0100
0010
0100
0001
0000
1001
0000
,
0001
0010
1000
0010
0001
0000
1000
0000
,
0001
0100
0010
0100
1000
0000
1001
0000
,
1000
0010
0001
0010
1000
0000
0001
0000
,
1000
0100
0010
0000
0010
0001
1000
0000
,
0001
0100
0010
0000
0010
1000
0001
0000
,
1000
0100
0010
0100
0001
0100
0010
0100
,
1000
0000
0000
0000
0010
0000
0000
0000
0100
0000
0001
1000
0001
0010
0100
1000
,
0010
0100
0001
1000
0000
0100
0010
0011
,
0001
1000
1010
0000
0001
0010
1000
0010
,
0110
0100
1000
0001
0000
0100
0010
1010
,
0000
1000
1100
0100
0010
0001
1001
0000
,
0110
0010
1000
0001
0000
0010
0100
1100
,
1000
0001
0101
0000
1000
0100
0001
0100
,
0110
0010
0001
1000
0000
0010
0100
0101
,
0000
0001
0011
0010
0100
1000
0001
0000
,
1000
0000
0010
0100
0010
0000
0100
0001
0100
0000
0001
0000
1000
0000
0100
0000
,
0010
0000
1000
0000
0010
0000
0001
0000
0100
0000
0010
1000
0010
0000
1000
0000
,
0001
0000
0010
0100
0010
0000
0100
1000
0100
0000
1000
0000
0001
0000
0100
0000
,
0010
0001
0010
1000
0100
0010
1001
0000
,
0001
0000
0001
0000
1000
0000
1000
0000
0100
0000
0010
0000
0001
0000
0100
0010
,
1000
0000
1000
0000
0001
0000
0001
0000
0010
0000
0100
0000
1000
0000
0010
0100
,
0001
1000
0001
1000
0001
1000
0001
1000
0100
0010
0100
0010
0100
0010
0100
0010
,
0001
0001
0100
0010
2000
0000
3010
0000
,
1001
0000
0000
0000
0001
0000
0010
0000
0110
0000
0000
1100
0000
0000
1001
0000
,
1000
0000
0010
0000
0100
0000
0010
0000
0011
0000
0000
0110
0000
0000
1010
0000
,
1000
0000
0001
0000
0010
0000
0100
0000
1100
0000
0000
1010
0000
0000
1001
0000
,
0001
0010
1000
0010
0011
0000
1001
0000
,
1000
0000
0010
0000
0001
0000
0010
0000
0110
0000
0000
1010
0000
0000
1001
0000
,
1000
0000
0100
0000
0010
0000
0100
0000
1100
0000
0000
1010
0000
0000
1001
0000
,
0001
0000
0100
0000
1000
0000
0100
0000
0001
0000
0010
0100
0000
0100
1000
0000
,
0010
0000
0100
0000
0001
0000
1000
0000
0100
0000
0010
0001
0010
0001
1000
0001
,
2000
0000
0000
0000
3001
0000
0100
0000
1100
0000
0000
0110
0000
0000
0101
0000
,
0000
0000
1000
0000
0100
0000
0010
0000
0110
0000
0000
1100
0000
0000
1001
0000
,
0001
0000
1000
0000
0100
0000
0010
0000
0011
0000
0000
0101
0000
0000
1001
0000
,
1000
0100
0001
0100
1100
0000
1001
0000
,
0001
0000
0100
0000
1000
0000
0100
0000
0110
0000
0000
0101
0000
0000
1001
0000
,
0001
0010
0100
0010
0011
0000
1001
0000
,
1000
0000
0010
0000
0001
0000
0010
0000
1000
0000
0100
0010
0000
0010
0001
0000
,
0100
0010
1000
0001
2000
0000
0000
0000
,
3001
0000
0010
0100
0010
0000
0001
1000
0001
1000
0010
0100
0010
0000
1000
0000
,
0001
1000
0100
0000
0010
0000
0100
1000
0001
0000
0100
0010
0100
0010
0100
0001
,
1000
0000
0100
0010
0001
0000
0100
0010
1000
0001
1000
0001
1000
0000
0001
0010
,
0100
1000
0001
0000
0100
0000
0010
1000
0001
1000
0001
1000
0002
0000
0000
0000
,
1003
0010
0001
0010
0100
0010
1010
1000
,
0001
0010
1000
0010
0100
0010
0011
0001
,
1000
0010
0001
1000
0100
0001
1000
0100
,
0010
0001
0010
0001
0010
0001
0010
0001
0100
0010
1000
0001
0010
0100
1000
0001
,
1000
0010
1000
0020
0000
0130
0001
0100
,
1000
0100
0002
0000
0013
0100
1000
0001
,
0100
0010
0100
0020
0000
1030
0001
0020
,
0000
0130
1000
0001
1000
0010
0200
0000
,
0301
0010
0001
0020
0000
0130
1000
0100
,
0001
0100
2000
0000
3010
0100
0001
1000
,
0100
0010
0100
0020
0000
0031
1000
0020
,
0000
0130
0001
1000
0001
0010
0200
0000
,
1300
0000
0011
0000
1000
0100
0010
0000
,
0001
0000
1010
0000
0001
0100
0010
0000
,
1000
0000
0110
0000
1000
0001
0010
0000
,
0001
0000
0110
0000
0001
1000
0010
0000
,
0100
0000
1010
0000
0001
0010
0100
0000
,
0010
0000
0101
0000
1000
0100
0010
0000
,
0001
0000
1100
0000
0010
1000
0001
0000
,
1000
0011
1100
0101
,
2000
0100
0010
0001
,
3200
0010
0001
1000
,
0320
0001
1000
0100
,
0032
1000
0100
0010
,
1003
0010
0100
1000
0100
0001
1000
0001
,
0010
0100
0001
0100
0010
0001
1000
0010
,
1000
0100
1000
0100
1000
0100
1000
0100
0010
0001
0010
0001
0010
0001
0010
0001
,
1000
1000
0010
0100
0002
0000
0203
0000
,
0301
0000
1000
0100
0010
0100
1000
0100
0010
0000
0001
1000
0000
1000
0010
0000
,
0100
0001
1000
0000
0100
0000
0010
0001
1000
0000
0001
0000
0100
0010
1000
0001
,
1000
0000
0001
0010
0100
0000
0100
0010
0001
1000
0010
1000
0001
0000
1000
0100
,
0010
0001
1000
0000
0010
0100
0010
0100
0002
0000
2003
0000
3001
0010
0100
1000
,
0001
0000
0100
0010
0100
0000
0001
1000
0100
1000
0001
0010
0000
0010
0100
0000
,
1000
0001
0100
0000
0001
0000
1000
0100
0010
0000
0001
0000
0100
0010
1000
0001
,
1000
0000
0001
0010
0100
0000
0100
1000
0001
0100
0010
0100
0001
0000
1000
0100
,
0010
0001
1000
0000
0010
0100
0010
0100
0002
0000
2003
0000
3200
0000
0320
0000
,
0031
0000
1000
0010
1000
0000
0100
0010
0001
0010
0100
1000
0000
0001
1000
0000
,
0010
0100
0001
0000
1000
0000
0100
0010
0001
0000
0100
0010
1000
0001
0010
0100
,
1000
0000
0001
0100
0001
0000
1000
0001
0010
0100
0010
0001
1000
0000
0010
0100
,
0010
1000
0001
0000
1000
0000
0100
0010
0100
0010
0001
1000
0002
0000
0000
0000
,
1003
0010
0001
0010
0100
0010
1010
1000
,
0001
0010
1000
0010
0100
0010
0011
0001
,
1000
0010
0001
1000
0100
0001
1000
0100
,
0010
0001
0010
0001
0010
0001
0010
0001
0100
0010
1000
0001
0010
0100
1000
0001
,
2000
0000
3000
0000
;

//---------------dance-single - ----------------
#NOTES:
     dance-single:
     :
     Medium:
     12:
     0.578692,0.661613,0.168466,0.160809,0.030630,529.000000,507.000000,22.000000,21.000000,0.000000,0.000000,0.578692,0.661613,0.168466,0.160809,0.030630,529.000000,507.000000,22.000000,21.000000,0.000000,0.000000:
0000
0000
0000
0000
,
0000
0000
0000
0000
,
0000
0000
0000
0000
,
0000
0000
0000
0000
,
0000
0000
0000
0000
,
0000
0000
0000
0000
,
0000
0000
0000
0000
,
0000
0000
0000
0000
,
1000
0100
0010
0100
1000
0000
1001
0000
,
0001
0010
0100
1000
0001
0000
1000
0000
,
0001
0100
0010
0100
0001
0000
1001
0000
,
1000
0010
0100
0001
1000
0000
0001
0000
,
1000
1000
0010
0010
,
0100
0100
0001
0001
,
1000
0100
1000
0100
0010
0001
0010
0001
,
1000
0000
1001
0000
0001
0010
0100
1000
,
0001
0100
0001
0200
0000
0310
1000
0100
,
0010
0100
0020
0000
0000
0031
1000
0001
,
1000
0010
1000
0020
0000
0130
0001
2000
,
0000
3001
0010
0100
1000
0000
1001
0000
,
1000
0010
1000
0020
0000
0130
0001
0010
,
0100
0010
0200
0000
0000
1300
0001
1000
,
0001
0100
0001
0200
0000
0310
1000
0002
,
0000
1003
0100
0010
0001
0010
0100
0000
,
1000
1000
0010
0010
,
0100
0100
0001
0001
,
0010
0010
0100
0100
,
1000
0000
1000
0000
0001
1000
0001
0000
,
1000
0100
0010
0100
1000
0100
0010
0001
,
1000
0010
0100
0010
1000
0010
0100
0001
,
0010
0100
1000
0001
0100
0010
1000
0001
,
1000
1000
0100
0010
0001
0000
1000
0000
,
1001
0000
0001
0100
1000
0100
0001
1000
,
0000
0001
0010
1000
0001
0100
1000
0000
,
0001
1000
0010
0100
0010
1000
0001
0000
,
1000
0100
0010
1000
0010
0001
1000
0000
,
0001
0000
1000
0010
0001
0010
1000
0001
,
0000
1000
0100
0001
1000
0010
0001
0000
,
1000
0000
0001
0000
0100
0000
0010
0000
0100
0000
0001
1000
0000
1000
0001
0000
,
0010
0000
0100
0000
1000
0000
0001
0000
1000
0000
0000
0000
0001
1000
0001
0000
,
2000
0000
0000
0000
3010
0000
0100
0000
0001
0000
0000
1000
0000
0000
0001
0000
,
0000
1000
0100
0001
1000
0010
0001
0000
,
1000
0010
0001
0010
0100
0010
1000
0000
,
0001
0010
0100
1000
0100
0010
0001
0000
,
1000
0000
0001
0100
1000
0100
0001
1000
,
0000
0001
0010
1000
0001
0100
1000
0000
,
0001
0000
1000
0000
0010
0000
0100
0000
0010
0000
1000
0001
0000
0001
1000
0000
,
0100
0010
0001
1000
0002
0000
2003
0000
,
3001
0000
0000
0000
1001
0000
0000
0000
1000
0000
0000
0010
0000
0000
0100
0000
,
0001
0010
0100
1000
0100
0010
0001
0001
,
1000
0000
1001
0000
0001
0100
0100
0010
,
1000
1000
0100
0010
0001
1000
1001
0000
,
0001
0010
0100
0010
0001
0010
0100
0000
,
1000
0010
0100
0010
1000
0010
0100
0000
,
0001
0010
0001
0010
0100
1000
0100
1000
,
0001
0010
0100
1000
0001
0010
0100
1000
,
0002
0000
0000
0000
,
0203
0000
0000
0000
,
0320
0000
0000
0000
,
2030
0000
0000
0000
,
3200
0000
0000
0000
,
0320
0000
0000
0000
,
0032
0000
0000
0000
,
2003
0000
0000
0000
,
3001
0000
0101
0000
0000
0100
0010
0000
,
1000
0000
1100
0000
0000
0100
0010
0000
,
0001
0000
1001
0000
0000
1000
0010
0000
,
1000
0000
1001
0000
0000
0001
0010
0000
,
0100
0000
1100
0000
0000
1000
0001
0000
,
0100
0000
0101
0000
0000
0001
1000
0000
,
0100
0000
0110
0000
0000
0010
0001
0000
,
0010
0110
1100
1001
,
1000
0010
0001
0010
,
1000
0100
0010
0001
,
1000
0010
0100
0001
,
1000
0100
0001
0100
,
1000
0010
1000
0010
0100
0001
0100
0001
,
1000
0100
1000
0100
0010
0001
0010
0001
,
1000
0100
0010
0001
1000
0100
0010
0001
,
1000
1000
0001
0100
0010
0000
1000
0000
,
0001
0010
0100
0010
0001
1000
0000
1000
,
0010
0000
0100
0001
1000
0100
0010
0000
,
0001
0100
0010
1000
0100
0100
0100
0010
,
0010
0010
0001
1000
0020
0000
1030
0001
,
1000
0100
0010
0100
1000
0001
0000
0001
,
0100
0000
0010
1000
0001
0010
0100
0000
,
1000
0010
0100
0001
0010
0010
0010
0100
,
0100
0100
1000
0001
2000
0000
0000
0000
,
3001
0000
0000
0000
1000
0000
0000
0000
1001
0000
0000
1001
0000
0000
1001
0000
,
0001
0010
0100
1000
0010
0100
0001
0000
,
1000
0000
0001
0000
0010
0010
0010
0100
,
0100
0100
1000
0001
1000
0010
0110
0000
,
1000
0100
0010
0100
1000
0100
0010
0000
,
0001
0100
0010
0100
0001
0100
0010
0000
,
1000
0100
1000
0100
0010
0001
0010
0001
,
1000
0100
0010
0001
1000
0100
0010
0001
,
1000
0000
0000
0000
;

//---------------dance-single - ----------------
#NOTES:
     dance-single:
     :
     Easy:
     8:
     0.388347,0.477831,0.237384,0.099548,0.007658,355.000000,324.000000,31.000000,13.000000,0.000000,0.000000,0.388347,0.477831,0.237384,0.099548,0.007658,355.000000,324.000000,31.000000,13.000000,0.000000,0.000000:
0000
0000
0000
0000
,
0000
0000
0000
0000
,
0000
0000
0000
0000
,
0000
0000
0000
0000
,
0000
0000
0000
0000
,
0000
0000
0000
0000
,
0000
0000
0000
0000
,
0000
0000
0000
0000
,
1000
1000
0100
0010
,
0001
1000
1001
0000
,
0001
0001
0010
0100
,
1000
0001
1001
0000
,
1000
0100
0010
0001
,
0100
0010
1000
0001
,
0010
0100
1000
0001
,
0100
0010
0100
0000
0001
1000
0001
1000
,
1001
0000
0000
0000
0000
0000
0000
1100
,
0000
0101
0001
1000
,
1001
0000
0000
0000
0000
0000
0000
0011
,
0000
1010
1000
0001
,
1001
0000
0000
0000
1000
0000
0100
0110
,
0000
0011
0001
1000
,
1001
0000
0001
0000
0100
0000
0010
1010
,
0000
0000
1001
0000
1000
0001
1000
0000
,
0001
0010
0100
0010
,
0001
0010
0100
1000
,
0001
0100
0010
0100
,
0001
0100
0010
1000
,
0001
0001
1000
1000
,
0100
0100
0010
0010
,
0001
0000
0100
0000
0010
1000
0010
1000
,
0001
0000
0000
0000
,
1001
1000
0100
0010
,
0001
0100
0001
0000
1000
0000
1001
0000
,
0001
0100
1000
0100
,
0001
0000
0010
0000
0100
1000
0001
0000
,
1000
0001
0010
0100
,
1000
0010
1000
0000
0001
0000
1001
0000
,
1000
0010
0110
0110
,
0100
0000
0001
0000
0010
0100
1000
0000
,
0002
0000
0000
0000
0000
0000
0000
0000
1003
0000
0000
0001
0000
0000
1000
0000
,
0000
0001
1000
0000
0001
0000
1001
0000
,
1000
0100
0010
0100
,
1000
0000
0010
0000
0100
0001
1000
0000
,
0001
1000
0100
0010
,
0001
0100
0001
0000
1000
0000
1001
0000
,
0001
0100
0110
0110
,
0010
0000
1000
0000
0100
0010
0001
0000
,
1000
0000
0010
0000
1000
0000
0001
1000
,
0001
0010
0100
1000
,
0001
0100
0010
0010
,
1000
0000
1000
0000
0001
1000
0001
0000
,
1000
0100
0010
1001
,
0001
0010
0100
1001
,
1000
0100
0010
0001
,
0100
0100
0010
0010
,
2000
0000
0000
0000
,
3002
0000
0000
0000
,
0023
0000
0000
0000
,
0230
0000
0000
0000
,
2300
0000
0000
0000
,
3002
0000
0000
0000
,
0203
0000
0000
0000
,
0320
0000
0000
0000
,
1030
0000
0100
0000
,
0010
0000
0001
0000
,
0100
0000
0010
0000
,
1000
0000
0001
0000
,
0010
0000
0100
0000
,
1000
0000
0001
0000
,
1000
0000
0010
0000
,
0100
0000
0001
0001
,
1000
0100
0010
0100
,
1000
0100
0010
0001
,
1000
0010
0100
0010
,
1000
0010
0100
0001
,
1000
1000
0001
0001
,
0010
0010
0100
0100
,
1000
0000
0010
0000
0100
0001
0100
0001
,
1000
0000
0000
0000
,
0001
0000
0010
0000
0100
1000
0000
1000
,
0001
0100
0110
0010
,
1000
0000
0100
0000
0010
0001
0010
0000
,
0001
1000
0001
0000
1000
0000
0020
0000
,
1030
0000
0100
0000
0010
0001
0000
0001
,
1000
0010
0110
0100
,
0001
0000
0010
0000
0100
1000
0100
0000
,
1000
0001
1000
0000
2002
0000
3003
0000
,
0001
0000
0000
0000
1000
0000
0000
0000
0001
0000
0000
1000
0000
0000
0001
0000
,
1000
0100
0010
0001
,
1000
0000
0001
0000
1000
0001
1000
0000
,
0010
0100
0010
0000
2000
0000
3001
0000
,
1000
0100
0010
1001
,
0001
0010
0100
1001
,
1000
0100
0010
0001
,
0100
0100
0010
0010
,
1001
0000
0000
0000
;

//---------------dance-single - ----------------
#NOTES:
     dance-single:
     :
     Beginner:
     4:
     0.178312,0.257294,0.091891,0.000000,0.000000,163.000000,151.000000,12.000000,0.000000,0.000000,0.000000,0.178312,0.257294,0.091891,0.000000,0.000000,163.000000,151.000000,12.000000,0.000000,0.000000,0.000000:
// measure 0
0000
0000
0000
0000
,  // measure 1
0000
0000
0000
0000
,  // measure 2
0000
0000
0000
0000
,  // measure 3
0000
0000
0000
0000
,  // measure 4
0000
0000
0000
0000
,  // measure 5
0000
0000
0000
0000
,  // measure 6
0000
0000
0000
0000
,  // measure 7
0000
0000
0000
0000
,  // measure 8
1000
0000
0001
0000
,  // measure 9
1000
0000
0001
0000
,  // measure 10
0100
0000
0010
0000
,  // measure 11
0100
0000
0010
0000
,  // measure 12
1000
0000
0001
0000
,  // measure 13
1000
0000
0001
0000
,  // measure 14
0010
0000
0100
0000
,  // measure 15
0010
0000
0100
0000
,  // measure 16
1001
0000
0000
0000
,  // measure 17
0000
0000
0001
0001
,  // measure 18
1001
0000
0000
0000
,  // measure 19
0000
0000
1000
1000
,  // measure 20
1001
0000
0000
0000
,  // measure 21
0000
0000
0001
0001
,  // measure 22
1001
0000
0000
0000
,  // measure 23
0000
0000
1000
1000
,  // measure 24
0001
0000
1000
0000
,  // measure 25
0001
0000
1000
0000
,  // measure 26
0010
0000
0100
0000
,  // measure 27
0010
0000
0100
0000
,  // measure 28
0001
0000
1000
0000
,  // measure 29
0001
0000
1000
0000
,  // measure 30
0100
0000
0010
0000
,  // measure 31
0001
0000
0000
0000
,  // measure 32
1000
0000
0010
0000
,  // measure 33
1000
0000
0010
0000
,  // measure 34
0100
0000
0001
0000
,  // measure 35
0100
0000
0001
0000
,  // measure 36
1000
0000
0100
0000
,  // measure 37
1000
0000
0100
0000
,  // measure 38
0010
0000
0001
0000
,  // measure 39
0010
0000
0001
0000
,  // measure 40
0100
0000
0010
0000
,  // measure 41
0100
0000
0010
0000
,  // measure 42
1000
0000
0001
0000
,  // measure 43
1000
0000
0001
0000
,  // measure 44
0010
0000
0100
0000
,  // measure 45
0010
0000
0100
0000
,  // measure 46
1000
0000
0001
0000
,  // measure 47
1000
0000
0001
0000
,  // measure 48
1001
0000
0000
0000
,  // measure 49
0110
0000
0000
0000
,  // measure 50
0110
0000
0000
0000
,  // measure 51
1001
0000
0000
0000
,  // measure 52
1000
1000
1000
0000
,  // measure 53
0001
0001
0001
0000
,  // measure 54
1000
0000
0001
0000
,  // measure 55
1000
0000
0001
0000
,  // measure 56
1000
0000
0000
0000
,  // measure 57
0001
0000
0000
0000
,  // measure 58
0010
0000
0000
0000
,  // measure 59
0100
0000
0000
0000
,  // measure 60
1000
0000
0000
0000
,  // measure 61
0001
0000
0000
0000
,  // measure 62
0100
0000
0000
0000
,  // measure 63
0010
0000
0000
0000
,  // measure 64
1000
0000
0000
0000
,  // measure 65
0100
0000
0000
0000
,  // measure 66
0010
0000
0000
0000
,  // measure 67
0001
0000
0000
0000
,  // measure 68
0100
0000
0000
0000
,  // measure 69
0010
0000
0000
0000
,  // measure 70
1000
0000
0000
0000
,  // measure 71
0001
0000
0000
0000
,  // measure 72
1000
0000
1000
0000
,  // measure 73
0001
0000
0001
0000
,  // measure 74
0100
0000
0100
0000
,  // measure 75
0010
0000
0010
0000
,  // measure 76
1000
0000
0100
0000
,  // measure 77
0010
0000
0001
0000
,  // measure 78
0100
0000
0010
0000
,  // measure 79
1000
0000
0000
0000
,  // measure 80
1001
0000
0000
0000
,  // measure 81
0110
0000
0000
0000
,  // measure 82
0110
0000
0000
0000
,  // measure 83
1001
0000
0000
0000
,  // measure 84
1000
0000
0001
0000
,  // measure 85
1000
0000
0001
0000
,  // measure 86
0100
0000
0010
0000
,  // measure 87
0100
0000
0010
0000
,  // measure 88
1000
0000
0100
0000
,  // measure 89
0010
0000
0001
0000
,  // measure 90
1000
0000
0010
0000
,  // measure 91
0100
0000
0001
0000
,  // measure 92
1000
1000
1000
0000
,  // measure 93
0001
0001
0001
0000
,  // measure 94
1000
0000
0001
0000
,  // measure 95
1000
0000
0001
0000
,  // measure 96
1000
0000
0000
0000
;
