#VERSION:0.83;
#TITLE:Future Cαke;
#SUBTITLE:;
#ARTIST:YUC'e;
#TITLETRANSLIT:;
#SUBTITLETRANSLIT:;
#ARTISTTRANSLIT:;
#GENRE:;
#CREDIT:;
#MUSIC:Future Cake.ogg;
#BANNER:Future Cake.png;
#BACKGROUND:Future Cake-bg.png;
#CDTITLE:;
#SAMPLESTART:35.390;
#SAMPLELENGTH:15.000;
#SELECTABLE:YES;
#OFFSET:2.485;
#BPMS:0.000=80.000
,20.000=160.000
,180.000=80.000
,196.000=160.000
;
#STOPS:;
#BGCHANGES:;
#FGCHANGES:;

//--------------- dance-single - Talkion ----------------
#NOTEDATA:;
#STEPSTYPE:dance-single;
#DESCRIPTION:Talkion;
#DIFFICULTY:Beginner;
#METER:4;
#RADARVALUES:0,0,0,0,0;
#NOTES:
0000
0000
0000
0000
,
0000
0000
0000
0000
,
0000
0000
0000
0000
,
0000
0000
0000
0000
,
0000
0000
0000
0000
,
0001
0000
0000
1000
,
1000
0000
0000
0001
,
0001
0000
0000
1000
,
1000
0000
0000
0010
,
0020
0000
0030
0000
,
0200
0000
0300
0000
,
1001
0000
1001
0000
,
0001
0001
0001
0000
,
1000
0000
1000
0000
,
1000
0000
0000
0000
,
0001
0000
0001
0000
,
0001
0000
0002
0003
,
0100
0000
0100
0000
,
0010
0000
0010
0000
,
0220
0000
0000
0000
,
0330
0000
0000
0000
,
1000
0000
0001
0000
,
1000
1000
0001
0000
,
0100
0000
0001
0000
,
0200
0300
0100
0000
,
0001
0000
1000
0000
,
0001
0001
1000
0000
,
0100
0000
1000
0000
,
0200
0300
0100
0000
,
0020
0030
0010
0000
,
0001
0001
0010
0000
,
0001
0000
1000
0000
,
0002
0003
0001
0000
,
0100
0000
0010
0000
,
0100
0100
0010
0000
,
1000
0000
0001
0000
,
2000
0000
0000
3000
,
0001
0000
1001
0000
,
1000
0000
1001
0000
,
0001
0000
1001
0000
,
1000
0000
1001
0000
,
0001
0000
0001
0000
,
0100
0000
0100
0000
,
0020
0000
0000
0000
,
0000
0000
0000
0030
,
0010
0000
0010
0000
,
0100
0000
0100
0000
,
0001
0000
0001
0000
,
1000
0000
1000
0000
,
0001
0000
0000
0010
,
0010
0000
0000
0100
,
0100
0000
0000
0010
,
0010
0000
0000
0001
,
0002
0000
0003
0000
,
2000
0000
3000
0000
,
1001
0000
1001
0000
,
1000
1000
1000
0000
,
0010
0000
0010
0000
,
0010
0000
0000
0000
,
0100
0000
0100
0000
,
0100
0000
0200
0300
,
0001
0000
0001
0000
,
1000
0000
1000
0000
,
2002
0000
0000
0000
,
3003
0000
0000
0000
,
0001
0000
0010
0000
,
1000
1000
0010
0000
,
0001
0000
1000
0000
,
0020
0030
0010
0000
,
1000
0000
0100
0000
,
0001
0001
0100
0000
,
1000
0000
0001
0000
,
0200
0300
0100
0000
,
0002
0003
0001
0000
,
1000
1000
0001
0000
,
0010
0000
1000
0000
,
0020
0030
0010
0000
,
0001
0000
0100
0000
,
1000
1000
0100
0000
,
0001
0000
1000
0000
,
0200
0000
0000
0300
,
0110
0000
0000
0000
;

//--------------- dance-single - Talkion ----------------
#NOTEDATA:;
#STEPSTYPE:dance-single;
#DESCRIPTION:Talkion;
#DIFFICULTY:Easy;
#METER:7;
#RADARVALUES:0,0,0,0,0;
#NOTES:
0000
0000
0000
0000
,
0000
0000
0000
0000
,
0000
0000
0000
0000
,
0000
0000
0000
0000
,
0000
0000
0000
0000
,
0001
0000
0001
0010
,
0100
0000
0100
1000
,
0020
0000
0100
0130
,
0010
1000
0001
1000
,
0100
0000
0100
0010
,
0011
0000
0100
0010
,
1010
0000
1001
0000
,
0001
0010
0100
1000
,
0002
0003
2000
3000
,
0001
1000
0002
0003
,
0200
0300
0020
0030
,
0100
0010
0200
0300
,
0001
0001
0010
0010
,
0100
0000
0100
0000
1000
0000
1000
0001
,
0200
0000
0000
0000
,
0300
0000
0000
1001
,
1000
0100
0001
0100
,
1000
0001
1000
0000
0020
0000
0030
0000
,
1000
0010
0001
0010
,
1000
0100
0020
0030
,
0001
0010
1000
0010
,
0001
1000
0001
0000
0200
0000
0300
0000
,
0001
0100
1000
0100
,
0002
0000
1003
0001
,
0020
0000
0130
0010
,
0001
1000
0001
0000
0200
0000
0300
0000
,
0001
0100
1000
0100
,
0001
0010
0200
0300
,
1000
0100
0001
0100
,
1000
0001
1000
0000
0020
0000
0030
0000
,
1000
0010
0001
0010
,
0200
0000
0301
1000
,
1001
0000
0011
0001
,
0100
0000
0010
0000
0100
0010
0010
0000
,
1010
0000
1001
1000
,
0100
0000
0010
0000
0100
0010
0010
0000
,
0001
0001
0100
0100
,
0010
0000
0010
0000
1000
0001
1000
0000
,
0200
0320
0032
2003
,
3020
0032
0203
1300
,
0001
0100
1000
0100
,
0001
0010
1000
0010
,
0001
0100
1000
0100
,
0001
0010
0100
1000
,
0001
0000
0001
0100
,
0010
0000
0010
1000
,
0200
0000
0010
0310
,
0100
1000
0001
1000
,
0010
0000
0010
0100
,
0101
0000
0010
0100
,
1100
0000
1001
0000
,
0001
0100
0010
1000
,
0002
0003
0200
0300
,
1000
0100
0002
0003
,
0020
0030
2000
3000
,
0010
0001
0200
0300
,
0010
0010
1000
1000
,
0100
0000
0100
0000
0010
0000
0010
0001
,
2000
0000
0000
0000
,
3000
0000
0000
1001
,
0001
0010
1000
0001
,
0100
0010
0100
0000
2000
0000
3000
0000
,
0001
0100
1000
0001
,
0010
1000
0002
0003
,
1000
0100
0001
1000
,
0010
0100
0010
0000
0002
0000
0003
0000
,
1000
0010
0001
1000
,
0200
0000
0301
1000
,
0020
0000
0130
0001
,
0010
0100
0010
0000
2000
0000
3000
0000
,
0001
0100
1000
0001
,
0100
0010
2000
3000
,
0001
0100
1000
0001
,
0010
0100
0010
0000
2000
0000
3000
0000
,
0001
0010
1000
0001
,
0200
0000
1300
0001
,
1001
0000
0000
0000
;

//--------------- dance-single - Talkion ----------------
#NOTEDATA:;
#STEPSTYPE:dance-single;
#DESCRIPTION:Talkion;
#DIFFICULTY:Medium;
#METER:12;
#RADARVALUES:0,0,0,0,0;
#NOTES:
0000
0000
0000
0000
,
0000
0000
0000
0000
,
0000
0000
0000
0000
,
0000
0000
0000
0000
,
0000
0000
0000
0000
,
0002
0000
0103
0000
0010
0100
0001
0000
,
1000
0001
0001
0000
1000
0100
0010
0001
,
2000
0000
3010
0000
0100
0010
1000
0000
,
0001
1000
1000
0000
0001
0010
0100
1000
,
0010
0000
0000
0010
0100
0001
1000
0000
,
1001
0000
0000
0001
0010
0100
1000
0000
,
1020
0130
0021
0130
,
1010
0110
0101
1001
,
2000
3200
0302
0023
,
2030
3020
0032
0203
,
2300
3020
0032
0203
,
2300
3002
0023
0130
,
1000
0001
1000
0000
0001
0100
0001
0000
,
1000
0100
1000
0000
0010
0100
0010
0000
,
1000
0100
0010
0001
1000
0100
0010
0001
,
2000
0000
3001
1000
0001
0000
0110
0000
,
2000
0000
3100
0010
0002
0000
0013
0001
,
0100
1000
0100
0010
1000
0000
1001
0000
,
0002
0000
0013
0100
2000
0000
3010
0100
,
0002
0000
0023
0000
1030
0010
0010
0000
,
0002
0000
0103
0010
2000
0000
3010
1000
,
0100
0001
0100
0010
0001
0000
1001
0000
,
2000
0000
3010
0100
0002
0000
0013
0100
,
1000
0100
0001
0100
1000
0100
0010
0000
,
0002
0000
0000
0000
2003
0000
3001
1000
,
0010
0001
0010
1000
0001
0000
1001
0000
,
2000
0000
3100
0010
0002
0000
0103
0010
,
2000
0000
3200
0000
0301
0100
0100
0000
,
2000
0000
3010
1000
0002
0000
1003
0001
,
0010
1000
0010
0001
1000
0000
1001
0000
,
0002
0000
0103
0001
0020
0000
0130
1000
,
0010
0000
0001
0000
0010
0000
1000
0000
0001
1000
0001
0000
1001
0000
0000
0000
,
0001
0000
0000
0001
0000
0000
0001
0000
0010
0000
0000
0010
0100
0000
0010
0000
,
0001
1000
0001
0100
0001
1000
0001
0000
,
2000
0000
0000
0000
3100
1000
0100
0000
1000
0000
0001
0000
0100
0000
0000
0000
,
0010
0100
0001
0100
0010
1000
1001
0000
,
0021
0000
1000
0000
0001
0001
0031
0000
,
1000
0001
0010
0001
1000
0001
0020
0000
,
0130
0001
0100
1000
0100
0001
1000
0010
,
0001
0100
0010
1000
0100
0010
0001
0000
,
2000
3010
0002
0013
,
2000
3100
0020
0031
,
0200
1300
0200
0301
,
0020
0130
2000
3001
,
0200
0000
0310
0000
0001
0010
1000
0000
,
0001
1000
1000
0000
0001
0010
0100
1000
,
0020
0000
0130
0000
1000
0100
0001
0000
,
1000
0001
0001
0000
1000
0100
0010
0001
,
0100
0000
0000
0100
0010
1000
0001
0000
,
1001
0000
0000
1000
0100
0010
0001
0000
,
0201
0310
1200
0310
,
0101
0110
1010
1001
,
0002
0023
2030
3200
,
0302
0203
2300
3020
,
0032
0203
2300
3020
,
0032
2003
3200
0310
,
0001
1000
0001
0000
1000
0010
1000
0000
,
0001
0010
0001
0000
0100
0010
0100
0000
,
0001
0010
0100
1000
0001
0010
0100
1000
,
0002
0000
1003
0001
1000
0000
0110
0000
,
0002
0000
0103
0010
2000
0000
3001
0010
,
1000
0001
0100
1000
0001
0000
1001
0000
,
2000
0000
3010
0100
0002
0000
1003
0100
,
0020
0000
2030
0000
3010
0010
0001
0001
,
2000
0000
3010
0100
0002
0000
1003
0100
,
0001
1000
0010
0001
1000
0000
1001
0000
,
0002
0000
0103
0010
1000
0100
0010
1000
,
0001
0100
1000
0001
0100
1000
1100
0000
,
0200
0000
0000
0000
0320
0000
0031
0010
,
1000
0001
0100
1000
0001
0000
0011
0000
,
0020
0000
1030
0100
0020
0000
0031
0100
,
0020
0000
0032
0000
0013
0010
1000
1000
,
0200
0000
0310
0001
0200
0000
1300
0100
,
0001
1000
0010
0001
1000
0000
1100
0000
,
0200
0000
0301
0010
0200
0000
1300
0010
,
0001
0000
1000
0000
0100
0000
0001
0000
1000
0001
1000
0000
1001
0000
0000
0000
,
0110
0000
0000
0000
;

//--------------- dance-single - Talkion ----------------
#NOTEDATA:;
#STEPSTYPE:dance-single;
#DESCRIPTION:Talkion;
#DIFFICULTY:Hard;
#METER:16;
#RADARVALUES:0,0,0,0,0;
#NOTES:
0000
0000
0000
0000
,
0000
0000
0000
0000
,
0000
0000
0000
0000
,
0000
0000
0000
0000
,
0000
0000
0000
0000
,
1000
0000
0000
0010
1000
0000
0001
0000
1000
0000
0100
0000
0010
0000
0001
0000
,
1000
0000
0001
0000
0001
0000
0100
0001
0100
0000
0010
0000
1000
0000
0100
0000
,
0020
0000
1030
0010
0000
0001
0100
0010
,
0000
0100
0100
0010
1000
0100
0020
0000
,
0031
0000
0101
0100
0010
1000
0100
0010
,
0110
0000
0110
0010
0100
1000
0010
0100
,
0102
0000
0000
0000
0013
0000
0100
1000
0100
0000
0010
0001
0010
0000
0001
1000
,
0020
0000
0000
0000
0230
0000
0000
0000
0301
1000
0100
1000
0001
0000
0000
0000
,
2000
0010
3010
0000
0002
0010
0013
0000
,
2000
3010
0002
0013
1000
0100
0110
0000
,
0002
0100
0103
0000
2000
0100
3100
0000
,
0002
0000
0103
0000
2000
0000
3100
0000
0001
1000
0001
0000
1001
0000
0000
0000
,
1000
0100
1000
0100
0010
0001
0010
0001
,
0100
0001
0100
0001
0100
0010
0100
0010
,
1000
0001
1000
0001
0010
0100
1000
0001
1000
0010
0100
0010
1000
0100
0010
0001
,
0200
0000
0310
0100
0010
0000
1001
0000
,
2100
0000
0000
0000
3010
0000
0100
0000
0102
0000
0000
1003
0001
0000
0010
0001
,
1000
0000
0010
0100
0001
0000
0010
0100
1000
0000
0000
0000
1001
0000
0000
0000
,
0102
0000
0000
0000
0013
0000
0100
0000
2100
0000
0000
3001
1000
0000
0001
0000
,
0201
0000
0000
0000
1300
0000
0100
0000
0001
1000
0001
1000
0100
0010
0100
0010
,
0002
0000
0000
0000
0103
0000
0010
0000
2010
0000
0000
3001
1000
0000
0001
1000
,
0100
0000
0010
0100
1000
0000
0010
0100
0001
0000
0000
0000
1001
0000
0000
0000
,
2010
0000
0000
0000
3100
0000
0010
0000
0012
0000
0000
1003
0001
0000
0100
0010
,
2000
0000
3002
0000
1003
0001
1000
0001
0100
0000
0010
0000
1010
0000
0000
0000
,
1000
0100
0010
0001
1000
0010
0100
0001
2000
0000
0000
3100
1000
0000
0001
0100
,
0010
0000
1000
0001
0010
0000
0001
1000
0010
0000
0000
0000
0110
0000
0000
0000
,
0201
0000
0000
0000
0310
0000
1000
0000
1200
0000
0000
0310
0100
0000
0010
0000
,
0021
0000
0000
0000
1030
0000
0010
0000
0001
1000
0001
1000
0010
0100
0010
0100
,
0002
0000
0000
0000
1003
0000
0100
0000
0210
0000
0000
0301
0100
0000
0010
0100
,
1000
0000
0010
1000
0100
0000
0010
0001
0100
0000
0000
0000
0110
0000
0000
0000
,
1002
0000
0000
0000
0013
0000
0100
0000
2001
0000
0000
3001
1000
0000
0010
0100
,
0010
0000
1000
0010
0100
0000
0001
0100
0010
1000
0100
0010
0001
0000
0000
0000
,
0012
0000
0000
0100
0000
0000
0103
0000
0110
0000
0000
0010
1000
0000
0010
1000
,
0100
0000
0100
0000
0010
0000
0010
0001
1000
0001
0100
0000
0010
0000
1000
0000
,
2010
0000
0000
0100
0000
0000
3100
0000
0010
0000
0001
1000
0001
0000
0100
0010
,
0100
0000
0010
0000
0010
0000
1000
0010
0100
0001
1000
0001
0020
0000
0000
0000
,
0130
0000
0000
0000
0010
0100
0010
0100
1000
0000
0001
0000
0001
0000
1000
0010
,
0100
0000
0001
0000
0001
0000
0100
0010
1000
0001
0100
0000
0020
0000
0000
0000
,
1030
0010
1000
0010
0100
0010
0100
0010
0100
0001
0100
0001
1000
0001
1000
0001
,
0010
0100
0010
0100
1000
0001
1000
0001
0100
0010
0100
0010
2000
0000
0000
0000
,
3002
0010
2003
0010
,
3200
0000
0001
0000
0310
0100
1000
0001
,
0200
0010
0302
1000
,
0203
1000
0320
0001
,
1030
0000
0000
0100
1000
0000
0001
0000
1000
0000
0010
0000
0100
0000
0001
0000
,
1000
0000
0001
0000
0001
0000
0010
0001
0010
0000
0100
0000
1000
0000
0010
0000
,
0200
0000
1300
0100
0000
0001
0010
0100
,
0000
0010
0010
0100
1000
0010
0200
0000
,
0301
0000
1001
1000
0100
0001
0100
1000
,
1010
0000
1001
0001
0100
1000
0100
0001
,
0012
0000
0000
0000
0103
0000
0010
1000
0010
0000
0100
0001
0100
0000
0001
1000
,
0200
0000
0000
0000
0320
0000
0000
0000
0031
1000
0010
1000
0001
0000
0000
0000
,
0200
1000
1300
0000
0200
0001
0301
0000
,
0020
1030
0020
0031
1000
0010
0110
0000
,
0020
0001
0031
0000
0020
1000
1030
0000
,
0200
0000
0301
0000
0200
0000
1300
0000
0001
1000
0001
0000
1001
0000
0000
0000
,
0001
0010
0001
0010
0100
1000
0100
1000
,
0010
1000
0010
1000
0010
0100
0010
0100
,
0001
1000
0001
1000
0100
0010
0001
0100
0010
1000
0001
1000
0010
0100
0001
0010
,
0200
0000
0310
0100
0010
0000
1001
0000
,
0021
0000
0000
0000
1030
0000
0010
0000
0012
0000
0000
0103
0001
0000
1000
0100
,
0020
0000
0001
1000
0000
0000
1000
0031
0010
0000
0000
0000
0110
0000
0000
0000
,
2100
0000
3010
0100
0102
0000
0013
0100
,
1200
0000
0000
0000
0301
0000
0100
0000
0010
0100
0010
0100
1000
0001
1000
0001
,
0200
0000
0000
0000
1300
0000
0100
0000
0102
0000
0000
0013
0001
0000
1000
0010
,
0200
0000
0001
1000
0000
0000
1000
0301
0100
0000
0000
0000
0110
0000
0000
0000
,
1002
0000
0000
0000
0013
0000
0100
0000
1100
0000
1000
0000
0001
0000
0100
0001
,
2000
0000
3002
0000
1003
0001
1000
0001
0010
0000
0100
0000
1100
0000
0000
0000
,
1000
0010
0100
0001
1000
0100
0010
0001
2000
0000
0000
3001
1000
0000
0001
0100
,
0020
0000
1000
0001
0000
0000
0001
1030
0010
0000
0000
0000
0110
0000
0000
0000
,
0201
0000
0000
0000
1300
0000
0001
0000
0021
0000
0000
0130
0010
0000
1000
0000
,
2001
0000
0000
0000
3100
0000
0010
0000
0100
0010
0100
0010
0001
1000
0001
1000
,
0020
0000
0000
0000
0031
0000
0010
0000
2010
0000
0000
3100
1000
0000
0001
0100
,
0020
0000
1000
0001
0000
0000
0001
1030
0010
0000
0000
0000
0110
0000
0000
0000
,
1020
0000
0000
0000
0031
0000
1000
0000
1200
0000
0000
0310
0100
0000
0001
1000
,
0100
0000
1000
0001
0100
0000
0001
0100
0010
1000
0100
0010
0001
0000
0000
0000
,
1001
0000
0000
0000
;

//--------------- dance-single - Talkion ----------------
#NOTEDATA:;
#STEPSTYPE:dance-single;
#DESCRIPTION:Talkion;
#DIFFICULTY:Challenge;
#METER:17;
#RADARVALUES:0,0,0,0,0;
#NOTES:
0000
0000
0000
0000
,
0000
0000
0000
0000
,
0000
0000
0000
0000
,
0000
0000
0000
0000
,
0000
0000
0000
0000
,
0001
0000
1000
0010
1000
0000
0010
0100
0010
0000
0100
0001
0100
0000
0001
1000
,
0100
0000
0010
0000
0M10
0000
0000
0000
1000
0000
0001
0100
0001
0000
1000
0000
,
0100
0000
0010
0100
0010
0000
0001
1000
0001
0000
0100
0010
0100
0000
0010
1000
,
0001
0010
001M
0000
1000
0010
0002
0023
,
1030
0000
0000
0000
1100
0000
1000
0100
0010
0000
0001
0000
1000
0000
0010
0000
,
0110
0000
0000
0000
0101
0000
0001
0100
0010
0000
1000
0000
0001
0000
0010
0000
,
0100
0010
0100
0000
1000
0001
1000
0000
0001
0100
0010
1000
0001
0010
0100
1000
,
0010
0000
0000
0010
0100
0000
0000
0100
0001
0010
0100
1000
0001
0000
0000
0000
,
0101
0040
1030
0100
0004
0103
4000
3001
,
0400
0000
0310
0000
1000
0010
0001
0010
1000
0000
0001
0000
1001
0000
0000
0000
,
1010
0400
0301
0010
4000
3010
0004
1003
,
0040
0000
0000
0000
0000
0000
0130
0000
0000
0000
0000
0000
0001
0000
0000
0100
0000
0000
0001
0000
0000
0000
0000
0000
1000
0000
0001
0000
1000
0000
0001
0000
1000
0000
0001
0000
0100
0000
0000
0000
0000
0000
0000
0000
0000
0000
0000
0000
,
0010
1000
0010
0001
0010
1000
0010
0100
,
0001
0000
0000
0100
0000
0000
0001
0000
0000
0000
0000
0000
1000
0000
0000
0100
0000
0000
1000
0000
0000
0000
0000
0000
0010
0000
0000
0100
0000
0000
0010
0000
0000
0000
0000
0000
0100
0000
0001
0000
0100
0000
0001
0000
0000
0000
0000
0000
,
1000
0100
0010
0001
1000
0010
0100
0001
1000
0100
0010
0001
0100
0010
1000
0001
,
0200
0000
0310
0100
0010
0000
1001
0000
,
0011
0000
0000
0000
0000
0000
0010
0000
0000
0000
0000
0000
0001
0000
0000
0000
0000
0000
0100
0000
0000
0000
0000
0000
0110
0000
0000
0000
0000
0000
0000
0000
0000
0100
0000
0000
0010
0000
0000
0000
0000
0000
1000
0000
0010
0000
1000
0000
,
0010
0000
0001
0010
1000
0000
0001
0010
1000
0000
0000
1000
0010
0000
0001
0000
,
0011
0000
0010
0000
0100
0000
1000
0000
1001
0000
0000
0001
1000
0000
0010
0000
,
1020
0000
0000
0000
0031
0000
0010
0000
1000
0100
0010
0001
1000
0010
0100
0001
,
0010
0000
0000
0000
0000
0000
0001
0000
0000
0000
0000
0000
0100
0000
0000
0000
0000
0000
0010
0000
0000
0000
0000
0000
0110
0000
0000
0000
0000
0000
0000
0000
0000
0010
0000
0000
0100
0000
0000
0000
0000
0000
0001
0000
0100
0000
0001
0000
,
0100
0000
0000
0000
0000
0000
1000
0000
0000
0100
0000
0000
0001
0000
0000
0000
0000
0000
1000
0000
0000
0100
0000
0000
0001
0000
0000
0000
0000
0000
0000
0000
0000
0001
0000
0000
0100
0000
0000
0000
0000
0000
1000
0000
0001
0000
1000
0000
,
0001
0000
0000
0000
0000
0000
0100
0000
0000
0000
0000
0000
0010
0000
0000
0000
0000
0000
1000
0000
0000
0000
0000
0000
1100
0000
0000
0000
0000
0000
0000
0000
0000
1000
0000
0000
0001
0000
0000
0000
0000
0000
0100
0000
0010
0000
0100
0000
,
0020
0000
0230
0000
0310
0100
0001
0100
0010
0000
1000
0000
1001
0000
0000
0000
,
0001
0000
0000
0010
0000
0000
1000
0000
0000
0010
0000
0000
0001
0000
0000
0100
0000
0000
1000
0000
0000
0100
0000
0000
0001
0000
0000
0000
0000
0000
0000
0000
0000
0001
0000
0000
0010
0000
0000
0000
0000
0000
0100
0000
0010
0000
0100
0000
,
0010
0000
1000
0010
0001
0000
0100
0001
0010
0000
0000
0010
0100
0000
1000
0000
,
1100
0000
0100
0000
0010
0000
0001
0000
1001
0000
0000
1000
0001
0000
0100
0000
,
0201
0000
0000
0000
1300
0000
0100
0000
0001
0010
0100
1000
0001
0100
0010
1000
,
0100
0000
0000
0000
0000
0000
1000
0000
0000
0000
0000
0000
0010
0000
0000
0000
0000
0000
0100
0000
0000
0000
0000
0000
0110
0000
0000
0000
0000
0000
0000
0000
0000
0100
0000
0000
0010
0000
0000
0000
0000
0000
1000
0000
0010
0000
1000
0000
,
0010
0000
0000
0000
0000
0000
0001
0000
0000
0010
0000
0000
1000
0000
0000
0000
0000
0000
0100
0000
0000
1000
0000
0000
0010
0000
0000
0000
0000
0000
0000
0000
0000
0010
0000
0000
0100
0000
0000
0000
0000
0000
0001
0000
1000
0000
0001
0000
,
1000
0000
0000
0000
0000
0000
0100
0000
0000
0000
0000
0000
0010
0000
0000
0000
0000
0000
0001
0000
0000
0000
0000
0000
0101
0000
0000
0000
0000
0000
0000
0000
0000
0001
0000
0000
1000
0000
0000
0000
0000
0000
0100
0000
1000
0000
0100
0000
,
1000
0000
0010
0100
0010
0000
0001
0010
1000
0100
0010
0001
1000
0000
0000
0000
,
0001
0000
0100
1000
0100
0000
0001
0000
1001
0000
0000
0001
1000
0000
0100
0010
,
0001
0000
0100
0000
010M
0000
1000
0001
1000
0010
0100
0001
0100
0010
1000
0000
,
0002
0000
0003
0010
0001
0010
1000
0010
0100
0000
0010
0001
1000
0000
0010
1000
,
0001
0000
0010
0000
001M
0000
1000
0010
0100
0010
0100
0010
1000
0000
0000
0000
,
2001
0000
0000
0000
3100
1000
0100
1000
0001
0000
0100
0000
0101
0000
0001
1000
,
0100
0000
0001
0000
0100
1000
0100
1000
0001
0100
0001
0100
0020
0000
0000
0000
,
1030
0010
1000
0010
0100
0001
0100
0001
1000
0100
1000
0100
0010
0001
0010
0001
,
1000
0010
0100
0010
1000
0100
0010
0100
1000
0010
0100
0001
0020
0000
0000
0000
,
0032
0100
2003
0100
,
3020
0000
0001
0000
0130
0010
1000
0100
,
0020
1000
0032
0100
,
2003
0010
3200
0320
,
0031
0000
0100
0001
0100
0000
1000
0100
1000
0000
0100
0001
0100
0000
0010
1000
,
0001
0000
0010
0000
0M10
0000
0000
0000
1000
0000
0001
0100
0001
0000
1000
0000
,
0001
0000
0010
0001
0010
0000
0001
0100
0001
0000
0100
1000
0100
0000
0010
0100
,
0001
0100
010M
0000
1000
0100
0002
0203
,
1300
0000
0000
0000
1010
0000
1000
0010
0100
0000
0001
0000
1000
0000
0100
0000
,
0110
0000
0000
0000
0011
0000
0001
0010
0100
0000
1000
0000
0001
0000
0100
0000
,
0010
0100
0010
0000
1000
0001
1000
0000
0001
0010
0100
1000
0010
0100
0001
1000
,
0100
0000
0000
0100
0010
0000
0000
0010
0001
0100
0010
1000
0001
0000
0000
0000
,
0011
0400
1300
0001
0400
1300
0004
0013
,
4000
0000
3001
0000
1000
0100
0001
0100
1000
0000
0001
0000
1001
0000
0000
0000
,
1100
0040
0031
1000
0040
0031
4000
3100
,
0004
0000
0000
0000
0000
0000
1003
0000
0000
0000
0000
0000
0001
0000
0000
0010
0000
0000
0001
0000
0000
0000
0000
0000
1000
0000
0001
0000
1000
0000
0001
0000
1000
0000
0001
0000
0010
0000
0000
0000
0000
0000
0000
0000
0000
0000
0000
0000
,
0100
1000
0100
0001
0100
1000
0100
0010
,
0001
0000
0000
1000
0000
0000
0001
0000
0000
0000
0000
0000
0100
0000
0000
1000
0000
0000
0100
0000
0000
0000
0000
0000
0001
0000
0000
1000
0000
0000
0001
0000
0000
0000
0000
0000
0100
0000
0010
0000
0100
0000
0010
0000
0000
0000
0000
0000
,
1000
0100
0010
1000
0001
0100
0010
0001
1000
0010
0100
0001
0010
0100
1000
0001
,
0200
0000
0310
0100
0010
0000
1001
0000
,
1100
0000
0000
0000
0000
0000
1000
0000
0000
0000
0000
0000
0100
0000
0000
0000
0000
0000
0010
0000
0000
0000
0000
0000
0011
0000
0000
0000
0000
0000
0000
0000
0000
0010
0000
0000
0001
0000
0000
0000
0000
0000
1000
0000
0001
0000
1000
0000
,
0001
0000
1000
0010
0001
0000
1000
0100
0001
0000
0000
0001
0010
0000
0100
0000
,
0110
0000
0010
0000
0001
0000
0100
0000
0101
0000
0000
0001
1000
0000
0100
0000
,
0210
0000
0000
0000
1300
0000
0001
0000
1000
0010
0001
0010
1000
0100
0010
0001
,
0100
0000
0000
0000
0000
0000
0001
0000
0000
0000
0000
0000
0010
0000
0000
0000
0000
0000
0100
0000
0000
0000
0000
0000
1100
0000
0000
0000
0000
0000
0000
0000
0000
0100
0000
0000
1000
0000
0000
0000
0000
0000
0001
0000
1000
0000
0001
0000
,
1000
0000
0000
0000
0000
0000
0001
0000
0000
0100
0000
0000
1000
0000
0000
0000
0000
0000
0001
0000
0000
0010
0000
0000
1000
0000
0000
0000
0000
0000
0000
0000
0000
1000
0000
0000
0100
0000
0000
0000
0000
0000
0010
0000
0100
0000
0010
0000
,
0100
0000
0000
0000
0000
0000
0010
0000
0000
0000
0000
0000
0001
0000
0000
0000
0000
0000
0100
0000
0000
0000
0000
0000
0110
0000
0000
0000
0000
0000
0000
0000
0000
0100
0000
0000
0010
0000
0000
0000
0000
0000
1000
0000
0001
0000
1000
0000
,
0002
0000
2003
0000
3001
1000
0100
1000
0001
0000
0100
0000
0110
0000
0000
0000
,
0001
0000
0000
0100
0000
0000
0010
0000
0000
0001
0000
0000
1000
0000
0000
0100
0000
0000
0010
0000
0000
1000
0000
0000
0001
0000
0000
0000
0000
0000
0000
0000
0000
0001
0000
0000
0010
0000
0000
0000
0000
0000
0100
0000
0010
0000
0100
0000
,
0010
0000
1000
0010
0001
0000
1000
0100
0001
0000
0000
0001
0100
0000
1000
0000
,
1100
0000
0100
0000
0010
0000
0001
0000
0101
0000
0000
0100
0010
0000
0001
0000
,
0021
0000
0000
0000
1030
0000
0001
0000
1000
0100
0001
0100
1000
0010
0100
0001
,
0010
0000
0000
0000
0000
0000
0001
0000
0000
0000
0000
0000
0100
0000
0000
0000
0000
0000
0010
0000
0000
0000
0000
0000
1010
0000
0000
0000
0000
0000
0000
0000
0000
0010
0000
0000
1000
0000
0000
0000
0000
0000
0010
0000
0100
0000
0010
0000
,
0100
0000
0000
0000
0000
0000
1000
0000
0000
0100
0000
0000
0001
0000
0000
0000
0000
0000
1000
0000
0000
0010
0000
0000
0001
0000
0000
0000
0000
0000
0000
0000
0000
0001
0000
0000
0010
0000
0000
0000
0000
0000
0100
0000
0010
0000
0100
0000
,
0010
0000
0000
0000
0000
0000
1000
0000
0000
0000
0000
0000
0001
0000
0000
0000
0000
0000
0010
0000
0000
0000
0000
0000
0110
0000
0000
0000
0000
0000
0000
0000
0000
0010
0000
0000
0100
0000
0000
0000
0000
0000
1000
0000
0001
0000
1000
0000
,
0001
0000
1000
0010
0001
0000
0010
1000
0100
0010
0001
0100
0010
0000
0000
0000
,
1001
0000
0000
0000
;

//--------------- dance-double - Talkion ----------------
#NOTEDATA:;
#STEPSTYPE:dance-double;
#DESCRIPTION:Talkion;
#DIFFICULTY:Edit;
#METER:17;
#RADARVALUES:0,0,0,0,0;
#NOTES:
00000000
00000000
00000000
00000000
,
00000000
00000000
00000000
00000000
,
00000000
00000000
00000000
00000000
,
00000000
00000000
00000000
00000000
,
00000000
00000000
00000000
00000000
,
10000000
00000000
00100000
10000000
00100000
00000000
01000000
00100000
01000000
00000000
00001000
01000000
00001000
00000000
00010000
00000000
,
00000010
00000000
00000100
00000000
000001M0
00000000
00000000
00000000
00001000
00000000
00000001
00000100
00000001
00000000
00001000
00000000
,
00000100
00000000
00000010
00000001
00000010
00000000
00000001
00001000
00000001
00000000
00000100
00001000
00000100
00000000
00001000
00000000
,
01000000
00100000
0M100000
00000000
00010000
00100000
20000000
30200000
,
00301000
00000000
00011000
00001000
00000010
00000001
00000100
00001000
,
00011000
00000000
00011000
00010000
01000000
10000000
00100000
00010000
,
00001000
00000000
00010000
00000000
00000100
00001000
00000100
00001000
00000001
00000000
00000100
00000000
00000010
00001000
00000010
00001000
,
00000100
00000000
00000000
00000100
00010000
00000000
00000000
00010000
00001000
00100000
00001000
00100000
00010000
00000000
00000000
00000000
,
10100000
00000000
00000000
00000000
00101000
00000000
00000000
00000000
00440000
00330000
00000000
00000000
00044000
00033000
00000000
00000000
,
00001000
00000000
00000010
00000000
00000001
00001000
00000001
00001000
00000001
00000000
00000100
00000000
00000100
00000000
00000000
00000000
,
00000101
00000000
00000000
00000000
00010100
00000000
00000000
00000000
00004400
00003300
00000000
00000000
00044000
00033000
00000000
00000000
,
00010000
00000000
00000000
00000000
00000000
00000000
01000000
00000000
00000000
00000000
00000000
00000000
10000000
00000000
00000000
00010000
00000000
00000000
10000000
00000000
00000000
00000000
00000000
00000000
00010000
00000000
01000000
00000000
00010000
00000000
01000000
00000000
00010000
00000000
01000000
00000000
00100000
00000000
00000000
00000000
00000000
00000000
00000000
00000000
00000000
00000000
00000000
00000000
,
10000000
00100000
00010000
00001000
01000000
00010000
00001000
00000100
,
00000001
00000000
00000000
00000100
00000000
00000000
00000001
00000000
00000000
00000000
00000000
00000000
00000100
00000000
00000000
00000010
00000000
00000000
00000100
00000000
00000000
00000000
00000000
00000000
00010000
00000000
00000000
00000100
00000000
00000000
00010000
00000000
00000000
00000000
00000000
00000000
00001000
00000000
00010000
00000000
00001000
00000000
00010000
00000000
00000000
00000000
00000000
00000000
,
00001000
00100000
00001000
00100000
00010000
01000000
00010000
01000000
00100000
10000000
00010000
00100000
01000000
10000000
00010000
00100000
,
00002000
00000000
00003100
00000001
00000010
00000000
00001001
00000000
,
00000011
00000000
00000000
00000000
00000000
00000000
00000010
00000000
00000000
00000000
00000000
00000000
00000001
00000000
00000000
00000000
00000000
00000000
00000100
00000000
00000000
00000000
00000000
00000000
00001100
00000000
00000000
00000000
00000000
00000000
00000000
00000000
00000000
00001000
00000000
00000000
01000000
00000000
00000000
00000000
00000000
00000000
00100000
00000000
01000000
00000000
00100000
00000000
,
01000000
00000000
00100000
00010000
00001000
00000000
00010000
00001000
00000100
00000000
00000000
00000100
00000010
00000000
00010000
00000000
,
00011000
00000000
00001000
00000000
00100000
00000000
01000000
00000000
11000000
00000000
00000000
10000000
00010000
00000000
00100000
00000000
,
00102000
00000000
00000000
00000000
00003010
00000000
00001000
00000000
00100000
00010000
10000000
00100000
01000000
00010000
10000000
01000000
,
00100000
00000000
00000000
00000000
00000000
00000000
01000000
00000000
00000000
00000000
00000000
00000000
10000000
00000000
00000000
00000000
00000000
00000000
00100000
00000000
00000000
00000000
00000000
00000000
00110000
00000000
00000000
00000000
00000000
00000000
00000000
00000000
00000000
00010000
00000000
00000000
00000010
00000000
00000000
00000000
00000000
00000000
00000100
00000000
00000010
00000000
00000100
00000000
,
00000010
00000000
00000000
00000000
00000000
00000000
00000100
00000000
00000000
00001000
00000000
00000000
00010000
00000000
00000000
00000000
00000000
00000000
00001000
00000000
00000000
00010000
00000000
00000000
00100000
00000000
00000000
00000000
00000000
00000000
00000000
00000000
00000000
00100000
00000000
00000000
01000000
00000000
00000000
00000000
00000000
00000000
00010000
00000000
01000000
00000000
00010000
00000000
,
01000000
00000000
00000000
00000000
00000000
00000000
00001000
00000000
00000000
00000000
00000000
00000000
00000100
00000000
00000000
00000000
00000000
00000000
00000001
00000000
00000000
00000000
00000000
00000000
00000011
00000000
00000000
00000000
00000000
00000000
00000000
00000000
00000000
00000010
00000000
00000000
00000100
00000000
00000000
00000000
00000000
00000000
00010000
00000000
00001000
00000000
00010000
00000000
,
00002000
00000000
00023000
00000000
00031000
00010000
01000000
10000000
00010000
00000000
01000000
00000000
01010000
00000000
00000000
00000000
,
10000000
00000000
00000000
01000000
00000000
00000000
00100000
00000000
00000000
00010000
00000000
00000000
00001000
00000000
00000000
00000100
00000000
00000000
00000010
00000000
00000000
00000001
00000000
00000000
00001000
00000000
00000000
00000000
00000000
00000000
00000000
00000000
00000000
00001000
00000000
00000000
00000010
00000000
00000000
00000000
00000000
00000000
00000100
00000000
00000001
00000000
00000100
00000000
,
00000001
00000000
00000010
00001000
00010000
00000000
00001000
00010000
00100000
00000000
00000000
00100000
01000000
00000000
00001000
00000000
,
00011000
00000000
00010000
00000000
00000100
00000000
00000010
00000000
00000011
00000000
00000000
00000001
00001000
00000000
00000100
00000000
,
00020100
00000000
00000000
00000000
01030000
00000000
00010000
00000000
00000100
00001000
00000001
00000100
00000010
00001000
00000001
00000010
,
00000100
00000000
00000000
00000000
00000000
00000000
00010000
00000000
00000000
00000000
00000000
00000000
01000000
00000000
00000000
00000000
00000000
00000000
10000000
00000000
00000000
00000000
00000000
00000000
10010000
00000000
00000000
00000000
00000000
00000000
00000000
00000000
00000000
00010000
00000000
00000000
01000000
00000000
00000000
00000000
00000000
00000000
00100000
00000000
10000000
00000000
00100000
00000000
,
10000000
00000000
00000000
00000000
00000000
00000000
01000000
00000000
00000000
00010000
00000000
00000000
00001000
00000000
00000000
00000000
00000000
00000000
00010000
00000000
00000000
00001000
00000000
00000000
00000100
00000000
00000000
00000000
00000000
00000000
00000000
00000000
00000000
00000100
00000000
00000000
00000010
00000000
00000000
00000000
00000000
00000000
00001000
00000000
00000010
00000000
00001000
00000000
,
00000010
00000000
00000000
00000000
00000000
00000000
00000001
00000000
00000000
00000000
00000000
00000000
00000010
00000000
00000000
00000000
00000000
00000000
00010000
00000000
00000000
00000000
00000000
00000000
00011000
00000000
00000000
00000000
00000000
00000000
00000000
00000000
00000000
00001000
00000000
00000000
00100000
00000000
00000000
00000000
00000000
00000000
01000000
00000000
00100000
00000000
01000000
00000000
,
00100000
00000000
00001000
00010000
00000010
00000000
00010000
00001000
00000100
00000001
00000010
00000100
00001000
00000000
00000000
00000000
,
00000001
00000000
00000100
00001000
00000100
00000000
00000001
00000000
00001001
00000000
00000000
00001000
00010000
00000000
00100000
01000000
,
00100000
00000000
01000000
00000000
01M00000
00000000
00010000
10000000
00010000
00100000
01000000
10000000
00010000
00100000
00001000
00000000
,
00000200
00000000
00000300
00000010
00000001
00000010
00001000
00000010
00000100
00000000
00001000
00100000
00010000
00000000
00100000
00001000
,
00010000
00000000
00000100
00000000
000M0100
00000000
00000001
00001000
00000100
00001000
00000100
00001000
00000001
00000000
00000000
00000000
,
00001002
00000000
00000000
00000000
00001003
00000100
00001000
00000100
00010000
00000000
00001000
00000000
00101000
00000000
00100000
00010000
,
10000000
00000000
00100000
00000000
00010000
00001000
00010000
00001000
00000100
00000010
00000100
00000010
00002000
00000000
00000000
00000000
,
00003001
00000100
00000001
00000100
00000010
00001000
00000010
00001000
00000100
00010000
00000100
00010000
00001000
00100000
00001000
00100000
,
00010000
01000000
00010000
01000000
00100000
10000000
00100000
10000000
00010000
00100000
00001000
00010000
00000200
00000000
00000000
00000000
,
00000320
00001000
00020030
10000000
,
00032000
00000000
00000100
00000000
00013000
01000000
00100000
10000000
,
02000000
00010000
03002000
00000001
,
00023000
00100000
00032000
00003020
,
00000130
00000000
00001000
00000001
00001000
00000000
00000100
00010000
00000100
00000000
00010000
00001000
00010000
00000000
01000000
10000000
,
01000000
00000000
00100000
00000000
0M100000
00000000
00000000
00000000
10000000
00000000
00010000
00100000
00010000
00000000
01000000
00000000
,
00100000
00000000
10000000
00010000
10000000
00000000
00100000
00010000
00100000
00000000
00010000
00001000
00010000
00000000
00000010
00000001
,
00000010
00000100
000001M0
00000000
00001000
00000100
00000002
00000203
,
00010300
00000000
00011000
00010000
01000000
10000000
00100000
00010000
,
00011000
00000000
00011000
00001000
00000010
00000001
00000100
00001000
,
00010000
00000000
00001000
00000000
00100000
00010000
00100000
00010000
10000000
00000000
00100000
00000000
01000000
00010000
01000000
00010000
,
00100000
00000000
00000000
00100000
00001000
00000000
00000000
00001000
00010000
00000100
00010000
00000100
00001000
00000000
00000000
00000000
,
00000101
00000000
00000000
00000000
00010100
00000000
00000000
00000000
04040000
03030000
00000000
00000000
04400000
03300000
00000000
00000000
,
10000000
00000000
00010000
00000000
01000000
00001000
01000000
00001000
00010000
00000000
00100000
00000000
00100000
00000000
00000000
00000000
,
10100000
00000000
00000000
00000000
00101000
00000000
00000000
00000000
00004040
00003030
00000000
00000000
00000440
00000330
00000000
00000000
,
00000001
00000000
00000000
00000000
00000000
00000000
00000100
00000000
00000000
00000000
00000000
00000000
00000010
00000000
00000000
00010000
00000000
00000000
00000010
00000000
00000000
00000000
00000000
00000000
00001000
00000000
00000010
00000000
00001000
00000000
00000010
00000000
00001000
00000000
00000010
00000000
00000100
00000000
00000000
00000000
00000000
00000000
00000000
00000000
00000000
00000000
00000000
00000000
,
00000001
00000100
00001000
00010000
00000010
00001000
00010000
00100000
,
10000000
00000000
00000000
00100000
00000000
00000000
10000000
00000000
00000000
00000000
00000000
00000000
00100000
00000000
00000000
01000000
00000000
00000000
00100000
00000000
00000000
00000000
00000000
00000000
00001000
00000000
00000000
00100000
00000000
00000000
00001000
00000000
00000000
00000000
00000000
00000000
00010000
00000000
00001000
00000000
00010000
00000000
00001000
00000000
00000000
00000000
00000000
00000000
,
00000100
00000001
00000100
00000001
00001000
00000100
00001000
00000100
00000010
00001000
00010000
01000000
00100000
00010000
10000000
00010000
,
02000000
00000000
03100000
10000000
01000000
00000000
10010000
00000000
,
11000000
00000000
00000000
00000000
00000000
00000000
10000000
00000000
00000000
00000000
00000000
00000000
01000000
00000000
00000000
00000000
00000000
00000000
00100000
00000000
00000000
00000000
00000000
00000000
00101000
00000000
00000000
00000000
00000000
00000000
00000000
00000000
00000000
00001000
00000000
00000000
00000010
00000000
00000000
00000000
00000000
00000000
00000001
00000000
00000010
00000000
00000001
00000000
,
00000010
00000000
00000001
00000100
00001000
00000000
00010000
01000000
10000000
00000000
00000000
10000000
00010000
00000000
01000000
00000000
,
01001000
00000000
00001000
00000000
00000100
00000000
00000010
00000000
00001010
00000000
00000000
00001000
00000001
00000000
00000010
00000000
,
00000210
00000000
00000000
00000000
00010300
00000000
00001000
00000000
00100000
00001000
00010000
00000100
00001000
00000010
00000100
00000001
,
00001000
00000000
00000000
00000000
00000000
00000000
00000001
00000000
00000000
00000000
00000000
00000000
00000010
00000000
00000000
00000000
00000000
00000000
00000100
00000000
00000000
00000000
00000000
00000000
00010100
00000000
00000000
00000000
00000000
00000000
00000000
00000000
00000000
00010000
00000000
00000000
01000000
00000000
00000000
00000000
00000000
00000000
10000000
00000000
01000000
00000000
10000000
00000000
,
01000000
00000000
00000000
00000000
00000000
00000000
10000000
00000000
00000000
00100000
00000000
00000000
00010000
00000000
00000000
00000000
00000000
00000000
00001000
00000000
00000000
00000010
00000000
00000000
00000001
00000000
00000000
00000000
00000000
00000000
00000000
00000000
00000000
00000001
00000000
00000000
00001000
00000000
00000000
00000000
00000000
00000000
00000010
00000000
00000100
00000000
00000010
00000000
,
00000100
00000000
00000000
00000000
00000000
00000000
00001000
00000000
00000000
00000000
00000000
00000000
01000000
00000000
00000000
00000000
00000000
00000000
00010000
00000000
00000000
00000000
00000000
00000000
00110000
00000000
00000000
00000000
00000000
00000000
00000000
00000000
00000000
00100000
00000000
00000000
00010000
00000000
00000000
00000000
00000000
00000000
01000000
00000000
00001000
00000000
01000000
00000000
,
00002000
00000000
00023000
00000000
00031000
00010000
00100000
10000000
00010000
00000000
00100000
00000000
00110000
00000000
00000000
00000000
,
10000000
00000000
00000000
00100000
00000000
00000000
01000000
00000000
00000000
00010000
00000000
00000000
00001000
00000000
00000000
00000010
00000000
00000000
00000100
00000000
00000000
00000001
00000000
00000000
00000010
00000000
00000000
00000000
00000000
00000000
00000000
00000000
00000000
00000010
00000000
00000000
00000100
00000000
00000000
00000000
00000000
00000000
00010000
00000000
00001000
00000000
00010000
00000000
,
00001000
00000000
00100000
00010000
00001000
00000000
00000001
00000100
00001000
00000000
00000000
00001000
00010000
00000000
01000000
00000000
,
11000000
00000000
10000000
00000000
00100000
00000000
00010000
00000000
00011000
00000000
00000000
00001000
00000010
00000000
00000001
00000000
,
00000201
00000000
00000000
00000000
00010300
00000000
00000100
00000000
00000010
00001000
00000100
00010000
00001000
00100000
01000000
10000000
,
00010000
00000000
00000000
00000000
00000000
00000000
00001000
00000000
00000000
00000000
00000000
00000000
00010000
00000000
00000000
00000000
00000000
00000000
00100000
00000000
00000000
00000000
00000000
00000000
01100000
00000000
00000000
00000000
00000000
00000000
00000000
00000000
00000000
01000000
00000000
00000000
00100000
00000000
00000000
00000000
00000000
00000000
00001000
00000000
00010000
00000000
00001000
00000000
,
00010000
00000000
00000000
00000000
00000000
00000000
00000100
00000000
00000000
00001000
00000000
00000000
00010000
00000000
00000000
00000000
00000000
00000000
10000000
00000000
00000000
00100000
00000000
00000000
00010000
00000000
00000000
00000000
00000000
00000000
00000000
00000000
00000000
00010000
00000000
00000000
00001000
00000000
00000000
00000000
00000000
00000000
00010000
00000000
00000100
00000000
00010000
00000000
,
00000100
00000000
00000000
00000000
00000000
00000000
00000010
00000000
00000000
00000000
00000000
00000000
00000001
00000000
00000000
00000000
00000000
00000000
00000100
00000000
00000000
00000000
00000000
00000000
00001100
00000000
00000000
00000000
00000000
00000000
00000000
00000000
00000000
00001000
00000000
00000000
00010000
00000000
00000000
00000000
00000000
00000000
00100000
00000000
01000000
00000000
00100000
00000000
,
01000000
00000000
00100000
10000000
01000000
00000000
00010000
00001000
00000010
00000001
00001000
00000010
00000100
00000000
00000000
00000000
,
00001001
00000000
00000000
00000000
;
