#TITLE:Flying High (Speed Up Alejz Remix);
#SUBTITLE:;
#ARTIST:DCX;
#TITLETRANSLIT:;
#SUBTITLETRANSLIT:;
#ARTISTTRANSLIT:;
#GENRE:;
#CREDIT:;
#BANNER:flying-high-bn.png;
#BACKGROUND:flyin-high-bg.png;
#LYRICSPATH:;
#CDTITLE:pecd.png;
#MUSIC:Flying High (Speed Up Alejz Remix).ogg;
#OFFSET:0.025000;
#SAMPLESTART:85.680000;
#SAMPLELENGTH:10.000000;
#SELECTABLE:YES;
#BPMS:0.000000=168.000000
;
#STOPS:
;
#BGCHANGES:;
#KEYSOUNDS:;
#ATTACKS:;

//---------------dance-single - ----------------
#NOTES:
     dance-single:
     :
     Beginner:
     2:
     0.120494,0.167387,0.017391,0.060868,0.000000,97.000000,95.000000,2.000000,7.000000,0.000000,0.000000,0.120494,0.167387,0.017391,0.060868,0.000000,97.000000,95.000000,2.000000,7.000000,0.000000,0.000000:
0000
0000
0000
0000
,
0000
0000
0000
0000
,
0000
0000
0000
0000
,
0000
0000
0000
0000
,
0000
0000
0000
0000
,
0000
0000
0000
0000
,
0000
0000
0000
0000
,
0000
0000
0000
0000
,
0000
0000
0000
0000
,
0010
0000
0000
0000
,
0100
0000
0010
0000
,
0100
0000
0000
0000
,
0001
0000
1000
0000
,
0001
0000
0000
0000
,
1000
0000
0100
0000
,
1000
0000
0000
0000
,
0001
0000
0100
0000
,
0001
0000
0000
0000
,
0000
0000
0000
0000
,
1001
0000
0000
0000
,
0010
0000
0010
0000
,
0100
0000
0000
0000
,
0001
0000
0001
0000
,
1000
0000
0000
0000
,
0100
0000
0100
0000
,
1000
0000
0000
0000
,
0010
0000
0010
0000
,
0100
0000
0000
0000
,
0001
0000
0000
0000
,
1000
0000
0000
0000
,
0100
0000
1000
0000
,
0100
0000
0000
0000
,
1000
0000
0000
0000
,
0001
0000
0000
0000
,
0100
0000
0010
0000
,
0100
0000
0000
0000
,
0000
0000
0000
0000
,
0020
0000
0030
0000
,
2000
0000
3000
0000
,
0002
0000
0003
0000
,
0200
0000
0300
0000
,
0010
0000
0010
0000
,
0010
0000
0010
0000
,
0100
0000
0010
0000
,
0100
0000
0000
0000
,
0001
0000
0001
0000
,
0001
0000
0000
0000
,
1000
0000
0001
0000
,
1000
0000
0000
0000
,
1000
0000
1000
0000
,
1000
0000
0000
0000
,
0001
0000
1000
0000
,
0001
0000
0000
0000
,
1000
0000
0100
0000
,
0020
0000
0030
0000
,
0001
0000
0100
0000
,
0020
0000
0030
0000
,
1000
0000
0001
0000
,
1000
0000
0001
0000
,
1000
0000
0000
0000
,
1001
0000
0001
0000
,
1000
0000
0000
0000
,
0001
0000
1000
0000
,
0001
0000
0000
0000
,
1000
0000
0100
0000
,
0010
0000
0000
0000
,
0001
0000
0100
0000
,
0010
0000
0000
0000
,
1000
0000
0000
0000
,
0001
0000
0000
0000
,
1000
0000
0100
0000
,
1000
0000
0000
0000
,
0001
0000
0100
0000
,
0001
0000
0000
0000
,
1000
0000
0010
0000
,
1000
0000
0000
0000
,
0002
0000
0003
0000
,
0010
0000
0000
0000
;

//---------------dance-single - ----------------
#NOTES:
     dance-single:
     :
     Easy:
     7:
     0.288191,0.368251,0.052173,0.130431,0.000000,232.000000,226.000000,6.000000,15.000000,0.000000,0.000000,0.288191,0.368251,0.052173,0.130431,0.000000,232.000000,226.000000,6.000000,15.000000,0.000000,0.000000:
0000
0000
0000
0000
,
0000
0000
0000
0000
,
0000
0000
0000
0000
,
0000
0000
0000
0000
,
0000
0000
0000
0000
,
0000
0000
0000
0000
,
0000
0000
0000
0000
,
0000
0000
0000
0000
,
0000
0000
0000
0000
,
1000
0000
0100
0010
,
0002
0003
2000
3000
,
0010
0000
1000
0100
,
1000
0100
0001
0100
,
1000
0000
0001
0100
,
0020
0030
2000
3000
,
0001
0000
1000
0010
,
1000
0010
0001
0010
,
1000
0000
0000
0000
,
0002
0000
0000
0003
,
1001
0000
1000
0100
,
0010
0010
0100
0100
,
1000
0000
0001
0100
,
0010
0100
0001
1000
,
0100
0000
0010
0001
,
1000
1000
0001
0001
,
1000
0000
0010
0100
,
0010
1000
0100
0010
,
0001
0001
0100
0010
,
1000
1000
0100
1000
,
0001
0100
0010
0100
,
0001
1000
0100
1000
,
0000
0010
0100
0001
,
1000
1000
0100
1000
,
0010
0100
0001
0100
,
0010
1000
0001
1000
,
0010
0000
0000
0000
,
0000
0000
0000
0000
,
1000
0000
0100
0000
,
1000
1000
1000
0000
,
0001
0010
0001
0000
,
1000
0010
1000
0000
,
0001
0000
0100
0000
,
0001
0001
0001
0000
,
1000
0100
1000
0000
,
0001
0100
0010
1000
,
0001
0000
1000
0100
,
2000
3010
0002
0013
,
1000
0000
0001
0100
,
0001
0000
1000
0001
1000
0000
0100
0000
,
0010
0000
0001
0100
,
0002
0013
2000
3010
,
0001
0000
1000
0100
,
1000
0000
0001
1000
0001
0000
0100
0000
,
0010
0000
1000
0100
,
0020
0030
0002
0003
,
1000
0000
0001
0100
,
0020
0030
2000
3000
,
0000
0010
0000
0010
0000
0010
0000
0010
,
0000
0100
0000
0010
0000
0100
0000
0010
,
0010
0000
0000
0000
,
1000
0100
1000
0000
0001
0000
0001
0000
,
1000
0010
1000
0000
0001
0000
0001
0000
,
1000
0100
0010
0000
0001
0000
0100
0000
,
0010
1000
0001
1000
,
0000
0001
1000
1000
,
0001
0010
0001
0000
1000
0000
1000
0000
,
0001
0100
0010
0000
1000
0000
0100
0000
,
0010
0001
0100
0010
,
2000
0000
0000
3000
,
1001
1001
0100
0010
,
1000
1000
0100
1000
,
0010
0010
0100
0001
,
1001
1001
0001
0010
,
0001
0100
0010
1000
,
0001
1000
0100
1000
,
0010
0001
0010
1000
,
0002
0000
1003
0000
,
1001
0000
0000
0000
;

//---------------dance-single - ----------------
#NOTES:
     dance-single:
     :
     Medium:
     9:
     0.392536,0.508682,0.121736,0.243472,0.047825,316.000000,302.000000,14.000000,28.000000,0.000000,0.000000,0.392536,0.508682,0.121736,0.243472,0.047825,316.000000,302.000000,14.000000,28.000000,0.000000,0.000000:
0000
0000
0000
0000
,
0000
0000
0000
0000
,
0000
0000
0000
0000
,
0000
0000
0000
0000
,
0000
0000
0000
0000
,
0000
0000
0000
0000
,
0000
0000
0000
0000
,
0000
0000
0000
0000
,
0000
0000
0000
0000
,
1000
1000
1000
1000
,
0002
0000
0013
0000
0200
0000
1300
0010
,
0100
0100
0001
0001
,
1000
0000
0100
0010
0002
0000
1003
0010
,
0100
0100
0100
0100
,
0020
0000
1030
0000
0002
0000
0013
0100
,
1000
1000
0001
0001
,
0100
0000
0010
1000
0002
0000
0013
0100
,
1000
0000
0000
0000
,
1000
0001
0000
0001
0000
0001
0000
0001
,
1000
0000
1000
0000
0100
1000
0010
0000
,
0100
0000
0001
0010
0100
0000
0100
0010
,
0001
1000
0010
0100
,
0010
0000
1000
0001
0010
0000
0100
0000
,
0000
0000
1001
0000
0001
1000
0100
0000
,
1000
0000
0010
0100
0001
0000
0001
0100
,
0010
1000
0100
1000
,
0010
0000
1000
0100
0010
0000
0100
0000
,
2000
3001
0100
0100
,
0002
1003
0100
0100
,
2000
3010
0100
0001
,
0002
0000
0013
0100
1000
0000
0001
0000
,
0000
1001
1000
0100
,
1000
0000
0010
0100
0001
0000
0001
0100
,
0010
1000
0100
1000
,
0001
1000
0100
1000
0100
1000
0001
0000
,
2002
0000
0000
0000
,
0000
0000
0000
3003
,
0001
0100
0001
0000
0001
0000
0001
0000
,
1000
0100
1000
0000
1000
0000
1000
0000
,
0010
0100
0010
0000
0010
0000
0010
0000
,
2000
3100
0010
0010
,
0001
1000
0001
0000
1000
0000
1000
0000
,
0001
1000
0001
0000
0010
0000
0010
0000
,
0001
1000
0001
0000
0100
0000
0010
0000
,
2000
3100
0002
0103
,
0110
0100
0001
0001
,
2000
3010
0002
0013
,
1000
0100
0010
0010
,
0001
0000
1000
0010
0100
0000
0010
0000
,
1000
0001
0010
0010
,
0002
0103
2000
3100
,
0001
0100
0010
1000
,
0001
0000
1000
0100
0010
0000
0100
0000
,
1000
1000
0001
0001
,
0200
0300
0020
0030
,
0100
0100
0010
0010
,
2000
3000
0002
0003
,
1000
0100
0000
1000
0000
0001
0000
0100
,
0001
1000
0001
1000
0010
0100
0010
0100
,
0001
0000
0000
0000
,
1000
0000
0100
0000
0010
0000
0000
0000
0001
0000
0000
0001
0000
0000
0000
0000
,
0100
0000
0010
0000
1000
0000
0000
0000
0001
0000
0000
0001
0000
0000
0000
0000
,
1000
0000
0100
0000
0010
0000
0000
0000
0100
0000
0000
1000
0000
0000
0001
0000
,
0100
0000
0001
0000
1000
0000
0000
0000
0010
0000
0000
0100
0000
0000
0001
0000
,
0000
0000
0000
0000
1001
0000
0000
0000
1000
0000
0000
0100
0000
0000
0000
0000
,
1000
0000
0001
0000
0010
0000
0000
0000
0001
0000
0000
0100
0000
0000
0000
0000
,
0010
0000
1000
0000
0001
0000
0000
0000
1000
0000
0000
0100
0000
0000
1000
0000
,
0010
0000
0100
0000
0001
0000
0000
0000
1000
0000
0000
0100
0000
0000
0010
0000
,
0002
0000
0000
0003
,
1001
0000
0000
0000
1010
0000
0000
0000
1000
0000
0000
0100
0000
0000
1000
0000
,
0001
0000
0000
0000
0011
0000
0000
0000
0001
0000
0000
0100
0000
0000
0001
0000
,
1000
0000
0000
0000
1010
0000
0000
0000
1000
0000
0000
0100
0000
0000
0010
0000
,
0001
1000
0001
1000
0001
0000
0100
0000
,
0010
1000
0010
0100
0010
0000
1000
0000
,
0001
0010
0100
0010
0001
0000
1000
0000
,
1100
1001
0011
0110
,
0200
0000
0020
0330
,
2002
0000
0000
0000
,
3003
0000
0000
0000
;

//---------------dance-single - ----------------
#NOTES:
     dance-single:
     :
     Hard:
     12:
     0.490670,0.576507,0.060868,0.173909,0.160865,395.000000,388.000000,7.000000,20.000000,0.000000,0.000000,0.490670,0.576507,0.060868,0.173909,0.160865,395.000000,388.000000,7.000000,20.000000,0.000000,0.000000:
0000
0000
0000
0000
,
0000
0000
0000
0000
,
0000
0000
0000
0000
,
0000
0000
0000
0000
,
0000
0000
0000
0000
,
0000
0000
0000
0000
,
0000
0000
0000
0000
,
0000
0000
0000
0000
,
0000
0000
0000
0000
,
0010
1000
0100
1000
,
0020
1000
0230
0001
,
0310
1000
0001
0010
,
0002
0000
0103
0010
2000
0000
3100
0000
,
0010
0001
0100
0001
,
0020
0001
0230
1000
,
0310
0000
0001
1000
0010
0000
1000
0000
,
0002
0000
0103
0010
2000
0000
3100
0000
,
0010
0000
0000
0000
,
0001
1000
0000
1000
0000
1000
0000
1000
,
1001
0000
0001
0000
1000
0100
1000
0001
,
1000
0000
0010
0000
0100
0001
0010
0100
,
1000
0000
0001
0000
0100
0010
1000
0010
,
0100
0000
0001
1000
0100
0000
0010
0000
,
0000
0000
1001
0000
0001
0100
0001
1000
,
0001
0000
0100
0000
0010
1000
0100
0010
,
0001
0000
1000
0000
0010
1000
0001
1000
,
0010
0000
1000
0100
0010
0000
0001
0000
,
1000
0000
0000
0100
0000
0000
1000
0000
0001
0000
0000
0100
0000
0000
0001
0000
,
1000
0000
0000
0010
0000
0000
0100
0000
0010
0000
0000
1000
0000
0000
0001
0000
,
0010
0000
0000
0010
0000
0000
0001
0000
0100
0000
0000
0100
0000
0000
0010
0000
,
1000
0000
0000
1000
0000
0000
0001
0000
0010
0000
0000
0001
0000
0000
0100
0000
,
0000
0000
0000
0000
1001
0000
1000
0000
0100
0000
0000
1000
0000
0000
0010
0000
,
1000
0000
0000
0100
0000
0000
0010
0000
0001
0000
0000
0100
0000
0000
0010
0000
,
1000
0000
0000
1000
0000
0000
0001
0000
0100
0000
0000
0100
0000
0000
0001
0000
,
0010
0001
1000
0010
0100
0001
1000
0100
,
0020
0000
0000
0000
,
0000
0000
0000
0030
,
0001
0100
0001
0100
0001
0000
0001
0000
,
1000
0100
1000
0100
1000
0000
1000
0000
,
0010
0100
0010
0100
0010
0000
1000
0000
,
0010
0100
0010
0100
0010
0000
1000
0000
,
0001
0010
0001
1000
0001
0000
0001
0000
,
1000
0010
1000
0001
1000
0000
1000
0000
,
0010
0100
0010
0100
0001
1000
0001
1000
,
0200
0320
0032
1003
,
1010
0000
0000
0000
1000
0000
0000
0000
0100
0000
0000
1000
0000
0000
1000
0000
,
0020
0000
0000
0100
0000
0000
0130
0000
0001
0000
1000
0000
0001
1000
0001
0000
,
0010
0000
0000
0100
0000
0000
0100
0000
1000
0000
0000
0001
0000
0000
0001
0000
,
0100
0000
0000
0010
0000
0000
1000
0000
0001
0000
1000
0000
0001
1000
0001
0000
,
0010
0000
0000
0000
0001
0000
0000
0000
0100
0000
0000
0100
0000
0000
0001
0000
,
2000
0000
0000
0100
0000
0000
3100
0000
0010
0000
0001
0000
0010
0001
0010
0000
,
0100
0000
0000
1000
0000
0000
1000
0000
0010
0000
0000
0100
0000
0000
0100
0000
,
0001
0000
0000
0000
1000
0000
0100
0000
0010
0000
0001
0000
1000
0001
1000
0000
,
0010
0000
0000
0000
0010
0000
0000
0000
1000
0000
0000
1000
0000
0000
1000
0000
,
0100
0000
0000
0000
0100
0000
0000
0000
0010
0000
0000
0010
0000
0000
0010
0000
,
0001
0000
0000
0000
0001
0000
0000
0000
0100
0000
0000
0010
0000
0000
0100
0000
,
0010
0000
0000
0000
0010
0000
0000
0000
1000
0000
0000
0001
0000
0000
1000
0000
,
0001
1000
0000
0100
1000
0001
0000
0100
,
0001
0001
1000
1000
0100
0010
0001
1000
,
0020
0000
0200
0330
,
0010
0000
1000
0000
0001
0000
0010
0000
0100
0000
0000
0010
0000
0000
0001
0000
,
1000
0000
0010
0000
0100
0000
0010
0000
1000
0000
0000
0001
0000
0000
1000
0000
,
0001
0000
0010
0000
0100
0000
0010
0000
0001
0000
0000
1000
0000
0000
0010
0000
,
0100
0000
0010
0000
1000
0000
0001
0000
0010
0000
0000
0100
0000
0000
0010
0000
,
0100
0000
0000
0000
1001
0000
0001
0000
0100
0000
0000
0001
0000
0000
1000
0000
,
0100
0000
1000
0000
0001
0000
1000
0000
0100
0000
0000
1000
0000
0000
0001
0000
,
1000
0000
0010
0000
0100
0000
0010
0000
1000
0000
0000
0001
0000
0000
0010
0000
,
0001
0100
0010
0100
0001
1000
0100
0010
,
0002
0000
0000
0003
,
1000
0100
1000
0010
0100
0001
0010
0000
,
0001
0100
0001
1000
0001
0010
0001
0000
,
1000
0010
0100
0010
0000
1000
1001
0000
,
1000
0100
0010
0001
0100
0001
0010
0010
,
0001
0100
0010
1000
0100
1000
0001
0001
,
1000
0100
1000
0010
1000
0100
0010
0001
,
0100
0001
0100
0001
1000
0100
1000
0100
,
0020
0000
0000
0000
0001
0001
0031
0000
,
2002
0000
0000
0000
,
3003
0000
0000
0000
;

//---------------dance-single - ----------------
#NOTES:
     dance-single:
     :
     Challenge:
     15:
     0.724205,0.847804,0.130431,0.208690,0.517378,583.000000,568.000000,15.000000,24.000000,0.000000,0.000000,0.724205,0.847804,0.130431,0.208690,0.517378,583.000000,568.000000,15.000000,24.000000,0.000000,0.000000:
// measure 0
0000
0000
0000
0000
,  // measure 1
0000
0000
0000
0000
,  // measure 2
0000
0000
0000
0000
,  // measure 3
0000
0000
0000
0000
,  // measure 4
0000
0000
0000
0000
,  // measure 5
0000
0000
0000
0000
,  // measure 6
0000
0000
0000
0000
,  // measure 7
0000
0000
0000
0000
,  // measure 8
0000
0000
0000
0000
,  // measure 9
1000
0001
0010
0001
,  // measure 10
2000
0000
3010
0000
0200
0000
0301
0001
,  // measure 11
0010
0001
0100
0010
,  // measure 12
2000
0000
0000
0000
3100
0000
1000
0001
0100
0001
0000
0010
0000
0010
0100
0000
,  // measure 13
1000
0010
0100
0010
,  // measure 14
2000
0000
3100
0000
0020
0000
0031
0001
,  // measure 15
0100
0000
0010
1000
0001
0000
1000
0000
,  // measure 16
0100
0000
0000
0000
1000
0000
0010
0100
0001
0100
0000
0010
0000
0010
1000
0000
,  // measure 17
0001
0000
0000
0000
,  // measure 18
1000
0010
0000
0010
0000
0010
0000
0010
,  // measure 19
0110
0100
0001
1000
0001
0100
0010
1000
,  // measure 20
0200
1000
1300
0001
0020
0001
0031
0100
,  // measure 21
0010
0000
1000
0000
0001
0000
1000
0000
0010
0000
0100
0000
0001
0000
1000
0100
,  // measure 22
0010
0100
2000
0010
3020
0100
2030
0001
,  // measure 23
3001
0000
0110
0010
1000
0001
1000
0010
,  // measure 24
0200
0001
0301
0100
0020
1000
1030
0100
,  // measure 25
1000
0000
0001
0000
0100
0000
0010
0000
0010
0000
1000
0000
0001
0000
0010
0100
,  // measure 26
2000
0010
3020
0100
0130
0001
1000
0100
,  // measure 27
1000
0000
0001
0010
0000
0010
0001
0000
1000
0000
0001
0100
0000
0100
0010
0000
,  // measure 28
1000
0000
0100
0010
0000
0010
0001
0000
0100
0000
0010
0100
0010
0000
1000
0001
,  // measure 29
1000
0000
0100
1000
0000
1000
0010
0000
0100
0000
0001
1000
0000
1000
0100
0000
,  // measure 30
0010
0000
0001
1000
0000
1000
0100
0000
0010
0001
0010
0001
0000
0001
1000
0000
,  // measure 31
0000
0000
0010
0100
0001
1000
0001
0000
1000
0000
0100
0010
0000
0001
0010
0000
,  // measure 32
0100
0000
1000
0100
1000
0100
1000
0000
0001
0000
0100
0001
0100
0001
0100
0000
,  // measure 33
0010
0000
1000
0001
0000
0010
0001
0000
1000
0000
0010
1000
0000
0001
1000
0000
,  // measure 34
0100
0000
1100
0000
1001
0000
0101
0000
0110
0000
0010
1000
0001
0000
0010
0000
,  // measure 35
0220
0000
0000
0000
,  // measure 36
0000
0000
0000
0330
,  // measure 37
1000
0100
1000
0001
1000
0010
1000
0000
,  // measure 38
0001
0100
0001
1000
0001
0010
0001
0001
,  // measure 39
0100
0000
0010
0000
1000
0000
0001
0000
0010
0000
0001
1000
0001
1000
0001
0000
,  // measure 40
0100
0000
0010
0000
1000
0000
0001
0100
0010
1000
0000
0100
0000
0010
0001
0000
,  // measure 41
1000
0010
0100
0010
1000
0010
0100
0000
,  // measure 42
0001
0100
0010
0100
0001
0100
0010
0010
,  // measure 43
1000
0000
0001
0000
0010
0000
0100
0000
1000
0000
0001
1000
0001
1000
0001
0000
,  // measure 44
0100
0000
0010
0000
1000
0000
0001
0010
0001
0000
1000
0010
0000
0100
0010
0000
,  // measure 45
1000
0000
0100
0000
1000
0000
0001
0000
0001
0000
0100
0010
1000
0010
0100
0000
,  // measure 46
0001
0000
0010
0000
0001
0000
1000
0000
1000
0000
0100
1000
0010
1000
0100
0000
,  // measure 47
0010
0000
1000
0000
0001
0000
1000
0000
0010
0000
0100
0001
1000
0001
0100
0000
,  // measure 48
0100
0000
0001
0000
1000
0000
0001
0000
0100
0000
0010
1000
0001
1000
0010
0000
,  // measure 49
0100
0000
0001
0000
0001
0000
0010
0000
0001
0000
0100
0001
0100
0001
1000
0000
,  // measure 50
0100
0000
1000
0000
1000
0000
0001
0000
1000
0000
0100
1000
0100
1000
0001
0000
,  // measure 51
0100
0000
0010
0000
1000
0000
0100
0000
0010
0000
0001
1000
0001
1000
0001
0000
,  // measure 52
0010
0000
0100
0000
1000
0000
0010
0000
0100
0000
0001
1000
0001
1000
0001
0000
,  // measure 53
0100
0000
0100
0000
0100
0010
0100
0001
,  // measure 54
2000
0000
0100
3100
0020
0000
0001
0031
,  // measure 55
1000
0000
1000
0000
1000
0010
1000
0001
,  // measure 56
2000
0000
0010
3010
0200
0000
0001
0301
,  // measure 57
0010
0001
0100
0001
1000
0100
0010
0100
,  // measure 58
1100
1000
1001
0001
0011
0010
0110
0100
,  // measure 59
2100
0000
0002
3003
,  // measure 60
0100
0000
0001
0100
0001
0000
1000
0100
1000
0000
0010
0100
0000
0001
0100
0000
,  // measure 61
0010
0000
1000
0000
1000
0000
0001
1000
0001
0000
0100
0010
0000
1000
0001
0000
,  // measure 62
1000
0000
0100
0000
0100
0000
1000
0001
1000
0000
0001
0100
0010
0100
0001
0000
,  // measure 63
1000
0000
0010
0000
0010
0000
1000
0001
1000
0000
0001
0010
0100
0010
0001
0000
,  // measure 64
1000
0000
0000
0000
1001
0000
1000
0010
1000
0000
0001
0010
0000
0100
1000
0000
,  // measure 65
0001
0000
0100
0000
0100
0000
0001
1000
0001
0000
0100
0001
0000
1000
0100
0000
,  // measure 66
0010
0000
0001
0000
0001
0000
1000
0010
1000
0000
0001
0010
0100
0010
0001
0000
,  // measure 67
1000
0000
0010
0000
0100
0000
0010
0000
1000
0000
0001
0100
0000
0100
0001
0000
,  // measure 68
1000
0000
0001
1000
0001
0000
1000
0001
1000
0000
0000
0100
0000
0010
0100
0000
,  // measure 69
0010
0000
0001
0000
0001
0000
0100
0010
1000
0000
0010
0100
0000
0001
0100
0000
,  // measure 70
0010
0000
1000
0000
1000
0000
0100
1000
0001
0000
1000
0100
0000
0010
0100
0000
,  // measure 71
1000
0000
0001
0000
0001
0000
0010
0001
1000
0000
0001
0100
0010
0100
0001
0000
,  // measure 72
1000
0000
0001
0010
0100
0000
1000
0100
0010
0000
0001
0100
0000
0010
0100
0000
,  // measure 73
0001
0000
1000
0000
1000
0000
0100
1000
0001
0000
1000
0100
0000
0010
0001
0000
,  // measure 74
1001
0000
1000
0000
0010
0000
1000
0100
0010
0000
0001
0000
0100
0000
0001
0010
,  // measure 75
0100
0000
1000
0001
0100
0000
0001
1000
0100
0000
1000
0010
0100
0010
1000
0000
,  // measure 76
0001
0000
0010
0000
0100
0000
1000
0000
0001
1000
0001
1000
0001
0000
0000
0000
,  // measure 77
2002
0000
0000
0000
,  // measure 78
3003
0000
0000
0000
;
