#VERSION:0.83;
#TITLE:Fin.ArcDeaR;
#SUBTITLE:;
#ARTIST:MisoilePunch♪ ~タケノコ添え~;
#TITLETRANSLIT:;
#SUBTITLETRANSLIT:;
#ARTISTTRANSLIT:MisoilePunch ~Takenoko soe~;
#GENRE:;
#ORIGIN:;
#CREDIT:BadWolf;
#BANNER:Fin.ArcDeaR.png;
#BACKGROUND:Fin.ArcDeaR-bg.png;
#PREVIEWVID:;
#JACKET:Fin.ArcDeaR-jacket.png;
#CDIMAGE:;
#DISCIMAGE:;
#LYRICSPATH:;
#CDTITLE:cdtitle.png;
#MUSIC:Fin.ArcDeaR.ogg;
#OFFSET:0.180000;
#SAMPLESTART:56.320129;
#SAMPLELENGTH:17.066666;
#SELECTABLE:YES;
#BPMS:0.000=225.000;
#STOPS:;
#DELAYS:;
#WARPS:;
#TIMESIGNATURES:0.000=4=4;
#TICKCOUNTS:0.000=4;
#COMBOS:0.000=1;
#SPEEDS:0.000=1.000=0.000=0;
#SCROLLS:0.000=1.000;
#FAKES:;
#LABELS:0.000=Song Start;
#BGCHANGES:;
#KEYSOUNDS:;
#ATTACKS:
;

//---------------dance-single - ----------------
#NOTEDATA:;
#CHARTNAME:;
#STEPSTYPE:dance-single;
#DESCRIPTION:;
#CHARTSTYLE:;
#DIFFICULTY:Hard;
#METER:18;
#RADARVALUES:1.152610,1.428721,0.237053,0.160857,0.931280,953.000000,925.000000,28.000000,19.000000,0.000000,0.000000,0.000000,0.000000,0.000000,1.152610,1.428721,0.237053,0.160857,0.931280,953.000000,925.000000,28.000000,19.000000,0.000000,0.000000,0.000000,0.000000,0.000000;
#CREDIT:;
#NOTES:
0000
0000
0000
0000
,
0000
0000
0000
0000
,
0000
0000
0000
0000
,
0000
0000
0000
0000
,
0000
0000
0000
0000
,
1001
0000
0000
1001
0000
0000
1001
0000
0000
0000
1000
0000
0100
0000
0010
0000
,
0001
0100
0010
0001
0010
0100
0001
1000
,
1001
0000
0000
1001
0000
0000
1001
0000
0000
0000
0001
0000
0010
0000
0100
0000
,
1000
0000
0001
1000
0001
0000
0100
0000
0010
0000
1000
0100
1000
0000
0001
1000
,
0001
0000
1000
0010
0100
0010
0100
0010
1000
0000
0001
0000
0010
0000
0100
0000
,
1000
0000
0001
0100
0010
0100
0010
0100
0001
0000
1000
0000
0100
0000
0010
0000
,
0001
0000
0000
0101
0000
0000
1000
0000
0000
1100
0000
0000
0001
0000
1000
0000
,
0020
0230
0302
2003
,
3001
0010
0001
0010
0100
1000
0100
0000
1000
0000
0010
0000
0001
0000
0020
0000
,
0000
0130
0001
1000
0100
0010
0001
1000
,
0010
0100
0010
0100
0001
1000
0001
0000
0010
0000
0100
0000
1000
0000
0010
0000
,
0001
0000
0000
0000
0000
0000
0010
0000
0000
0000
0000
0000
1000
0000
0000
0000
0000
0000
0001
0000
0000
0000
0000
0000
1000
0000
0000
0000
0100
0000
0000
0000
0010
0000
0000
0000
0001
0000
0000
1000
0000
0000
0001
0000
0000
1000
0000
0000
,
0001
0000
0100
0000
1010
0000
1000
0100
,
0010
0000
1000
0000
0010
0000
0001
0000
0010
0100
0010
0000
0001
0000
0000
0000
,
2002
0000
0000
0000
,
0000
0000
0000
3003
,
1000
0100
0010
0001
0000
0100
0010
1000
,
0001
0010
0100
1000
0000
0010
0100
0001
,
1000
0100
0010
0100
0001
0100
0010
0100
,
1000
0000
0010
0000
0001
0000
0010
0000
0100
0000
0001
1000
0001
0000
1000
0000
,
0001
0010
0100
0010
1000
0010
0001
1000
,
0010
0100
1000
0100
0001
1000
0001
0010
,
0100
0000
1000
0000
0001
0000
1000
0000
0001
1000
0001
1000
0001
1000
0001
1000
,
0002
0000
0000
0000
2000
3003
0000
0000
,
1000
0100
0010
0001
0100
0010
0001
0010
,
0100
1000
0100
0010
1000
0100
0010
0001
,
1000
0000
0000
1010
0000
0000
0010
0100
0010
0000
1000
0000
0001
0000
0010
0000
,
0100
0000
0010
0000
0001
0000
2000
0000
0000
0000
3001
1000
0001
1000
0001
1000
,
0001
0000
1000
0010
1000
0000
0001
0100
0001
0000
0010
0000
0100
0000
0001
0000
,
0100
0000
0010
0000
0001
0000
2000
0000
0000
0000
3010
0000
0100
0001
0100
0001
,
1000
0000
0100
0000
0010
0001
0010
0001
1000
0000
0001
0000
0100
0010
0100
0010
,
1000
0000
0001
0000
0010
0000
0100
0000
1000
0001
1000
0000
0001
1000
0001
0000
,
1000
0100
1000
0000
0001
0000
0010
0000
0100
1000
0100
0000
1000
0000
0001
0000
,
1000
0010
1000
0000
0001
0000
0100
0000
0010
1000
0010
0000
1000
0001
1000
0000
,
0001
0010
0001
0000
1000
0000
0100
0000
0010
0001
0010
0000
0001
0000
1000
0000
,
0001
0100
0001
0000
1000
0000
0010
0000
0100
0001
0100
0000
0001
1000
0001
0000
,
1000
0100
0010
0000
0001
0000
0010
0000
0100
1000
0001
0000
1000
0000
0001
0000
,
0010
0100
1000
0000
0001
0000
1000
0000
0010
0000
0000
0100
0000
0000
0001
0000
,
1000
0010
0100
0000
0001
0000
0100
0000
0010
1000
0001
0000
1000
0000
0001
0000
,
0100
0010
1000
0000
0001
0000
1000
0000
0001
0010
0001
0010
0100
1000
0100
1000
,
0001
0000
0100
0000
1000
0000
0002
0000
0000
0000
0013
0000
0100
0000
0001
1000
,
0001
0000
0010
0000
1000
0000
0002
0000
0000
0000
0103
0000
0010
0000
0001
1000
,
0001
0100
0001
0100
0001
0100
0001
0100
0010
1000
0010
1000
0010
1000
0010
1000
,
0100
0000
0000
0110
0000
0000
0011
0000
0000
0000
0001
0000
1000
0000
0001
0000
,
1000
0010
0100
0010
0001
0010
0100
0001
,
1000
0000
0100
0000
0001
0000
0100
0000
0010
0001
1000
0000
0001
1000
0001
0000
,
1000
0000
0000
0000
0001
1000
0001
1000
0001
1000
0001
1000
0001
1000
0001
1000
,
0002
0000
1003
0001
,
1000
0000
0001
0010
0001
0000
1000
0000
0001
0010
0001
0000
1000
0000
0001
0000
,
0100
0000
0010
0000
1000
0000
0001
0000
0010
0000
0100
1000
0100
0000
1000
0000
,
0001
0000
1000
0010
1000
0000
0001
0000
1000
0010
1000
0000
0001
0000
1000
0000
,
0100
0000
0010
0000
0001
0000
1000
0000
0001
0000
0000
0101
0000
0000
1100
0000
,
1000
0000
0010
0000
0001
0000
0010
0000
0100
0000
0001
0000
1000
0000
0100
0010
,
0001
0000
0100
0000
1000
0000
0100
0000
0010
0000
1000
0000
0001
0000
0010
0100
,
1000
0000
0001
0100
0001
0100
0010
0000
1000
0100
1000
0100
0010
0000
0001
1000
,
0001
0100
0010
0001
0010
1000
0100
0010
,
0001
0000
1000
0010
1000
0000
0001
0000
1000
0010
1000
0000
0001
0000
1000
0000
,
0100
0000
0010
0000
0001
0000
1000
0000
0010
0000
0100
0001
0100
0000
0001
0000
,
1000
0000
0001
0010
0001
0000
1000
0000
0001
0010
0001
0000
1000
0000
0001
0000
,
0100
0000
0010
0000
1000
0000
0001
0000
1000
0001
1000
0001
1000
0001
1000
0001
,
0000
0000
1001
0000
1000
0100
0010
0001
,
0100
0010
0001
1000
0100
0010
1000
0001
,
0010
0100
1000
0010
0100
1000
0001
0010
,
0100
0000
0000
0101
0000
0000
0001
0000
1000
0000
0000
1100
0000
0000
0100
0000
,
0010
0010
0000
0001
1000
0000
0010
0010
,
1000
0100
1000
0100
0010
0100
0010
0001
0010
0001
1000
0001
,
1000
1000
0000
0010
0001
0000
0010
0010
,
1000
0000
0000
0001
0010
0100
1000
0000
0000
1000
0100
0010
,
0001
0001
0000
0100
1000
0000
0100
0100
,
0001
0000
0010
0000
0000
0000
0100
0000
1000
0000
0000
0000
0001
1000
0001
1000
,
0001
0100
0001
1001
1000
0100
0110
0010
,
0001
0000
1001
0000
1000
0000
0001
0000
1000
0100
1000
0100
0010
0001
0010
0100
,
1000
0010
0001
0010
0100
0001
1000
0100
,
0010
0000
0001
0000
0010
0100
0010
0100
1000
0000
0000
1010
0000
0000
0011
0000
,
0001
0100
1000
0100
0010
1000
0001
0010
,
0100
0000
1000
0000
0100
0010
0100
0010
0001
0000
0000
0101
0000
0000
1100
0000
,
1000
0010
1000
0010
1000
0000
0010
0000
0100
0001
0100
0001
0100
0000
0001
0000
,
1000
0100
1000
0100
1000
0000
0100
0000
0010
0001
0010
0001
0010
0000
0001
0000
,
1000
0001
1000
0001
1000
0001
1000
0001
1000
0001
1000
0001
1000
0001
1000
0001
,
1000
0100
0010
0001
0010
0100
2000
0000
0000
0000
0000
0000
,
3001
0000
0000
0000
,
1001
0000
0000
0000
0000
0000
0000
0000
1000
0000
0000
0001
0000
0000
1000
0000
,
0000
0000
0001
1000
0001
0000
0100
0000
0010
0000
1000
0100
0010
0000
0001
0000
,
1000
0000
0000
1010
0000
0000
0010
0000
0100
0000
0010
0000
0001
0000
0010
0000
,
1000
0000
0100
0010
0001
0000
1000
0000
0001
0100
0001
0100
0010
1000
0010
1000
,
0001
0010
1000
0020
0000
0130
1000
0001
,
1000
0000
0010
0000
0100
0000
0001
0000
0010
0100
0010
0100
1000
0001
1000
0001
,
1000
0010
0100
1000
0100
0001
1000
0001
,
1000
0100
0010
0100
1000
0000
0001
0100
0010
0100
0001
0000
1000
0000
0100
0010
,
0001
0000
0100
0000
0010
0000
0002
0000
0000
0000
0013
1000
0010
0000
1000
0000
,
0001
0010
0100
0010
0001
0000
1000
0010
0100
0010
1000
0000
0001
0000
0010
0100
,
1000
0000
0010
0000
0100
0001
0100
0001
1000
0100
0010
0001
0010
0100
1000
0001
,
0000
0000
2002
0000
0000
3003
1000
0010
,
0100
1000
0100
0001
0010
0100
0001
0100
,
1000
0010
0001
0010
0100
0010
1000
0001
,
1000
0000
0000
0100
0000
0000
0010
0000
0001
0000
1000
0001
1000
0000
0000
0000
,
0001
0000
0100
0000
0001
1000
0001
0000
0100
0000
0010
0000
1000
0001
1000
0000
,
0100
0000
0010
0000
0001
1000
0001
0000
1000
0000
0100
0000
1000
0001
1000
0000
,
0010
0000
0100
0000
0010
0001
0010
0000
0100
0000
0001
0000
1000
0100
0010
0000
,
0100
0000
1000
0000
0010
0100
0010
0000
0001
0000
0010
0000
0100
0001
1000
0000
,
0001
0010
0001
0010
0100
0010
0100
1000
0100
1000
0010
1000
,
0010
0100
0010
0100
0001
0100
0001
0010
0100
1000
0100
0010
,
0001
0100
0001
0100
0010
1000
0010
1000
0100
0010
0001
1000
0010
0100
0001
1000
,
0001
1000
0001
1000
0001
1000
0001
1000
0001
0000
0010
0000
0100
0000
1000
0000
;

//---------------dance-single - ----------------
#NOTEDATA:;
#CHARTNAME:;
#STEPSTYPE:dance-single;
#DESCRIPTION:;
#CHARTSTYLE:;
#DIFFICULTY:Medium;
#METER:15;
#RADARVALUES:0.741396,0.875668,0.101594,0.160857,0.067729,613.000000,601.000000,12.000000,19.000000,0.000000,0.000000,0.000000,0.000000,0.000000,0.741396,0.875668,0.101594,0.160857,0.067729,613.000000,601.000000,12.000000,19.000000,0.000000,0.000000,0.000000,0.000000,0.000000;
#CREDIT:;
#NOTES:
0000
0000
0000
0000
,
0000
0000
0000
0000
,
0000
0000
0000
0000
,
0000
0000
0000
0000
,
0000
0000
0000
0000
,
1001
0000
0000
1001
0000
0000
1001
0000
0000
0000
1000
0000
0100
0000
0010
0000
,
0001
0100
0010
1000
0001
0010
0100
1000
,
1001
0000
0000
1001
0000
0000
1001
0000
0000
0000
1000
0000
0010
0000
0100
0000
,
0001
1000
0100
0010
0001
1000
0001
0000
,
1000
0100
0010
0100
1000
0001
1000
0001
,
0100
0010
0100
0001
0010
0100
0010
0100
,
1000
0000
0000
0001
0000
0000
1000
0000
0000
0100
0000
0000
0010
0000
0001
0000
,
2000
3020
0032
0023
,
1030
0100
1000
0100
0010
0001
0010
0001
,
0000
0100
0010
0100
0010
1000
0001
0010
,
0100
1000
0100
1000
0001
1000
0001
1000
,
0010
0100
0010
0100
0001
1000
0100
0010
,
0001
1000
0010
0100
,
0001
0010
0100
0000
1000
0000
0001
0000
,
2002
0000
0000
0000
,
0000
0000
0000
3003
,
2000
0000
0100
0000
,
3002
0000
0010
0000
,
2003
0000
0100
0000
,
3002
0000
0010
0000
,
1003
0100
0010
0001
,
1000
0001
0010
0100
,
1000
0000
0010
0000
0100
0001
0100
0001
,
2000
0000
3001
0000
,
1000
0100
1000
0100
0010
0001
0010
0100
,
1000
0010
1000
0010
0100
0001
0100
0001
,
0010
0000
0000
0100
0000
0000
1000
0000
0001
0000
1000
0000
0001
0000
1000
0000
,
0100
0010
0001
1000
0000
0001
1000
0001
,
1000
0010
0100
0010
0100
0010
1000
0001
,
2000
0000
0000
3002
0000
0013
0100
1000
,
0001
0100
0001
0100
0010
1000
0010
1000
,
0100
0010
0001
1000
0100
0010
0001
1000
,
0001
0100
0000
0010
1000
0000
0100
0010
,
0000
0001
1000
0000
0001
0000
1000
0000
,
0001
0100
0000
0010
1000
0000
0001
0010
,
0000
0100
1000
0000
0010
0000
0100
0000
,
0001
1000
0000
0100
0010
0000
0001
1000
,
0000
0000
0010
0000
0100
0000
0000
0000
0001
0000
0000
1000
0000
0000
0001
0000
,
1000
0100
0000
0010
0001
0000
0100
0010
,
0000
1000
0001
0000
1000
0001
1000
0001
,
1000
0000
0100
0010
0000
0010
0001
1000
,
0001
0000
0100
0010
0000
0010
1000
0001
,
1000
0100
0010
0001
,
0100
0000
0000
0010
0000
0000
0100
0000
0000
0000
0001
0000
1000
0000
0001
0000
,
1000
0100
0001
0100
,
0010
0001
1000
0001
,
2002
0000
0000
3003
,
0110
0000
1000
0001
,
1000
0100
0010
0000
0100
1000
0000
0001
,
0100
0010
1000
0001
0000
0010
0100
1000
,
0001
0100
0010
0000
0100
0001
0000
1000
,
0100
0000
0010
0000
0001
0000
1000
0000
0001
0000
0000
1000
0000
0000
0001
0000
,
1000
0100
1000
0100
0000
0010
0000
0001
,
0100
0001
1000
0001
0000
1000
0000
0001
,
1000
0100
0010
0001
0000
0010
0100
1000
,
0000
0001
0100
0001
0000
1000
0001
1000
,
0001
0010
0100
0000
0010
0001
0000
1000
,
0010
0100
0001
1000
0000
0100
0010
0001
,
1000
0010
0100
0000
0010
1000
0000
0001
,
0010
0100
1000
0001
1000
0001
1000
0001
,
0000
1001
1000
1000
,
0001
0000
0001
0000
0010
0100
1000
0100
,
0010
0000
0001
0100
0010
1000
0010
1000
,
0001
0000
0000
0010
0000
0000
0100
0000
1000
0000
0000
0001
0000
0000
1000
0000
,
0001
0100
0000
0100
0010
0000
1000
0001
,
0000
0001
1000
0000
0100
0010
0001
0000
,
1000
0010
0000
0010
0100
0000
0001
1000
,
0000
1000
0001
0000
0010
0100
1000
0000
,
0001
1000
0000
1000
0001
0000
1000
0100
,
0000
0100
0010
0000
0001
1000
0001
1000
,
0001
0010
0100
1000
0000
1000
0010
0000
,
0010
0100
0000
0100
0001
1000
0001
1000
,
0001
0010
0100
1000
,
0100
0000
0000
0000
0010
0000
0000
0000
0001
0000
0000
1000
0000
0000
0001
0000
,
1000
0100
0010
0001
,
0010
0000
0000
0000
0100
0000
0000
0000
1000
0000
0000
0001
0000
0000
1000
0000
,
0001
0100
0001
0000
1000
0010
1000
0000
,
0001
0010
0001
0000
1000
0100
1000
0000
,
0001
1000
0001
1000
0001
1000
0001
1000
,
0100
0010
0001
1000
0002
0000
0000
0000
,
1003
0000
0000
0000
,
1001
0000
0000
0000
0000
0000
0000
0000
0001
0000
0000
1000
0000
0000
0001
0000
,
0000
0000
1000
0000
0100
0010
0001
0000
,
1000
0000
0000
0010
0000
0000
1000
0000
0001
0000
0010
0000
0100
0000
1000
0000
,
0001
1000
0001
1000
0000
0010
0100
0000
,
0001
1000
0100
0010
0000
0001
1000
0001
,
1000
0010
1000
0010
0100
0001
0100
0001
,
1000
0100
0010
0001
0000
1000
0001
1000
,
0001
0010
0100
0000
0010
0001
0000
1000
,
0010
0100
0001
1000
0000
0100
0010
0001
,
1000
0010
0100
0000
0010
1000
0000
0001
,
0010
0100
1000
0001
0010
0100
1000
0001
,
0000
0000
2002
0000
3003
0000
1000
0010
,
0100
0010
1000
0001
0010
0100
0010
0100
,
1000
0001
1000
0001
1000
0100
0010
0001
,
1000
0000
0000
0001
0000
0000
1000
0000
0001
0000
0000
0010
0000
0000
0100
0000
,
1000
0010
1000
0010
0100
0001
0100
0001
,
1000
0100
1000
0100
0010
0001
0010
0001
,
0100
0010
0100
0010
1000
0001
1000
0001
,
0010
0100
0010
0100
1000
0001
1000
0001
,
1000
0100
0010
0100
1000
0100
0010
0001
,
1000
0010
0100
0010
1000
0010
0100
0001
,
0010
0100
1000
0001
0100
0010
1000
0001
,
1000
0100
0010
0001
2000
0000
0000
3000
;

//---------------dance-single - ----------------
#NOTEDATA:;
#CHARTNAME:;
#STEPSTYPE:dance-single;
#DESCRIPTION:;
#CHARTSTYLE:;
#DIFFICULTY:Easy;
#METER:10;
#RADARVALUES:0.440241,0.599141,0.160857,0.279384,0.025399,364.000000,345.000000,19.000000,33.000000,0.000000,0.000000,0.000000,0.000000,0.000000,0.440241,0.599141,0.160857,0.279384,0.025399,364.000000,345.000000,19.000000,33.000000,0.000000,0.000000,0.000000,0.000000,0.000000;
#CREDIT:;
#NOTES:
0000
0000
0000
0000
,
0000
0000
0000
0000
,
0000
0000
0000
0000
,
0000
0000
0000
0000
,
0000
0000
0000
0000
,
1000
0000
0000
1000
0000
0000
1000
0000
0000
0000
0000
0000
1000
0000
0000
0000
,
0100
0010
0001
1000
,
0001
0000
0000
0001
0000
0000
0001
0000
0000
0000
0000
0000
0001
0000
0000
0000
,
0010
0100
1000
0001
,
1000
1000
0001
0001
,
0100
0100
0010
0010
,
1000
0000
0000
1100
0000
0101
0000
0000
,
1000
0001
1000
0001
,
1000
0100
0010
0001
,
0100
0010
1000
0001
,
1000
0100
0010
0100
,
1000
0010
0001
0010
,
2000
0000
0000
0000
,
0000
0000
0000
3000
,
2002
0000
0000
0000
,
0000
0000
0000
3003
,
0002
0000
0100
0000
,
2003
0000
0100
0000
,
3002
0000
0010
0000
,
2003
0000
0010
0000
,
3002
0000
0100
0000
,
2003
0000
0100
0000
,
3001
0010
0100
1000
,
0002
0000
1003
0000
,
0001
0010
0100
0010
,
0001
1000
0010
1000
,
1001
0000
1100
0000
,
0101
0000
0000
0011
0000
0000
1000
0000
,
0100
0010
0001
1000
,
0001
0100
1000
0100
,
0001
0010
0100
1000
,
0010
0100
0001
1000
,
0002
0000
0023
0000
,
2030
0000
3020
0000
,
0032
0000
0203
0000
,
2300
0000
3200
0000
,
0302
0000
0023
0000
,
0230
0000
2300
0000
,
3020
0000
0230
0000
,
0302
0000
2003
0000
,
3001
0000
0000
0011
0000
0000
0010
0000
,
0100
0000
0000
1100
0000
0000
1000
0000
,
0001
0100
0010
1000
,
0001
0000
0000
0001
0000
0000
0001
0000
0000
0000
0000
0000
0001
0000
0000
0000
,
2000
0000
0000
0000
,
3200
0000
0320
0000
,
0032
0000
0000
0000
,
1003
0000
0001
1000
,
0001
0001
1000
1000
,
0010
0100
0001
1000
,
0100
0100
0010
0010
,
0001
0100
1000
0100
,
0001
0000
0000
1001
0000
0000
1000
0000
,
0010
0000
0000
0110
0000
0000
0100
0000
,
0001
0010
0100
1000
,
0010
0100
0001
1000
,
0100
0100
0010
0010
,
0001
0100
1000
0100
,
0001
0001
1000
1000
,
0100
0010
0001
1000
,
0000
1001
1000
1000
,
0001
0001
0100
0100
,
0010
1000
0100
0010
,
0001
0000
0000
0001
0000
0000
0001
0000
1000
0000
0000
1000
0000
0000
1000
0000
,
0001
0000
1001
0000
,
1000
0100
0010
0000
,
0100
0000
1100
0000
,
1000
0001
0100
0000
,
0001
0000
0101
0000
,
0100
0010
1000
0000
,
0001
0000
0000
0011
0000
0000
1000
0000
,
0000
1010
0000
0000
0001
0000
1000
0000
,
0001
0010
0100
1000
,
0100
0000
0000
0000
0010
0000
0000
0000
0001
0000
0000
1000
0000
0000
0001
0000
,
1000
0100
0010
0001
,
0010
0100
1000
0001
,
1000
0010
0001
0010
,
1000
0100
0001
0100
,
1000
0010
0001
0010
,
1000
0001
1000
0001
2000
0000
0000
0000
,
3001
0000
0000
0000
,
1000
0000
0001
0000
,
0000
1001
1000
0001
,
0010
0100
1000
0010
,
0100
0001
1000
0100
,
0010
0001
1000
0001
,
0100
0010
1000
0001
,
1000
0100
0010
0100
,
1000
1000
0001
0001
,
0010
0100
1000
0001
,
0100
0100
0010
0010
,
1000
0100
0010
0001
,
0000
1001
1000
1000
,
0001
0001
0010
0100
,
1000
0010
0001
0010
,
2000
0000
0000
3001
,
1000
0100
1000
0100
,
0010
0000
0001
0000
0010
0001
0010
0000
,
0001
0100
0001
0100
,
0010
0000
1000
0000
0010
1000
0010
0000
,
1000
0000
0100
0000
0010
0001
0010
0001
,
1000
0000
0010
0000
0100
0001
0100
0001
,
1000
0010
0001
0010
,
1000
0001
1000
0001
2000
0000
0000
3000
;

//---------------dance-single - ----------------
#NOTEDATA:;
#CHARTNAME:;
#STEPSTYPE:dance-single;
#DESCRIPTION:;
#CHARTSTYLE:;
#DIFFICULTY:Beginner;
#METER:7;
#RADARVALUES:0.253985,0.413361,0.076196,0.143925,0.000000,210.000000,201.000000,9.000000,17.000000,0.000000,0.000000,0.000000,0.000000,0.000000,0.253985,0.413361,0.076196,0.143925,0.000000,210.000000,201.000000,9.000000,17.000000,0.000000,0.000000,0.000000,0.000000,0.000000;
#CREDIT:;
#NOTES:
// measure 0
0000
0000
0000
0000
,  // measure 1
0000
0000
0000
0000
,  // measure 2
0000
0000
0000
0000
,  // measure 3
0000
0000
0000
0000
,  // measure 4
0000
0000
0000
0000
,  // measure 5
1001
0000
0000
0000
,  // measure 6
0000
0000
0000
0000
,  // measure 7
0110
0000
0000
0000
,  // measure 8
1000
0000
0001
0000
,  // measure 9
1000
0000
0100
0000
,  // measure 10
0010
0000
0001
0000
,  // measure 11
0200
0000
0000
0000
,  // measure 12
0301
0000
1000
0000
,  // measure 13
0001
0000
0010
0000
,  // measure 14
0100
0000
1000
0000
,  // measure 15
0010
0100
0010
0100
,  // measure 16
0001
1000
0001
1000
,  // measure 17
0002
0000
0000
0000
,  // measure 18
0000
0000
0000
0003
,  // measure 19
2002
0000
0000
0000
,  // measure 20
0000
0000
0000
3003
,  // measure 21
2000
0000
0000
0000
,  // measure 22
3200
0000
0000
0000
,  // measure 23
0320
0000
0000
0000
,  // measure 24
0032
0000
0000
0000
,  // measure 25
2003
0000
0000
0000
,  // measure 26
3020
0000
0000
0000
,  // measure 27
0230
0000
0000
0000
,  // measure 28
0302
0000
1003
0000
,  // measure 29
0001
0000
0010
0000
,  // measure 30
0100
0000
1000
0000
,  // measure 31
0010
0000
0100
0000
,  // measure 32
0001
0000
1000
0000
,  // measure 33
0100
0000
0010
0000
,  // measure 34
0001
0000
1000
0000
,  // measure 35
0001
0000
0100
0000
,  // measure 36
0001
0001
1000
1000
,  // measure 37
0001
0000
1000
0000
,  // measure 38
0001
1000
0001
0000
,  // measure 39
0100
0000
0010
0000
,  // measure 40
0100
0010
0100
0000
,  // measure 41
0001
0000
1000
0000
,  // measure 42
0001
1000
0001
0000
,  // measure 43
0010
0000
0100
0000
,  // measure 44
0010
0100
0010
0000
,  // measure 45
1001
0000
0000
0000
,  // measure 46
0110
0000
0000
0000
,  // measure 47
1000
0100
0010
0001
,  // measure 48
1001
0000
0000
0000
,  // measure 49
2000
0000
0000
0000
,  // measure 50
3020
0000
0230
0000
,  // measure 51
0302
0000
0000
0000
,  // measure 52
1003
0000
0000
0000
,  // measure 53
0001
0001
0001
0000
,  // measure 54
1000
0000
0001
0000
,  // measure 55
1000
1000
1000
0000
,  // measure 56
0001
0000
1000
0000
,  // measure 57
0010
0000
0100
0000
,  // measure 58
0001
0000
1000
0000
,  // measure 59
0100
0000
0010
0000
,  // measure 60
0001
0000
1000
0000
,  // measure 61
0001
0001
0001
0000
,  // measure 62
1000
0000
0001
0000
,  // measure 63
1000
1000
1000
0000
,  // measure 64
0001
1000
0001
1000
,  // measure 65
0000
1001
0000
0000
,  // measure 66
0001
0000
1000
0000
,  // measure 67
0100
0000
0010
0000
,  // measure 68
0001
0000
1000
0000
,  // measure 69
0001
0000
0000
0000
,  // measure 70
1000
0000
0000
0000
,  // measure 71
0010
0000
0000
0000
,  // measure 72
0100
0000
0000
0000
,  // measure 73
0001
0000
0000
0000
,  // measure 74
1000
0000
0000
0000
,  // measure 75
0001
0000
0000
0001
0000
0000
1000
0000
,  // measure 76
0000
1000
0000
0000
0001
0000
1000
0000
,  // measure 77
0001
0000
0100
0000
,  // measure 78
0001
0000
0100
0000
,  // measure 79
0010
0000
1000
0000
,  // measure 80
0010
0000
1000
0000
,  // measure 81
0001
0000
0010
0000
,  // measure 82
0100
0000
1000
0000
,  // measure 83
0001
1000
0001
1000
,  // measure 84
0001
1000
0002
0000
,  // measure 85
1003
0000
0000
0000
,  // measure 86
0000
0000
0000
0000
,  // measure 87
0000
1001
0000
0000
,  // measure 88
1000
0000
0100
0000
,  // measure 89
0010
0000
0001
0000
,  // measure 90
0100
0000
0010
0000
,  // measure 91
1000
0000
0001
0000
,  // measure 92
1000
0000
0001
0000
,  // measure 93
1000
1000
1000
0000
,  // measure 94
0001
0000
1000
0000
,  // measure 95
0001
0001
0001
0000
,  // measure 96
1000
0001
1000
0001
,  // measure 97
0000
1001
0000
0000
,  // measure 98
1000
0000
0100
0000
,  // measure 99
0010
0000
0001
0000
,  // measure 100
1000
0000
0000
0000
,  // measure 101
0001
0000
0001
0000
,  // measure 102
1000
0000
1000
0000
,  // measure 103
0010
0000
0010
0000
,  // measure 104
0100
0000
0100
0000
,  // measure 105
0001
0000
0010
0000
,  // measure 106
0100
0000
1000
0000
,  // measure 107
0001
0010
0100
1000
,  // measure 108
0001
1000
0001
0000
;
