#TITLE:Extasy;
#SUBTITLE:;
#ARTIST:DJ NRG;
#TITLETRANSLIT:;
#SUBTITLETRANSLIT:;
#ARTISTTRANSLIT:;
#CREDIT:;
#BANNER:;
#BACKGROUND:;
#LYRICSPATH:;
#CDTITLE:;
#MUSIC:Extasy.ogg;
#OFFSET:0.000;
#SAMPLESTART:43.546;
#SAMPLELENGTH:12.000;
#SELECTABLE:YES;
#BPMS:0.000=143.040;
#STOPS:;
#BGCHANGES:;

//---------------dance-single - ----------------
#NOTES:
     dance-single:
     :
     Hard:
     12:
     0.604,0.594,0.067,0.134,0.301:
0000
0000
0000
0000
,
1000
0000
0010
1000
0010
0000
0100
0010
0100
0000
0001
0100
0001
0100
0000
0200
,
0000
0000
0000
0301
0100
0001
0100
0010
,
0000
0000
1000
0000
0100
0000
1000
0100
0000
0100
0000
1000
0100
0000
0010
0000
,
0001
0100
0010
0000
1000
0000
0100
0000
0010
0000
0100
0000
1000
0000
0001
0000
,
0010
0000
0001
0010
0001
0000
0010
0100
0010
0000
0100
1000
0100
0010
0000
0020
,
0000
0000
0000
0000
0000
0000
0031
0000
0001
0000
1000
0100
0010
0001
0000
1000
,
0000
1000
0000
0000
0001
0000
0010
0000
0100
0000
1000
0000
0010
0000
1000
0000
,
0100
0010
0001
0100
0010
1000
0001
0010
,
0001
0100
0010
0100
1000
0100
0000
0001
,
0010
0100
1000
0001
1000
0100
0000
0100
,
0110
0000
0000
0000
0100
0000
0000
0100
0000
0000
0100
0000
0010
0000
0001
0000
,
1000
0010
0100
1000
0100
0010
0001
0010
,
1000
0001
0010
0100
0010
1000
0000
0010
,
0001
0100
0010
1000
0010
0100
0000
0100
,
0001
0010
0001
0100
0001
0010
0100
1000
,
0000
1000
0100
0002
0000
1003
0000
0000
,
0001
0001
0100
1000
0010
1000
0001
0000
,
0010
0010
0001
0100
1000
0100
0010
1000
,
0001
0000
0000
0010
0000
0000
0100
0000
0000
0000
0000
0000
0000
0000
1002
0000
,
0000
1003
0010
0100
0000
0100
0001
0100
,
0010
0000
0000
1000
0000
0000
0100
0000
0000
0000
0000
0000
0000
0000
0002
0000
,
0000
0103
0010
0001
0000
0000
0000
0000
,
0001
0001
0100
0010
0000
1000
0100
0010
,
0001
0010
0000
0001
0010
0000
0100
0000
0000
0000
2000
0000
0000
0000
3000
0000
,
1001
0000
0001
0000
0100
0000
1000
0000
0100
0000
0001
0000
0010
0100
1000
0000
,
0010
0010
0100
0100
1000
1000
0100
0100
,
0001
0010
1000
0010
0001
0100
1000
0100
,
0001
0000
0000
0010
0000
0000
0100
0000
0000
0000
1000
0000
0010
0000
0100
0000
,
0001
0000
0010
0000
0001
0000
1000
0000
0100
0000
0000
0100
0000
0000
0000
0000
,
0010
0010
0001
0001
0100
0100
0010
0010
,
1000
0100
0001
0100
1000
0010
0001
0010
,
1000
0000
0000
0100
0000
0000
0001
0000
0000
0000
0100
0000
0010
0000
0001
0000
,
1000
0010
0100
1000
0100
0000
0101
0000
,
0001
0000
0010
0001
0010
0000
0100
0010
0100
0000
1000
0100
1000
0100
0000
0200
,
0000
0000
0000
0310
0001
0010
0001
0100
,
0000
0000
0100
0000
0010
0000
0100
0010
0000
0010
0000
1000
0010
0000
0100
0000
,
0001
0010
0100
0000
1000
0000
0010
0000
1000
0000
0100
0000
0010
0000
0001
0000
,
1000
0000
0010
1000
0010
0000
0100
0010
0100
0000
0001
0100
0001
0010
0000
0020
,
0000
0000
0000
0000
0030
0000
0001
0000
1000
0000
0001
0010
0100
1000
0000
0001
,
0000
0001
0000
0000
1000
0000
0010
0000
0100
0000
0001
0000
0010
0000
0100
0000
,
0001
0100
1000
0010
0100
0001
0010
0001
,
2002
3003
0000
0000
;

//---------------dance-double - ----------------
#NOTES:
     dance-double:
     :
     Hard:
     11:
     0.560,0.509,0.054,0.147,0.254:
00000000
00000000
00000000
00000000
,
00011000
00000000
00000000
00010000
01000000
00000000
00000000
01000000
10000000
00000000
00000000
10000000
00100000
10000000
00000000
20000000
,
00000000
00000000
30000000
01000000
10000000
01000000
10000000
00100000
,
00000000
00000000
00100000
00000000
10000000
00000000
00010000
00100000
00000000
00100000
00000000
00001000
00010000
00000000
00000010
00000000
,
00001000
00000001
00000010
00000001
00000100
00000010
00010000
00001000
,
00010000
00000000
00000000
00010000
00001000
00000000
00000000
00001000
00000100
00000000
00000000
00000100
00000001
00001000
00000000
00002000
,
00000000
00000000
00000000
00000000
00000000
00000000
00003001
00000000
00000100
00000000
00000001
00000000
00001000
00000000
00000000
00000010
,
00000000
00000010
00000000
00000000
00010000
00000000
00001000
00000000
00100000
00000000
00010000
00000000
01000000
00000000
00100000
00000000
,
10000000
01000000
00100000
00001000
00010000
00000010
00000100
00000001
,
00000010
00000010
00000001
00000001
00000100
00001000
00000000
00010000
,
00001000
00010000
00001000
01000000
10000000
01000000
00000000
10000000
,
11000000
00000000
00000000
00000000
01000000
00000000
00000000
01000000
00000000
00000000
00010000
00000000
10000000
00000000
01000000
00000000
,
00100000
00010000
10000000
10000000
10000000
00010000
01000000
00010000
,
00100000
00100000
01000000
01000000
00010000
00001000
00000000
00000010
,
00000001
00001000
00000001
00000010
00001000
00010000
00000000
00001000
,
01000000
01000000
00010000
00010000
00100000
01000000
10000000
00100000
,
00000000
01000000
00001000
00010000
00000000
00000100
00000000
00000000
,
00000010
00000001
00000100
00001000
00000000
00000000
00000000
00020000
,
00000000
00130000
10000000
01000000
00000000
01000000
00010000
00001000
,
00000010
00000000
00000000
00000001
00000000
00000000
00000100
00000000
00000000
00000000
00000000
00000000
00000000
00000000
00002000
00000000
,
00000000
00013000
00100000
10000000
00000000
10000000
01000000
00010000
,
00001000
00000000
00000000
00000010
00000000
00000000
00000100
00000000
00000000
00000000
00000000
00000000
00000000
00000000
00002000
00000000
,
00000000
00003010
00000100
00001000
00000000
00000000
00000000
00000000
,
00010000
01000000
10000000
00100000
00000000
00100000
10000000
01000000
,
00010000
00000000
00001000
00000200
00000000
00000302
00000000
00000000
,
00000013
00000001
00000100
00001000
00010000
01000000
10000000
00100000
,
10000000
10000000
01000000
01000000
00010000
00010000
00001000
00001000
,
00000010
00000001
00000100
00001000
00000100
00000001
00000010
00001000
,
00010000
00000000
00000000
01000000
00000000
00000000
10000000
00000000
00000000
00000000
00010000
00000000
00100000
00000000
01000000
00000000
,
10000000
00000000
10000000
00000000
00100000
00000000
01000000
00000000
00001000
00000000
00000000
00001000
00000000
00000000
00000000
00000000
,
00000010
00000010
00000001
00000001
00000100
00000100
00001000
00001000
,
00010000
01000000
10000000
00100000
00010000
00100000
10000000
01000000
,
00010000
00000000
00000000
00001000
00000000
00000000
00000100
00000000
00000000
00000000
00000001
00000000
00000010
00000000
00000100
00000000
,
00001000
00000001
00000001
00000100
00001000
00000000
00010000
00000000
,
00011000
00000000
00000000
00010000
01000000
00000000
00000000
01000000
10000000
00000000
00000000
10000000
00100000
10000000
00000000
20000000
,
00000000
00000000
00000000
30010000
01000000
00001000
00010000
00000010
,
00000000
00000000
00000100
00000000
00000001
00000000
00000010
00000100
00000000
00000100
00000000
00001000
00000001
00000000
00001000
00000000
,
00000001
00000010
00000001
00000000
00000100
00000000
00000010
00000000
00010000
00000000
00001000
00000000
00100000
00000000
00010000
00000000
,
10000000
00000000
00000000
10000000
00100000
00000000
00000000
00100000
00010000
00000000
00000000
00010000
00001000
00000010
00000000
00000020
,
00000000
00000000
00000000
00000000
00000000
00000000
00000031
00000000
00000010
00000000
00000001
00000000
00000100
00000010
00000000
00010000
,
00000000
00010000
00000000
00000000
00001000
00000000
00100000
00000000
00010000
00000000
01000000
00000000
00100000
00000000
10000000
00000000
,
01000000
00100000
00001000
00010000
00000010
00000100
00000001
00001000
,
00002002
00003003
00000000
00000000
;

//---------------dance-single - ----------------
#NOTES:
     dance-single:
     :
     Medium:
     10:
     0.497,0.481,0.080,0.147,0.120:
0000
0000
0000
0000
,
1001
0000
0001
0000
1000
0000
0010
0000
0100
0000
0001
0000
0100
0000
0000
0200
,
0000
0000
0300
0000
0001
0000
0001
0100
,
0000
0000
0100
0000
0010
0000
0000
1000
0000
1000
0000
0000
1000
0000
0000
0000
,
0001
0100
0001
0010
0001
0010
0100
1000
,
0010
0000
1000
0000
0001
0000
0100
0000
0010
0000
1000
0000
0010
0000
0000
0020
,
0000
0000
0000
0000
0000
0000
0000
0000
1030
0000
0100
0000
0010
0000
0000
0001
,
0000
0001
0000
0000
1000
0000
0010
0000
1000
0000
0100
0000
1000
0000
0010
0000
,
1000
0010
0100
0001
0010
0100
1000
0001
,
1000
1000
0001
0001
0100
0100
0000
0000
,
0001
0001
1000
1000
0100
0100
0000
0000
,
1001
0000
0000
0000
1000
0000
0000
1000
0000
0000
0100
0000
0010
0000
0001
0000
,
0000
0100
0000
0000
0000
0000
0100
0000
,
0001
0001
1000
1000
0100
0100
0000
0010
,
0000
0010
0001
0001
0100
0100
0000
0000
,
0010
0010
1000
1000
0001
0001
0100
0001
,
0000
0001
1000
0200
0000
0310
0000
0000
,
0001
0001
0100
0010
0000
0000
0000
2000
,
0000
3100
0001
0100
0000
0100
1000
0010
,
0001
0000
0000
0010
0000
0000
0100
0000
0000
0000
0000
0000
0000
0000
0002
0000
,
0000
0013
0100
1000
0000
0010
1000
0100
,
0010
0000
0000
0001
0000
0000
0100
0000
0000
0000
0000
0000
0000
0000
0020
0000
,
0000
1030
0100
0001
0000
0000
0000
0000
,
0001
0001
0100
1000
0000
0010
1000
0002
,
0000
0000
0000
0100
0000
1003
0000
0000
,
1001
0001
1000
0010
0100
0001
0010
0100
,
1000
0010
1000
0100
1000
0010
1000
0100
,
1000
1000
0010
0010
0100
0100
0001
0010
,
0100
0000
0000
1000
0000
0000
0001
0000
0000
0000
0000
0000
0000
0000
0001
0000
,
0100
0000
0010
0000
1000
0000
0001
0000
1000
0000
0000
1000
0000
0000
0000
0000
,
0001
0010
0001
0100
0001
0010
0001
0100
,
0001
0001
0010
0010
0100
0100
1000
0001
,
0100
0000
0000
0010
0000
0000
1000
0000
0000
0000
0000
0000
0000
0000
1000
0000
,
0010
0010
0100
0001
1000
0000
1001
0000
,
1001
0000
0001
0000
1000
0000
0010
0000
0100
0000
0001
0000
0100
0000
0000
0200
,
0000
0000
0000
0300
0010
0000
0010
1000
,
0000
0000
1000
0000
0100
0000
0000
0010
0000
0010
0000
0000
0001
0000
0100
0000
,
0010
0000
1000
0010
0100
0000
0001
0010
,
0100
0000
1000
0000
0010
0000
0100
0000
0001
0000
0010
0000
0001
0000
0000
0002
,
0000
0000
0000
0000
0000
0000
0003
0000
1000
0000
0001
0000
1000
0000
0000
0010
,
0000
0010
0000
0000
0100
0000
0001
0000
1000
0000
0100
0000
0001
0000
0100
0000
,
1000
0001
0100
0010
1000
0001
0010
0100
,
2002
3003
0000
0000
;

//---------------dance-double - ----------------
#NOTES:
     dance-double:
     :
     Medium:
     10:
     0.455,0.537,0.201,0.161,0.147: // measure 1
00000000
00000000
00000000
00000000
,  // measure 2
00012000
00000000
00000000
00000000
00003100
00000000
00000000
00000000
00000001
00000000
00000000
00000000
00000010
00001000
00000000
00020000
,  // measure 3
00000000
00000000
00030000
00000000
01000000
00000000
10000000
00100000
,  // measure 4
00000000
00000000
00000000
00000000
00010000
00000000
00000000
00001000
00000000
00001000
00000000
00000000
00000100
00000000
00000001
00000000
,  // measure 5
00000010
00000000
00000010
00000001
00000100
00000000
00000100
00001000
,  // measure 6
00021000
00000000
00000000
00000000
00130000
00000000
00000000
00000000
10000000
00000000
00000000
00000000
01000000
00010000
00000000
00000020
,  // measure 7
00000000
00000000
00000000
00000000
00000000
00000000
00000000
00000000
00001030
00000000
00000000
00000000
00000001
00000000
00000000
00000010
,  // measure 8
00000000
00000010
00000000
00000000
00000001
00000000
00000000
00000000
00000100
00000000
00001000
00000000
00010000
00000000
00000000
00000000
,  // measure 9
00100000
00010000
00001000
00000000
00000010
00001000
00010000
00000000
,  // measure 10
00100000
00000000
10000000
00000000
01000000
01000000
00000000
00000000
,  // measure 11
00010000
00000000
00001000
00000000
00000100
00000100
00000000
00000100
,  // measure 12
00001001
00000000
00000000
00000000
00000001
00000000
00000000
00000001
00000000
00000000
00000100
00000000
00000010
00000000
00000001
00000000
,  // measure 13
00000000
00001000
00000000
00000000
00000000
00000000
00010000
00100000
,  // measure 14
10000000
00000000
01000000
00000000
00010000
00010000
00000000
00000000
,  // measure 15
00001000
00000000
00000001
00000000
00000100
00000100
00000000
00000000
,  // measure 16
00000010
00000001
00000100
00000000
00000100
00000001
00000010
00000000
,  // measure 17
00001000
00010000
01000000
10000000
00000000
10000000
00000000
00000000
,  // measure 18
00010000
00010000
01000000
00001000
00000000
00000000
00000000
00000010
,  // measure 19
00000000
00000010
00000001
00000100
00000000
00000100
00001000
00000100
,  // measure 20
00000010
00000000
00000000
00010000
00000000
00000000
00001000
00000000
00000000
00000000
00000000
00000000
00000000
00000000
00200000
00000000
,  // measure 21
00000000
00310000
01000000
10000000
00000000
10000000
01000000
00100000
,  // measure 22
00010000
00000000
00000000
00001000
00000000
00000000
00000100
00000000
00000000
00000000
00000000
00000000
00000000
00000000
00000020
00000000
,  // measure 23
00000000
00001030
00000100
00000001
00000000
00000000
00000000
00000000
,  // measure 24
00000001
00000001
00000100
00001000
00000000
00001000
00000010
00000100
,  // measure 25
00001000
00000000
00010000
01000000
00000000
10000000
00000000
00000000
,  // measure 26
00100000
10000000
01000000
00010000
00001000
00000100
00000001
00000010
,  // measure 27
00000011
00000001
00001001
00000000
00001100
00000100
00011000
00000000
,  // measure 28
00010000
00001000
00010000
00001000
00100000
00010000
00100000
00010000
,  // measure 29
10000000
00000000
00000000
00100000
00000000
00000000
01000000
00000000
00000000
00000000
00000000
00000000
00000000
00000000
00000000
00000000
,  // measure 30
00010000
00000000
00010000
00000000
00100000
00000000
01000000
00000000
10000000
00000000
00000000
10000000
00000000
00000000
00000000
00000000
,  // measure 31
10100000
00010000
10010000
00000000
01010000
00001000
00011000
00000000
,  // measure 32
00010000
00001000
00010000
00001000
00000100
00000010
00000100
00000010
,  // measure 33
00001000
00000000
00000000
00000100
00000000
00000000
00000001
00000000
00000000
00000000
00000000
00000000
00000000
00000000
00000001
00000000
,  // measure 34
00000100
00001000
00000010
00000100
00000001
00000000
00001001
00000000
,  // measure 35
00021000
00000000
00000000
00000000
01030000
00000000
00000000
00000000
10000000
00000000
00000000
00000000
00100000
00010000
00000000
00002000
,  // measure 36
00000000
00000000
00000000
00000000
00003010
00000000
00000001
00000100
,  // measure 37
00000000
00000000
00000000
00000000
00000010
00000000
00000000
00010000
00000000
00010000
00000000
00000000
00001000
00000000
00000000
00000000
,  // measure 38
00100000
00010000
00001000
00000000
00000010
00000100
00001000
00000000
,  // measure 39
00012000
00000000
00000000
00000000
00003100
00000000
00000000
00000000
00000001
00000000
00000000
00000000
00000010
00001000
00000000
00200000
,  // measure 40
00000000
00000000
00000000
00000000
00000000
00000000
00000000
00000000
01300000
00000000
00000000
00000000
10000000
00000000
00000000
00100000
,  // measure 41
00000000
00100000
00000000
00000000
01000000
00000000
00000000
00000000
00001000
00000000
00000010
00000000
00000001
00000000
00000000
00000000
,  // measure 42
00000100
00001000
00010000
00000000
01000000
10000000
00010000
00000000
,  // measure 43
20020000
30030000
00000000
00000000
;

//---------------dance-double - ----------------
#NOTES:
     dance-double:
     :
     Easy:
     7:
     0.339,0.509,0.281,0.080,0.107:
00000000
00000000
00000000
00000000
,
00010000
00000000
00000000
00000000
00001000
00000000
00000000
00000000
00000100
00000000
00000000
00000000
00000010
00000000
00000000
00000020
,
00000000
00000000
00001030
00000001
,
00000100
00000001
00000010
00001000
,
00010000
01000000
10000000
00100000
,
00010000
00000000
00000000
00000000
00001000
00000000
00000000
00000000
00000010
00000000
00000000
00000000
00000001
00000000
00000000
00000002
,
00000000
00000000
00000000
00000000
00000000
00000000
00000000
00000000
00001003
00000000
00000000
00000000
00000010
00000000
00000000
00000001
,
00000000
00000001
00000000
00000000
00000010
00000000
00000000
00000000
00000100
00000000
00000000
00000000
00000001
00000000
00000000
00000000
,
00000010
00001000
00010000
00100000
,
00010000
00001000
00000010
00000000
,
00000010
00001000
00010000
00000000
,
00100000
00000000
00000000
00100000
00000000
00000000
00100000
00000000
00000000
00000000
00000000
00000000
00000000
00000000
00000000
00000000
,
00000000
00000000
00000000
00000000
,
10000000
01000000
00010000
00000000
,
00001000
00000100
00000001
00000000
,
00000010
00000001
00000100
00001000
,
00010000
00001000
00000100
00000001
,
00000010
00001000
00010000
00000000
,
00100000
00010000
00001000
00000000
,
00010000
00000000
00000000
00100000
00000000
00000000
01000000
00000000
00000000
00000000
00000000
00000000
00000000
00000000
00010000
00000000
,
00000000
00000000
10000000
01000000
00000000
00000000
00100000
00000000
,
00010000
00000000
00000000
10000000
00000000
00000000
01000000
00000000
00000000
00000000
00000000
00000000
00000000
00000000
00010000
00000000
,
00000000
00000000
00001000
00000100
00000000
00000000
00000000
00000000
,
00000001
00000010
00000100
00000010
,
00000001
00000100
00001000
00010000
,
00011000
00100000
00010000
01000000
,
10100000
01010000
00011000
00001010
,
00000101
00000011
00001100
00011000
,
00110000
00000000
00000000
00010000
00000000
00000000
01000000
00000000
00000000
00000000
00000000
00000000
00100000
00000000
00000000
00000000
,
10000000
00000000
00000000
00000000
01000000
00000000
00000000
00000000
00010000
00000000
00000000
00010000
00000000
00000000
00000000
00000000
,
00011000
00001010
00000101
00000011
,
00001100
00011000
00110000
11000000
,
10010000
00000000
00000000
10000000
00000000
00000000
00010000
00000000
00000000
00000000
00000000
00000000
01000000
00000000
00000000
00000000
,
00100000
10000000
01000000
00010000
,
00011000
00000000
00000000
00000000
00001000
00000000
00000000
00000000
00010000
00000000
00000000
00000000
00000100
00000000
00000000
00000200
,
00000000
00000000
00000000
00000000
00000310
00000000
00000001
00001000
,
00000000
00000000
00000000
00000000
00000010
00000000
00000000
00000100
00000000
00000100
00000000
00000000
00001000
00000000
00000000
00000000
,
00010000
00100000
00010000
00001000
,
00010000
00000000
00000000
00000000
01000000
00000000
00000000
00000000
10000000
00000000
00000000
00000000
00100000
00000000
00000000
00200000
,
00000000
00000000
00000000
00000000
00000000
00000000
00000000
00000000
10300000
00000000
00000000
00000000
00010000
00000000
00000000
00100000
,
00000000
00100000
00000000
00000000
01000000
00000000
00000000
00000000
00010000
00000000
00000000
00000000
00001000
00000000
00000000
00000000
,
00000010
00000001
00000100
00001000
,
00022000
00033000
00000000
00000000
;

//---------------dance-single - ----------------
#NOTES:
     dance-single:
     :
     Beginner:
     4:
     0.208,0.255,0.040,0.027,0.000:
0000
0000
0000
0000
,
1000
1000
0001
0001
,
0100
0000
0100
0000
,
0001
0000
1000
0000
,
0010
0000
0100
0000
,
0001
0001
1000
1000
,
0010
0000
0100
0000
,
0010
0000
1000
0000
,
0100
0000
0010
0000
,
0001
0001
0001
0000
,
1000
1000
1000
0000
,
1001
0000
0000
0000
,
0100
0100
0100
0000
,
0010
0010
0010
0000
,
1000
0000
1000
0000
,
0001
0001
0001
0000
,
0100
0100
0001
0000
,
0001
1000
0001
0000
,
1000
0001
1000
0000
,
0010
0000
0010
0000
,
0100
0000
0100
0000
,
0001
0000
0001
0000
,
1000
0000
1000
0000
,
0001
0000
0010
0000
,
0100
0000
1000
0000
,
1001
0000
0000
0000
,
1000
1000
0001
0001
,
0100
0100
0010
0010
,
1000
0000
0000
0000
,
0001
0000
0100
0000
,
0010
0010
1000
1000
,
0001
0001
0100
0100
,
0001
0000
0000
0000
,
1000
0000
0100
0100
,
1000
1000
0001
0001
,
0100
0000
0001
0000
,
0001
0000
0010
0000
,
0100
0000
1000
0000
,
0001
0001
1000
1000
,
0010
0000
0100
0000
,
0010
0000
0100
0000
,
0001
0000
1000
0000
,
2002
3003
0000
0000
;

//---------------dance-single - ----------------
#NOTES:
     dance-single:
     :
     Easy:
     6:
     0.342,0.509,0.321,0.080,0.094:
0000
0000
0000
0000
,
1001
0000
0000
0000
0001
0000
0000
0000
1000
0000
0000
0000
0010
0000
0000
0020
,
0000
0000
0130
0100
,
0001
0100
0010
1000
,
0100
0100
1000
0010
,
0100
0000
0000
0000
0001
0000
0000
0000
0010
0000
0000
0000
0001
0000
0000
0002
,
0000
0000
0000
0000
0000
0000
0000
0000
1003
0000
0000
0000
0001
0000
0000
0010
,
0000
0010
0000
0000
0001
0000
0000
0000
1000
0000
0000
0000
0010
0000
0000
0000
,
0100
0001
0010
0100
,
1000
0001
0100
0000
,
0001
1000
0100
0000
,
1001
0000
0000
0001
0000
0000
0001
0000
0000
0000
0000
0000
1000
0000
0000
0000
,
0010
0100
0001
0010
,
0001
0100
1000
0000
,
0100
0010
1000
0000
,
0100
1000
0100
0010
,
0001
0100
0001
0000
,
1001
1000
0100
0000
,
0010
0001
0100
0000
,
0010
0000
0000
0010
0000
0000
1000
0000
0000
0000
0000
0000
0000
0000
0000
0000
,
0001
0010
0100
0000
,
1000
0000
0000
1000
0000
0000
0100
0000
0000
0000
0000
0000
0000
0000
0000
0000
,
0010
0001
0100
0000
,
0010
1000
0001
0100
,
0001
0000
0000
1000
0000
0100
0000
0000
,
1001
1000
0010
0100
,
0101
0101
1010
1010
,
1001
0011
1100
1010
,
1001
0000
0000
1000
0000
0000
0001
0000
0000
0000
0000
0000
0000
0000
0000
0000
,
0100
0000
0000
0000
0010
0000
0000
0000
1000
0000
0000
1000
0000
0000
0000
0000
,
1010
1010
0101
0101
,
0011
1100
1010
0101
,
1001
0000
0000
0001
0000
0000
1000
0000
0000
0000
0000
0000
0000
0000
0000
0000
,
0100
0010
0001
0001
,
0011
0000
0000
0000
0001
0000
0000
0000
0100
0000
0000
0000
0010
0000
0000
0020
,
0000
0000
1030
0100
,
0010
0001
1000
0001
,
0010
0100
1000
0010
,
1000
0000
0000
0000
0100
0000
0000
0000
0010
0000
0000
0000
0001
0000
0000
0002
,
0000
0000
0000
0000
0000
0000
0000
0000
0103
0000
0000
0000
0010
0000
0000
1000
,
0000
1000
0000
0000
0001
0000
0000
0000
0010
0000
0000
0000
0100
0000
0000
0000
,
1000
0010
0100
0001
,
2002
3003
0000
0000
;
