#TITLE:Elektrikshot;
#SUBTITLE:;
#ARTIST:DJ Noriken;
#TITLETRANSLIT:;
#SUBTITLETRANSLIT:;
#ARTISTTRANSLIT:;
#GENRE:;
#CREDIT:;
#BANNER:Elektrikshot.png;
#BACKGROUND:Elektrikshot-bg.png;
#LYRICSPATH:;
#CDTITLE:;
#MUSIC:Elektrikshot.ogg;
#OFFSET:1.383000;
#SAMPLESTART:81.911118;
#SAMPLELENGTH:15.000000;
#LASTBEATHINT:1.085167;
#SELECTABLE:YES;
#DISPLAYBPM:170.000000;
#BPMS:0.000000=170.000000
,220.000000=85.000000
,228.000000=170.000000
;
#STOPS:
;
#BGCHANGES:;
#KEYSOUNDS:;
#ATTACKS:;

//---------------dance-single - ----------------
#NOTES:
     dance-single:
     :
     Hard:
     15:
     0.712088,0.990938,0.045246,0.301641,0.448691,661.000000,655.000000,6.000000,40.000000,0.000000,0.000000,0.712088,0.990938,0.045246,0.301641,0.448691,661.000000,655.000000,6.000000,40.000000,0.000000,0.000000:
// measure 0
0000
0000
0000
0000
,  // measure 1
0000
0000
0000
0000
,  // measure 2
0000
0000
0000
0000
,  // measure 3
0000
0000
0000
0000
,  // measure 4
0000
0000
0000
0000
,  // measure 5
0010
0000
0000
1000
0010
0000
0100
0000
0001
0000
0000
0010
0001
0000
0100
0000
,  // measure 6
0010
0000
0000
1000
0010
0000
0100
0000
0001
0000
0000
0010
0001
0000
1000
0000
,  // measure 7
0100
0000
0000
1000
0100
0000
0010
0000
0001
0000
0000
0100
0001
0000
0010
0000
,  // measure 8
0100
0000
0000
1000
0100
0000
0010
0000
0001
0000
0000
0100
0001
0000
1000
0000
,  // measure 9
0010
0100
0001
0010
0100
1000
0010
0100
,  // measure 10
0010
1000
0001
0010
0100
1000
0001
0100
,  // measure 11
0010
1000
0100
0010
0001
0100
0010
1000
,  // measure 12
0100
0010
0001
0100
0010
1000
0100
0010
,  // measure 13
0001
0010
0001
0000
0100
0001
0100
0000
0010
0100
0010
0000
1000
0010
1000
0000
,  // measure 14
0100
1000
0100
0000
1000
0001
1000
0000
0001
0100
0001
0000
0100
0010
0100
0000
,  // measure 15
0010
1000
0010
1000
0100
1000
0100
1000
0001
0010
0001
0010
0001
0100
0001
0100
,  // measure 16
0002
0000
0000
0000
,  // measure 17
0000
0000
0000
0000
,  // measure 18
0003
0000
0000
0000
,  // measure 19
0200
0000
0010
0000
0301
0000
0010
0100
,  // measure 20
1000
0100
0010
0001
0010
0000
0001
1000
,  // measure 21
0100
1000
0001
0010
0001
0000
1000
0010
,  // measure 22
1000
0001
0100
0002
0010
0000
0103
0000
,  // measure 23
0020
0000
0100
0000
1030
0000
0100
0010
,  // measure 24
0001
0010
0100
1000
0100
0000
1000
0001
,  // measure 25
0010
0001
1000
0100
1000
0000
0001
0100
,  // measure 26
0001
1000
0010
2000
0100
0000
3010
0000
,  // measure 27
1002
0000
0100
0000
1003
0000
0001
1000
,  // measure 28
0010
1000
0001
0100
0001
0000
0100
0010
,  // measure 29
1000
0010
0100
0001
0100
0000
0010
1000
,  // measure 30
0010
0100
0001
0200
1000
0000
0301
0000
,  // measure 31
2001
0000
0010
0000
3001
0000
1000
0001
,  // measure 32
0100
0001
1000
0010
1000
0000
0010
0100
,  // measure 33
0001
0100
0010
1000
0010
0000
0100
0001
,  // measure 34
0100
0010
1000
0020
0001
0000
1030
0000
,  // measure 35
0100
0000
0000
1000
0100
0000
0010
0000
0001
0000
0000
0100
0001
0000
0010
0000
,  // measure 36
0100
0000
0000
1000
0100
0000
0010
0000
0001
0000
0000
0100
0001
0000
1000
0000
,  // measure 37
0010
0000
0000
1000
0010
0000
0100
0000
0001
0000
0000
0010
0001
0000
0100
0000
,  // measure 38
0010
0000
0000
1000
0010
0000
0100
0000
0001
0000
0000
0010
0001
0000
1000
0000
,  // measure 39
0010
1000
0010
0000
1000
0001
1000
0000
0001
0100
0001
0000
0100
0010
0100
0000
,  // measure 40
0010
0100
0010
0000
0100
0001
0100
0000
0001
1000
0001
0000
1000
0010
1000
0000
,  // measure 41
0100
1000
0100
1000
0010
1000
0010
1000
0001
0100
0001
0100
0001
0010
0001
0010
,  // measure 42
0200
0000
2300
0000
3001
0100
0001
0000
,  // measure 43
2000
0010
0010
0010
3020
0100
0100
0130
,  // measure 44
0200
0001
0301
0100
0010
0010
0100
0000
,  // measure 45
0002
0010
0010
0010
0023
0100
0100
0130
,  // measure 46
0200
0000
2300
0000
3001
0100
0010
0000
,  // measure 47
2000
0010
0010
0010
3020
0100
0100
0130
,  // measure 48
0200
0001
0301
0100
0010
0010
0100
0000
,  // measure 49
0002
0010
0010
0010
0023
0100
0100
0130
,  // measure 50
0200
0000
2300
0000
3001
0100
0010
0000
,  // measure 51
1000
0000
0000
0010
1000
0000
0100
0000
0010
0000
0000
0001
0010
0000
0100
0000
,  // measure 52
1000
0010
0010
1000
0001
0001
1000
0000
,  // measure 53
0001
0000
0000
1000
0010
0000
0100
0000
0001
0000
0000
0100
0001
0000
0100
0000
,  // measure 54
0020
2030
3200
0300
,  // measure 55
2001
0000
0100
0000
3001
0000
1000
0001
0010
0001
1000
0100
1000
0000
0100
0010
,  // measure 56
0001
0010
0100
1000
0100
0000
0010
0001
0010
0100
1000
0200
0001
0000
1300
0000
,  // measure 57
1002
0000
0000
0000
0100
0000
0000
0000
1003
0000
0000
0000
0100
0000
0010
0100
,  // measure 58
0010
0000
0001
0000
0100
0000
0010
0000
1000
0000
0000
0000
1000
0000
0001
1000
,  // measure 59
0001
0000
0100
0000
0001
0000
1000
0000
0010
0000
0000
0000
0010
0000
0100
0010
,  // measure 60
0100
0001
0010
0100
1000
0000
0001
0000
,  // measure 61
2001
0000
0000
0000
0010
0000
0000
0000
3001
0000
0000
0000
0010
0000
0100
0010
,  // measure 62
0100
0000
1000
0000
0010
0000
0100
0000
0001
0000
0000
0000
0001
0000
1000
0001
,  // measure 63
1000
0000
0010
0000
1000
0000
0001
0000
0100
0000
0000
0000
0100
0000
0010
0100
,  // measure 64
0010
0000
1000
0000
0100
0000
0010
0000
0001
0100
0001
0100
0010
1000
0010
1000
,  // measure 65
0020
0000
0000
0000
1000
0000
0000
0000
0130
0000
0000
0000
0001
0000
0100
0001
,  // measure 66
1000
0000
0001
1000
0010
0000
1000
0001
0100
0000
0000
0000
0001
0000
0100
0001
,  // measure 67
1000
0000
0001
1000
0010
0000
1000
0001
0100
0000
0000
0000
0010
0000
0100
0001
,  // measure 68
0010
0000
0100
1000
0010
0000
0010
0000
0100
0001
0100
0001
0010
0001
1000
0001
,  // measure 69
0020
0000
0000
0000
0001
0000
0000
0000
0130
0000
0000
0000
1000
0000
0100
1000
,  // measure 70
0001
0000
1000
0001
0010
0000
0001
1000
0100
0000
0000
0000
1000
0000
0100
1000
,  // measure 71
0001
0000
1000
0001
0010
0000
0001
1000
0100
0000
0000
0000
0010
0000
0001
0000
,  // measure 72
0100
0010
1000
0001
0020
0000
0032
0000
,  // measure 73
0103
0000
0000
0010
1000
0000
0010
0000
0100
0000
0000
0001
0010
0000
0001
0000
,  // measure 74
0100
0000
0000
0010
1000
0000
0010
0000
0100
0000
0000
0001
0010
0000
0100
0000
,  // measure 75
0010
0000
0000
0001
0100
0000
0001
0000
0010
0000
0000
0100
1000
0000
0100
0000
,  // measure 76
0010
0000
0000
0001
0100
0000
0001
0000
0010
0000
0000
0100
1000
0000
0001
0000
,  // measure 77
1000
0000
0000
0001
0010
0000
0001
0000
1000
0000
0000
0010
0100
0000
0010
0000
,  // measure 78
1000
0000
0000
0001
0010
0000
0001
0000
1000
0000
0000
0010
0100
0000
0001
0000
,  // measure 79
0010
0000
0000
0001
0100
0000
0001
0000
0010
0000
0000
0100
1000
0000
0100
0000
,  // measure 80
0020
0000
0000
0030
,  // measure 81
0001
1000
0100
0010
0001
0100
0010
1000
,  // measure 82
0100
1000
0010
0100
0001
0010
0100
0010
,  // measure 83
0001
1000
0100
0010
0001
0100
0010
1000
,  // measure 84
0100
0010
0001
1000
0010
0100
0001
1000
,  // measure 85
0100
1000
0100
0000
1000
0010
1000
0000
0010
0100
0010
0000
0100
0001
0100
0000
,  // measure 86
0001
0010
0001
0000
0010
0100
0010
0000
0100
1000
0100
0000
1000
0001
1000
0000
,  // measure 87
0001
0100
0001
0100
0010
0100
0010
0100
0010
1000
0010
1000
0001
1000
0001
1000
,  // measure 88
0002
1000
1000
1003
,  // measure 89
0220
0000
0000
0000
,  // measure 90
0000
0000
0000
0000
0000
0330
0000
0000
;

//---------------dance-single - ----------------
#NOTES:
     dance-single:
     :
     Medium:
     11:
     0.493398,0.716586,0.045246,0.279018,0.094263,458.000000,452.000000,6.000000,37.000000,0.000000,0.000000,0.493398,0.716586,0.045246,0.279018,0.094263,458.000000,452.000000,6.000000,37.000000,0.000000,0.000000:
0000
0000
0000
0000
,
0000
0000
0000
0000
,
0000
0000
0000
0000
,
0000
0000
0000
0000
,
0000
0000
0000
0000
,
0000
0000
0000
1000
0000
0000
1000
0000
0000
0000
0000
0001
0000
0000
0001
0000
,
0000
0000
0000
1000
0000
0000
0001
0000
0000
0000
0000
0001
0000
0000
1000
0000
,
0000
0000
0000
0010
0000
0000
0010
0000
0000
0000
0000
0100
0000
0000
0100
0000
,
0000
0000
0000
0010
0000
0000
0100
0000
0000
0000
0000
0100
0000
0000
0010
0000
,
1000
0001
0100
0010
,
1000
0100
0010
0001
,
0010
0100
1000
0001
,
0100
0001
0010
0100
,
1000
0100
1000
0100
0010
0001
0010
0001
,
0100
0001
0100
0001
1000
0010
1000
0010
,
0100
0100
0010
0010
1000
1000
0001
0001
,
0002
0000
0000
0000
,
0000
0000
0000
0000
,
0003
0000
0000
0000
,
0200
0000
0010
0000
0310
0000
0010
0100
,
0001
0000
1000
0000
0001
0000
0010
0100
,
1000
0000
0001
0000
1000
0000
0010
0100
,
0001
0010
0100
1000
,
0020
0000
0100
0000
0130
0000
0100
0010
,
1000
0000
0001
0000
1000
0000
0100
0010
,
0001
0000
1000
0000
0001
0000
0100
0010
,
1000
0100
0010
0001
,
0012
0000
1000
0000
0013
0000
0001
1000
,
0010
0000
0100
0000
0010
0000
1000
0001
,
0010
0000
0100
0000
0010
0000
0001
1000
,
0010
0100
0001
1000
,
2010
0000
0001
0000
3010
0000
1000
0001
,
0010
0000
0100
0000
0010
0000
0001
1000
,
0010
0000
0100
0000
0010
0000
1000
0001
,
0010
0100
1000
0001
,
0100
0100
0010
0010
,
1000
1000
0001
0001
,
1000
1000
0010
0010
,
0100
0100
0001
0001
,
0100
0010
0100
0010
1000
0001
1000
0001
,
0010
0001
0010
0001
1000
0100
1000
0100
,
0010
0010
0001
0001
0100
0100
0010
0010
,
2000
3002
0203
0301
,
2000
0100
3100
0000
0020
0001
0031
0000
,
0200
0000
0302
0000
0013
0001
0100
0000
,
0002
0010
0013
0000
0200
1000
1300
0000
,
0020
0000
2030
0000
3100
1000
0010
0000
,
2000
0100
3100
0000
0020
0001
0031
0000
,
0200
0000
0302
0000
0013
0001
0100
0000
,
0002
0010
0013
0000
0200
1000
1300
0000
,
0020
0000
2030
0000
3100
1000
0010
0000
,
1000
0100
1000
0100
0010
0010
0010
0000
,
0001
0100
0001
0100
0010
0010
0010
0000
,
1000
0010
1000
0010
0100
0100
0100
0000
,
0002
2003
3200
0300
,
0200
0000
0010
0000
0310
0000
1000
0001
0010
0000
0100
0000
0010
0000
0001
1000
,
0010
0000
0100
0000
0010
0000
1000
0001
0010
0000
0100
0000
1000
0000
0001
0000
,
1002
0000
0100
0000
0103
0000
0010
0100
,
0001
0010
0100
1000
0001
0000
0100
0010
,
1000
0100
0010
0001
1000
0000
0010
0100
,
0001
0010
0100
0010
0001
0000
1000
0000
,
2001
0000
0010
0000
3010
0000
0100
0010
,
1000
0100
0010
0001
1000
0000
0010
0100
,
0001
0010
0100
1000
0001
0000
0100
0010
,
1000
0100
0010
0100
1000
0000
0001
0000
,
0210
0000
0001
0000
0301
0000
1000
0001
,
0100
0001
0010
0100
1000
0000
0001
1000
,
0100
1000
0100
0010
0001
0000
1000
0001
,
0100
0001
0010
0100
1000
0000
0010
0000
,
0120
0000
1000
0000
1030
0000
0001
1000
,
0010
1000
0100
0010
0001
0000
1000
0001
,
0010
0001
0010
0100
1000
0000
0001
1000
,
0100
1000
0100
0010
0002
0000
2003
0000
,
3100
0000
0000
0010
0000
0000
0010
0000
0100
0000
0000
1000
0000
0000
1000
0000
,
0010
0000
0000
0100
0000
0000
0100
0000
0010
0000
0000
1000
0000
0000
1000
0000
,
0001
0000
0000
1000
0000
0000
1000
0000
0001
0000
0000
0100
0000
0000
0010
0000
,
1000
0000
0000
0001
0000
0000
0001
0000
1000
0000
0000
0100
0000
0000
0010
0000
,
0010
0000
0000
0100
0000
0000
0100
0000
0010
0000
0000
0001
0000
0000
0001
0000
,
0100
0000
0000
0010
0000
0000
0010
0000
0100
0000
0000
0001
0000
0000
0001
0000
,
1000
0000
0000
0001
0000
0000
0001
0000
1000
0000
0000
0010
0000
0000
0010
0000
,
0200
0000
0000
0300
,
0001
0100
0010
1000
,
1000
0010
0100
0001
,
0010
0001
0100
0010
,
0010
0100
0001
1000
,
0010
0100
0010
0100
0001
0100
0001
0100
,
0001
0010
0001
0010
0001
1000
0001
1000
,
0001
0001
0010
0010
0100
0100
1000
1000
,
2000
0001
0001
0001
,
0002
0000
0000
0000
,
0000
0000
3003
0000
;

//---------------dance-single - ----------------
#NOTES:
     dance-single:
     :
     Easy:
     7:
     0.326419,0.614216,0.158361,0.279018,0.000000,303.000000,282.000000,21.000000,37.000000,0.000000,0.000000,0.326419,0.614216,0.158361,0.279018,0.000000,303.000000,282.000000,21.000000,37.000000,0.000000,0.000000:
0000
0000
0000
0000
,
0000
0000
0000
0000
,
0000
0000
0000
0000
,
0000
0000
0000
0000
,
0000
0000
0000
0000
,
0000
0000
0000
0000
,
0000
0000
0000
0000
,
0000
0000
0000
0000
,
0000
0000
0000
0000
,
0010
0000
0010
0000
,
0100
0000
0100
0000
,
0001
0000
0001
0000
,
1000
0000
1000
0000
,
0001
0001
0001
0001
,
0100
0100
0100
0100
,
0010
0010
0010
0010
,
2000
0000
0000
0000
,
0000
0000
0000
0000
,
3000
0000
0000
0000
,
0002
1000
1003
0000
,
0001
0001
0001
0000
,
1000
1000
1000
0000
,
0010
0010
0010
0010
,
2000
0001
3001
0000
,
1000
1000
1000
0000
,
0001
0001
0001
0000
,
0010
0010
0010
0010
,
1001
1001
1001
0000
,
0010
0010
0010
0000
,
0100
0100
0100
0000
,
0001
0001
0001
0001
,
1001
1001
1001
0000
,
0100
0100
0100
0000
,
0010
0010
0010
0000
,
1000
1000
1000
1000
,
0001
0000
0001
0000
,
1000
0000
1000
0000
,
0001
0000
0001
0000
,
1000
0000
1000
0000
,
0010
0010
0010
0010
,
0100
0100
0100
0100
,
0001
0010
0100
1000
,
0002
2003
3001
0000
,
2000
3002
2003
3020
,
0230
0000
0320
0000
0130
0100
0100
0000
,
0002
2003
3002
0023
,
0230
0320
0130
0000
,
0002
2003
3002
0203
,
0320
0000
0230
0000
0310
0010
0010
0000
,
2000
3002
2003
3200
,
0320
0230
0310
0000
,
0001
0001
1000
1000
,
0100
0000
0100
0000
0010
0010
0010
0000
,
0001
0001
1000
1000
,
0002
2003
3200
0300
,
1001
0110
1001
0000
0001
1000
0001
0000
,
1000
0001
1000
0000
0010
0100
0001
1000
,
1001
0110
1001
0100
,
1000
0001
1000
0001
1000
0000
0010
0000
,
0100
0010
0100
0010
0100
0000
0001
0000
,
0010
0100
0010
0100
0010
0000
0001
0000
,
1001
0110
1001
0010
,
0001
1000
0001
1000
0001
0000
0100
0000
,
0010
0100
0010
0100
0010
0000
1000
0000
,
0100
0010
0001
1000
,
1001
0110
1001
0100
,
1000
0001
1000
0001
1000
0000
0010
0000
,
0100
0010
0100
0010
0100
0000
0001
0000
,
0010
0100
0010
0100
0010
0000
0001
0000
,
1001
0110
1001
0010
,
0001
1000
0001
1000
0001
0000
0100
0000
,
0010
0100
0010
0100
0010
0000
1000
0000
,
0100
0010
0100
0010
0200
0000
2300
0000
,
3001
0000
0001
0000
,
1000
0000
1000
0000
,
0010
0000
0010
0000
,
0100
0000
0100
0000
,
0010
0000
0010
0000
,
1000
0000
1000
0000
,
0100
0000
0100
0000
,
0002
0000
0000
0003
,
0001
0000
0100
0000
,
0001
0000
0100
0000
,
0010
0000
1000
0000
,
0010
0000
1000
0000
,
0100
0100
0100
0100
,
1000
1000
1000
1000
,
0001
0000
0010
0000
0010
0100
0010
0100
,
2000
0000
0000
0000
,
0002
0000
0000
0000
,
0000
0000
3003
0000
;

//---------------dance-single - ----------------
#NOTES:
     dance-single:
     :
     Beginner:
     4:
     0.183139,0.375354,0.015082,0.150820,0.000000,170.000000,168.000000,2.000000,20.000000,0.000000,0.000000,0.183139,0.375354,0.015082,0.150820,0.000000,170.000000,168.000000,2.000000,20.000000,0.000000,0.000000:
0000
0000
0000
0000
,
0000
0000
0000
0000
,
0000
0000
0000
0000
,
0000
0000
0000
0000
,
0000
0000
0000
0000
,
0000
0000
0000
0000
,
0000
0000
0000
0000
,
0000
0000
0000
0000
,
0000
0000
0000
0000
,
0010
0000
0000
0000
,
0010
0000
0000
0000
,
0100
0000
0000
0000
,
0100
0000
0000
0000
,
0001
0000
0001
0000
,
1000
0000
0001
0000
,
0010
0000
0010
0000
,
0020
0000
0000
0000
,
0000
0000
0000
0000
,
0030
0000
0000
0000
,
0200
0000
0310
0000
,
1000
0001
0001
0000
,
1000
0001
0001
0000
,
0010
0000
0100
0000
,
2000
0000
3001
0000
,
0010
0100
0100
0000
,
0010
0100
0100
0000
,
1000
0000
0001
0000
,
0020
0000
0130
0000
,
0001
1000
1000
0000
,
0001
1000
1000
0000
,
0100
0000
0010
0000
,
0002
0000
1003
0000
,
0100
0010
0010
0000
,
0100
0010
0010
0000
,
0001
0000
1000
0000
,
1000
0000
0000
0000
,
1000
0000
0000
0000
,
0001
0000
0000
0000
,
0001
0000
0000
0000
,
0010
0000
0010
0000
,
0100
0000
0100
0000
,
1000
0000
0001
0000
,
2000
0000
0000
3000
,
1000
1000
0000
0000
,
0001
0001
0000
0000
,
0010
0010
0000
0000
,
0200
0300
0100
0000
,
0001
0001
0000
0000
,
1000
1000
0000
0000
,
0100
0100
0000
0000
,
0020
0030
0010
0000
,
1000
1000
1000
1000
,
1000
1000
1000
0000
,
0001
0001
0001
0000
,
0020
0030
0020
0030
,
2000
0000
3001
0000
0010
0100
0100
0000
,
0010
0100
0100
0000
1000
0000
0001
0000
,
0002
0000
1003
0000
,
0100
0010
0010
0000
,
0100
0010
0010
0000
,
0001
0001
0001
0001
,
2000
0000
3001
0000
,
0010
0100
0100
0000
,
0010
0100
0100
0000
,
1000
1000
1000
1000
,
0020
0000
0130
0000
,
0001
1000
1000
0000
,
0001
1000
1000
0000
,
0010
0010
0010
0010
,
0200
0000
0310
0000
,
1000
0001
0001
0000
,
1000
0001
0001
0000
,
0100
0100
0100
0100
,
0001
0000
0000
0000
,
0001
0000
0000
0000
,
1000
0000
0000
0000
,
0001
0000
0000
0000
,
0010
0000
0000
0000
,
0010
0000
0000
0000
,
0100
0000
0000
0000
,
0020
0000
0000
0030
,
0001
0000
0000
0000
,
0100
0000
0000
0000
,
0010
0000
0000
0000
,
1000
0000
0000
0000
,
0100
0000
0100
0000
,
0010
0000
0100
0000
,
0001
0000
1000
0000
,
2002
0000
0000
3003
,
2002
0000
0000
0000
,
0000
0000
3003
0000
;

//---------------dance-single - Wadatsumi Style----------------
#NOTES:
     dance-single:
     Wadatsumi Style:
     Edit:
     16:
     0.702392,0.990938,0.045246,0.339346,0.452461,652.000000,646.000000,6.000000,45.000000,0.000000,0.000000,0.702392,0.990938,0.045246,0.339346,0.452461,652.000000,646.000000,6.000000,45.000000,0.000000,0.000000:
0000
0000
0000
0000
,
0000
0000
0000
0000
,
0000
0000
0000
0000
,
0000
0000
0000
0000
,
0000
0000
0000
0000
,
0010
0000
0000
1000
0010
0000
0100
0000
0001
0000
0000
0010
0001
0000
0100
0000
,
0010
0000
0000
1000
0010
0000
0100
0000
0001
0000
0000
0010
0001
0000
1000
0000
,
0100
0000
0000
1000
0100
0000
0010
0000
0001
0000
0000
0100
0001
0000
0010
0000
,
0100
0000
0000
1000
0100
0000
0010
0000
0001
0000
0000
0100
0001
0000
1000
0000
,
0010
0100
0001
0010
0100
1000
0010
0100
,
0010
1000
0001
0010
0100
1000
0001
0100
,
0010
1000
0100
0010
0001
0100
0010
1000
,
0100
0010
0001
0100
0010
1000
0100
0010
,
0001
0010
0001
0000
0100
0001
0100
0000
0010
0100
0010
0000
1000
0010
1000
0000
,
0100
1000
0100
0000
1000
0001
1000
0000
0001
0100
0001
0000
0100
0010
0100
0000
,
0010
1000
0010
1000
0100
1000
0100
1000
0001
0010
0001
0010
0001
0100
0001
0100
,
0002
0000
0000
0000
,
0000
0000
0000
0000
,
0003
0000
0000
0000
,
0200
0000
0010
0000
0301
0000
0010
0100
,
1000
0100
0010
0001
0010
0000
0001
1000
,
0100
1000
0001
0010
0001
0000
1000
0010
,
1000
0001
0100
0002
0010
0000
0103
0000
,
0020
0000
0100
0000
1030
0000
0100
0010
,
0001
0010
0100
1000
0100
0000
1000
0001
,
0010
0001
1000
0100
1000
0000
0001
0100
,
0001
1000
0010
2000
0100
0000
3010
0000
,
1002
0000
0100
0000
1003
0000
0001
1000
,
0010
1000
0001
0100
0001
0000
0100
0010
,
1000
0010
0100
0001
0100
0000
0010
1000
,
0010
0100
0001
0200
1000
0000
0301
0000
,
2001
0000
0010
0000
3001
0000
1000
0001
,
0100
0001
1000
0010
1000
0000
0010
0100
,
0001
0100
0010
1000
0010
0000
0100
0001
,
0100
0010
1000
0020
0001
0000
1030
0000
,
0100
0000
0000
1000
0100
0000
0010
0000
0001
0000
0000
0100
0001
0000
0010
0000
,
0100
0000
0000
1000
0100
0000
0010
0000
0001
0000
0000
0100
0001
0000
1000
0000
,
0010
0000
0000
1000
0010
0000
0100
0000
0001
0000
0000
0010
0001
0000
0100
0000
,
0010
0000
0000
1000
0010
0000
0100
0000
0001
0000
0000
0010
0001
0000
1000
0000
,
0010
1000
0010
0000
1000
0001
1000
0000
0001
0100
0001
0000
0100
0010
0100
0000
,
0010
0100
0010
0000
0100
0001
0100
0000
0001
1000
0001
0000
1000
0010
1000
0000
,
0100
1000
0100
1000
0010
1000
0010
1000
0001
0100
0001
0100
0001
0010
0001
0010
,
0200
0000
2300
0000
3001
0100
0001
0000
,
2000
0010
0010
0010
3020
0100
0100
0130
,
0200
0001
0301
0100
0010
0010
0100
0000
,
0002
0010
0010
0010
0023
0100
0100
0130
,
0200
0000
2300
0000
3001
0100
0010
0000
,
2000
0010
0010
0010
3020
0100
0100
0130
,
0200
0001
0301
0100
0010
0010
0100
0000
,
0002
0010
0010
0010
0023
0100
0100
0130
,
0200
0000
2300
0000
3001
0100
0010
0000
,
1000
0000
0000
0010
1000
0000
0100
0000
0010
0000
0000
0001
0010
0000
0100
0000
,
1000
0010
0010
1000
0001
0001
1000
0000
,
0001
0000
0000
1000
0010
0000
0100
0000
0001
0000
0000
0100
0001
0000
0100
0000
,
0020
2030
3200
0300
,
2001
0000
0100
0000
3001
0000
1000
0001
0010
0001
1000
0100
1000
0000
0100
0010
,
0001
0010
0100
1000
0100
0000
0010
0001
0010
0100
1000
0200
0001
0000
1300
0000
,
1002
0000
0000
0000
0100
0000
0000
0000
1003
0000
0000
0000
0100
0000
0010
0100
,
0010
0000
0001
0000
0100
0000
0010
0000
1000
0000
0000
0000
1000
0000
0001
1000
,
0001
0000
0100
0000
0001
0000
1000
0000
0010
0000
0000
0000
0010
0000
0100
0010
,
0100
0001
0010
0100
1000
0000
0001
0000
,
2001
0000
0000
0000
0010
0000
0000
0000
3001
0000
0000
0000
0010
0000
0100
0010
,
0100
0000
1000
0000
0010
0000
0100
0000
0001
0000
0000
0000
0001
0000
1000
0001
,
1000
0000
0010
0000
1000
0000
0001
0000
0100
0000
0000
0000
0100
0000
0010
0100
,
0010
0000
1000
0000
0100
0000
0010
0000
0001
0100
0001
0100
0010
1000
0010
1000
,
0020
0000
0000
0000
1000
0000
0000
0000
0130
0000
0000
0000
0001
0000
1000
0001
,
0200
0000
0001
1000
0000
0000
1000
0001
0300
0000
0000
0000
0001
0000
1000
0001
,
0020
0000
0001
1000
0000
0000
1000
0001
0030
0000
0000
0000
0100
0000
0010
0100
,
2000
0000
0010
0100
0000
0000
0100
0010
3000
0001
0100
0001
0010
0001
1000
0001
,
0020
0000
0000
0000
0001
0000
0000
0000
0130
0000
0000
0000
1000
0000
0001
1000
,
0200
0000
1000
0001
0000
0000
0001
1000
0300
0000
0000
0000
1000
0000
0001
1000
,
0020
0000
1000
0001
0000
0000
0001
1000
0030
0000
0000
0000
0100
0000
0001
0000
,
0100
0010
1000
0001
0020
0000
0032
0000
,
0103
0000
0000
0010
1000
0000
0010
0000
0100
0000
0000
0001
0010
0000
0001
0000
,
0100
0000
0000
0010
1000
0000
0010
0000
0100
0000
0000
0001
0010
0000
0100
0000
,
0010
0000
0000
0001
0100
0000
0001
0000
0010
0000
0000
0100
1000
0000
0100
0000
,
0010
0000
0000
0001
0100
0000
0001
0000
0010
0000
0000
0100
1000
0000
0001
0000
,
1000
0000
0000
0001
0010
0000
0001
0000
1000
0000
0000
0010
0100
0000
0010
0000
,
1000
0000
0000
0001
0010
0000
0001
0000
1000
0000
0000
0010
0100
0000
0001
0000
,
0010
0000
0000
0001
0100
0000
0001
0000
0010
0000
0000
0100
1000
0000
0100
0000
,
0020
0000
0000
0030
,
0001
1000
0100
0010
0001
0100
0010
1000
,
0100
1000
0010
0100
0001
0010
0100
0010
,
0001
1000
0100
0010
0001
0100
0010
1000
,
0100
0010
0001
1000
0010
0100
0001
1000
,
0100
1000
0100
0000
1000
0010
1000
0000
0010
0100
0010
0000
0100
0001
0100
0000
,
0001
0010
0001
0000
0010
0100
0010
0000
0100
1000
0100
0000
1000
0001
1000
0000
,
0001
0100
0001
0100
0010
0100
0010
0100
0010
1000
0010
1000
0001
1000
0001
1000
,
0002
1000
1000
1003
,
0220
0000
0000
0000
,
0000
0000
0000
0000
0000
0330
0000
0000
;
