#TITLE:对不起, 只是忽然很想你;
#SUBTITLE:;
#ARTIST:李宇春;
#TITLETRANSLIT:Dui Bu Qi, Zhi Shi Hu Ran Hen Xiang Ni;
#SUBTITLETRANSLIT:;
#ARTISTTRANSLIT:Li Yuchun;
#GENRE:Mandopop;
#CREDIT:;
#BANNER:DBQZSHRHX-bn.png;
#BACKGROUND:DBQZSHRHX-bg.png;
#LYRICSPATH:;
#CDTITLE:cdtitle.png;
#MUSIC:Dui Bu Qi, Zhi Shi Hu Ran Hen Xiang Ni.ogg;
#OFFSET:-0.499000;
#SAMPLESTART:72.999001;
#SAMPLELENGTH:16.000000;
#SELECTABLE:YES;
#BPMS:0.000000=120.000000
;
#STOPS:
;
#BGCHANGES:;
#KEYSOUNDS:;
#ATTACKS:;

//---------------dance-single - ----------------
#NOTES:
     dance-single:
     :
     Hard:
     11:
     0.450130,0.527180,0.136625,0.452570,0.064043,369.000000,353.000000,16.000000,53.000000,0.000000,0.000000,0.450130,0.527180,0.136625,0.452570,0.064043,369.000000,353.000000,16.000000,53.000000,0.000000,0.000000:
// measure 0
0000
0000
0000
0000
,  // measure 1
0000
0000
0000
0000
,  // measure 2
0000
0000
0000
0000
,  // measure 3
0000
0000
0000
0000
,  // measure 4
0000
0000
0001
0010
0100
1000
0000
0001
,  // measure 5
0000
0001
0100
0010
1000
0001
0000
1000
,  // measure 6
0000
1000
0001
0010
0001
0100
0000
0010
,  // measure 7
0000
0010
1000
0100
0010
0001
0000
1000
,  // measure 8
0010
0100
0001
0010
0100
1000
0000
0001
,  // measure 9
0000
0001
0100
1000
0100
0010
0000
0100
,  // measure 10
0000
0100
0001
0100
0010
1000
0000
0001
,  // measure 11
0000
0001
0010
0100
1000
0000
1001
0000
,  // measure 12
0001
0100
0201
0000
0320
0000
1030
0100
,  // measure 13
0001
0000
0100
0000
1000
0000
0000
0010
1000
0000
0001
0000
0100
0000
0010
0000
,  // measure 14
1000
0100
0020
0000
0032
0010
0010
0000
,  // measure 15
1000
0000
0013
0001
1000
0001
0100
0010
,  // measure 16
0001
0010
0210
0000
0320
0000
1030
0010
,  // measure 17
0001
0000
0010
0000
1000
0000
0000
0010
1000
0000
0001
0000
0100
0000
0010
0000
,  // measure 18
1000
0001
0020
0000
0230
0010
0010
0000
,  // measure 19
1000
0000
1300
0100
1000
0100
0010
0001
,  // measure 20
0010
0001
0011
1000
0001
0010
0001
1000
,  // measure 21
0100
0010
0100
1000
0001
0000
0010
0001
,  // measure 22
1000
0001
0100
0010
0001
0010
1000
0010
,  // measure 23
0100
0100
0002
0000
0023
0000
0230
0000
,  // measure 24
0000
1300
1100
0100
0010
0001
0010
0100
,  // measure 25
1000
0010
0001
0010
0100
0000
0001
0010
,  // measure 26
0100
0000
1000
0010
0100
0001
0010
0100
,  // measure 27
1000
0001
0002
0000
0203
0000
0320
0000
,  // measure 28
1030
0100
1010
0000
1002
0003
2000
3000
,  // measure 29
0010
0000
1010
0000
2001
3000
2000
3000
,  // measure 30
0010
1000
0001
0010
1000
0100
0002
0000
,  // measure 31
1003
0100
0010
0100
1000
0001
0020
0000
,  // measure 32
0130
0100
2010
3000
1002
0003
2000
3000
,  // measure 33
0002
0003
2010
3000
1002
0003
0200
0300
,  // measure 34
0200
0301
0010
0100
1000
0001
0200
0000
,  // measure 35
0310
0010
2000
0000
3200
0000
0320
0000
,  // measure 36
0030
0000
0101
0001
1000
0001
0010
0100
,  // measure 37
1000
0000
0010
0000
0100
0000
0010
0000
0001
0000
0010
0000
1000
0010
1000
0000
,  // measure 38
1000
0100
0010
0001
0100
0010
2000
0000
,  // measure 39
3020
0000
0230
0001
0301
0100
1000
0001
,  // measure 40
0010
1000
1000
0100
0001
0100
1000
0100
,  // measure 41
0010
0000
0100
0000
1000
0000
0001
0000
0100
0000
0010
0000
0100
0010
0100
0000
,  // measure 42
0001
0001
1000
0010
0100
0001
0020
0000
,  // measure 43
0230
1000
2300
0100
3000
0000
0001
0100
,  // measure 44
0001
1000
0001
0000
1001
0000
1000
0000
0100
1000
0100
0000
0010
0000
0001
0000
,  // measure 45
1000
0001
1000
0000
0100
0000
0010
0000
0001
0010
0001
0000
0010
0000
0100
0000
,  // measure 46
0010
0001
2000
0000
3020
0000
1030
0010
,  // measure 47
0100
0001
1000
0010
0100
0001
0002
0000
,  // measure 48
0013
0001
0010
0000
0001
0000
1000
0000
0100
1000
0100
0000
0010
0000
0001
0000
,  // measure 49
1000
0001
1000
0000
0010
0000
0100
0000
0001
0010
0001
0000
1000
0000
0010
0000
,  // measure 50
1000
0010
1000
0000
0020
0000
0000
0000
0230
0000
0000
0000
0301
0000
0100
0000
,  // measure 51
0010
1000
0001
0100
0010
1000
0001
0100
,  // measure 52
0010
1000
2010
0000
3200
0000
0320
0000
,  // measure 53
0032
0100
0100
2003
3002
0203
0000
0300
,  // measure 54
0010
0010
1000
0100
0001
0100
2000
0000
,  // measure 55
3200
0000
0000
0000
0320
0000
0000
0000
0000
0030
0001
0000
0001
1000
0001
0000
,  // measure 56
0001
1000
0001
0000
0000
0000
0000
0000
0000
0000
0000
0000
0000
0000
0000
0000
;

//---------------dance-single - ----------------
#NOTES:
     dance-single:
     :
     Medium:
     8:
     0.323264,0.362643,0.025617,0.623351,0.000000,265.000000,262.000000,3.000000,73.000000,0.000000,0.000000,0.323264,0.362643,0.025617,0.623351,0.000000,265.000000,262.000000,3.000000,73.000000,0.000000,0.000000:
0000
0000
0000
0000
,
0000
0000
0000
0000
,
0000
0000
0000
0000
,
0000
0000
0000
0000
,
0000
2000
3200
2300
,
3200
0000
0010
0000
0000
1000
0300
0100
,
0000
0000
1000
0100
0001
0100
2000
0000
,
3002
0000
0203
0000
0000
0010
0300
0100
,
0000
0002
0023
0032
,
0023
0000
1000
0000
0000
0100
0030
0010
,
0000
0000
0001
0010
1000
0010
0002
0000
,
2003
3020
0030
0200
,
0320
2030
3002
0023
,
2030
0000
3020
0000
0032
0000
1003
0001
,
0100
0001
2000
0000
3200
0000
0001
0000
,
0010
0000
1300
0100
1000
0000
0002
0000
,
0203
0320
0032
0023
,
2030
0000
3002
0000
0203
0000
0310
0100
,
1000
0100
0002
0000
2003
0000
0100
0000
,
0010
0000
3100
1000
0100
1000
0001
0100
,
0001
0100
0101
0000
0001
1000
0001
0000
,
1000
0000
0100
0010
0001
0000
1000
0100
,
0010
0000
0001
0000
1000
0100
0010
0000
,
0001
0001
0002
0000
0023
0000
0032
0000
,
1000
0003
1001
0000
1000
0001
0200
0000
,
0310
0000
1000
0100
0010
0000
0100
0010
,
0001
0000
0001
0000
1000
0010
0100
0000
,
0001
1000
2000
0000
3020
0000
2030
0000
,
3100
0010
0001
0000
1000
0000
0001
0000
,
1000
0001
1000
1000
,
0001
0010
0100
1000
0010
0100
0002
0000
,
1003
0001
0100
0010
0100
0001
2000
0000
,
3200
0310
0001
0010
,
0100
0010
0001
0010
,
0010
0100
1000
0001
0010
0100
0100
0000
,
1000
1000
0002
0000
0203
0000
0320
0000
,
1030
1001
0001
1000
,
0001
0000
0100
0000
0010
0000
0100
0001
,
0010
1000
0010
0001
0100
0010
2000
0000
,
3002
0000
1003
0100
0001
0100
1000
0100
,
0001
0100
1000
0000
0001
0000
1000
0000
,
0001
0010
0100
0010
,
0100
0000
1000
0100
0010
0100
2000
0000
,
3002
0020
0033
0020
0000
0000
1000
0000
,
0100
0031
0010
0100
,
1000
0100
0001
0100
1000
0000
0001
0100
,
1000
0100
0002
0000
2003
0000
0010
0000
,
3010
0000
1000
0200
0000
0320
0230
0000
,
1300
0001
0200
0000
1000
0000
0010
0000
,
0301
0100
0010
0200
0000
0000
1000
0000
,
0010
0000
0301
0000
1000
0100
0010
0002
,
0000
1003
0002
0000
0100
0000
0100
0003
,
0100
0001
0200
0000
2300
0000
3200
0000
,
0320
0000
0000
2030
3020
2030
0000
0000
,
3001
1000
0100
0001
0100
1000
0020
0000
,
0230
0000
0302
0000
0000
1000
2003
0000
,
0100
0000
0100
0000
0000
3000
0000
0000
;

//---------------dance-single - ----------------
#NOTES:
     dance-single:
     :
     Easy:
     5:
     0.269590,0.290114,0.034156,0.145164,0.000000,221.000000,217.000000,4.000000,17.000000,0.000000,0.000000,0.269590,0.290114,0.034156,0.145164,0.000000,221.000000,217.000000,4.000000,17.000000,0.000000,0.000000:
0000
0000
0000
0000
,
0000
0000
0000
0000
,
0000
0000
0000
0000
,
0000
0000
0000
0000
,
0000
0000
0001
0000
0000
1000
0000
0100
,
0000
0000
0010
0000
0000
0001
0000
0100
,
0000
0000
0010
0000
0000
1000
0000
0001
,
0000
0000
0010
0000
0000
0001
0000
0100
,
0000
0000
0010
0000
0000
1000
0000
0001
,
0000
0000
1000
0000
0000
0100
0000
1000
,
0000
0000
0001
0000
0000
0010
0000
0100
,
0000
1000
0001
1000
,
0001
1001
1000
0100
,
1000
0100
0010
0100
,
0010
0001
1000
0001
,
1000
0010
0100
0010
,
0100
0010
1000
0010
,
1000
0100
0010
0100
,
0010
0100
1000
0100
,
1000
0001
0010
0001
,
0010
0100
0010
0100
,
1000
0000
0001
0010
0001
0000
0010
0001
,
0010
0100
1000
0001
,
1000
0010
0100
0010
,
1000
0010
1000
0000
0100
0000
1000
0000
,
0001
0000
0100
0010
0100
0000
0010
0100
,
0010
1000
0001
1000
,
0100
0010
0100
1000
,
0001
0100
0001
0000
1000
0000
0010
0000
,
1000
0010
1000
0010
,
0100
0001
0100
0001
,
0100
0001
0010
0100
,
0010
0001
1000
0001
,
1000
0001
1000
0001
,
1000
0100
0010
0100
,
1000
0001
1000
0010
,
0000
1020
2030
3020
,
2030
0001
0010
0001
,
3010
0000
1000
0100
0010
0100
2000
0000
,
3002
0023
0100
0001
,
0130
0120
0032
0023
,
0032
1000
0010
1000
,
0013
0000
0001
0010
0100
0010
0002
0000
,
2003
0000
3200
0000
0000
0300
0010
0000
,
0100
1100
1000
0001
,
0100
0010
0100
0001
,
0010
0100
1000
0000
0001
0000
1000
0000
,
0010
1000
0010
0000
1000
0010
1000
0000
,
0001
0010
0100
0010
,
0001
1000
0010
1000
,
0001
0010
0100
0000
0010
0000
0001
0000
,
1000
0010
1000
0000
0010
1000
0010
0000
,
1000
0010
1000
0000
0001
0000
1000
0000
,
0001
0010
0100
0010
,
0100
0010
0001
0020
,
0230
2300
0010
0001
,
0010
0000
0001
0000
0000
3000
0000
0000
;

//---------------dance-single - ----------------
#NOTES:
     dance-single:
     :
     Beginner:
     2:
     0.113447,0.168113,0.034156,0.000000,0.000000,93.000000,89.000000,4.000000,0.000000,0.000000,0.000000,0.113447,0.168113,0.034156,0.000000,0.000000,93.000000,89.000000,4.000000,0.000000,0.000000,0.000000:
0000
0000
0000
0000
,
0000
0000
0000
0000
,
0000
0000
0000
0000
,
0000
0000
0000
0000
,
0000
1000
0000
0000
,
0000
0001
0000
0000
,
0000
1000
0000
0000
,
0000
0001
0000
0000
,
0000
0010
0000
0000
,
0000
0100
0000
0000
,
0000
0010
0000
0000
,
0000
0100
0000
1000
,
0000
1100
0000
1000
,
0000
0001
0000
1000
,
0000
0010
0000
1000
,
0000
0001
0000
0010
,
0000
0100
0000
0010
,
0000
0001
0000
0010
,
0000
0100
0000
1000
,
0000
0001
0000
1000
,
0000
0010
0000
0000
,
0000
0100
0000
0000
,
0000
0010
0000
0000
,
0000
0100
0000
0000
,
0000
0001
0000
0000
,
0000
1000
0000
0000
,
0000
0001
0000
0000
,
0000
1000
0000
0001
,
0000
1001
0000
1000
,
0000
0100
0000
1000
,
0000
0001
0000
1000
,
0000
0100
0000
0010
,
0000
0100
0000
1000
,
0000
0001
0000
1000
,
0000
0100
0000
0010
,
0000
0001
0000
1000
,
0000
1001
0000
1000
,
0000
0001
0000
0010
,
0000
0001
0000
1000
,
0000
0001
0000
0010
,
0000
0100
0000
1000
,
0000
0001
0000
1000
,
0000
0100
0000
1000
,
0000
0001
0000
0100
,
0000
0010
0000
1000
,
0000
0001
0000
1000
,
0000
0100
0010
0100
,
0000
1000
0000
0001
,
0000
1000
0000
0100
,
0000
1000
0000
0001
,
0000
0010
0100
0010
,
0000
0001
0000
1000
,
0000
1001
0000
0000
,
0000
0001
0000
0000
,
0000
1000
0000
0000
,
0000
0001
0000
0000
,
0000
1000
0000
0000
;
