#TITLE:Dolphika (Feryquitous Remix);
#SUBTITLE:;
#ARTIST:HiTECH NINJA;
#TITLETRANSLIT:;
#SUBTITLETRANSLIT:;
#ARTISTTRANSLIT:;
#GENRE:;
#CREDIT:BadWolf;
#BANNER:Dolphika (Feryquitous Remix).png;
#BACKGROUND:Dolphika (Feryquitous Remix)-bg.png;
#LYRICSPATH:;
#CDTITLE:cdtitle.png;
#MUSIC:Dolphika (Feryquitous Remix).ogg;
#OFFSET:-0.200000;
#SAMPLESTART:49.735188;
#SAMPLELENGTH:12.387096;
#SELECTABLE:YES;
#BPMS:0.000000=155.000000
;
#STOPS:
;
#BGCHANGES:;
#KEYSOUNDS:;
#ATTACKS:;

//---------------dance-single - ----------------
#NOTES:
     dance-single:
     :
     Hard:
     16:
     0.754063,0.910231,0.198562,0.182015,0.852162,638.000000,614.000000,24.000000,22.000000,0.000000,0.000000,0.754063,0.910231,0.198562,0.182015,0.852162,638.000000,614.000000,24.000000,22.000000,0.000000,0.000000:
0000
0000
0000
0000
,
0000
0000
0000
0000
,
0000
0000
0000
0000
,
0000
0000
0000
0000
2002
0000
0000
3003
,
1000
0100
0010
0000
0010
0001
1000
0000
,
0001
0010
0100
0000
0100
1000
0001
0000
,
1000
0000
0010
0100
0010
0000
1000
0001
0010
0000
0100
1000
0001
0000
1000
0001
,
1000
1100
0101
1001
,
1000
0000
0000
0000
0011
0000
0000
0001
0000
0000
0100
0000
0001
1000
0000
0000
,
0100
0000
0010
0000
0010
0000
0000
0100
0000
0000
1000
0000
0001
1000
0000
0000
,
0001
0000
0000
0000
1010
0000
0000
1000
0000
0000
0100
0000
0010
0001
0010
0001
,
1000
0000
0010
0000
0001
0000
0000
0010
0000
0000
1000
0000
0100
0010
0100
0010
,
0001
0000
0000
0000
1100
0000
0000
1000
0000
0000
0010
0000
1000
0001
0000
0000
,
0010
0000
0100
0000
0100
0000
0000
0010
0000
0000
0001
0000
1000
0001
0000
0000
,
1000
0000
0000
0000
0101
0000
0000
0001
0000
0000
0010
0000
0100
1000
0100
1000
,
0001
0000
1000
0000
0010
0100
0010
0100
0001
1000
0001
1000
0100
0010
0001
1000
,
0001
0000
0000
0000
1000
0000
0010
0100
0010
0000
1000
0000
0100
1000
0001
0000
,
1000
0000
0010
0000
0001
0000
0010
0100
0000
0100
0001
0000
0010
0000
0100
0000
,
1000
0000
0010
0000
0100
0000
0001
1000
0001
0000
1000
0000
0100
0010
0100
0010
,
0001
0000
0100
0000
0010
0000
1000
0001
1000
0000
0001
0000
0010
0100
0010
0100
,
1000
0000
1000
0000
0001
0000
0100
0010
0100
0000
0001
0000
0010
0001
1000
0000
,
0001
0000
0100
0000
1000
0000
0100
0010
0000
0010
1000
0000
0100
0000
0010
0000
,
0001
0000
0100
0000
0010
0000
1000
0001
1000
0000
0001
0000
0010
0100
0010
0100
,
1000
0000
0001
0000
2000
0000
0000
0001
0000
0000
3001
0000
0000
0000
0000
0000
,
0110
0000
0001
1000
0100
0000
0010
0001
,
0000
0001
1000
0000
0010
0100
0001
1000
,
0001
0000
1000
0001
0010
0000
0100
1000
,
0000
1000
0001
0000
0100
0010
1000
0001
,
1000
0000
0100
0010
0001
0000
0100
0010
,
0000
0010
1000
0000
0001
0100
1000
0100
,
0001
0000
0010
0100
1000
0000
0010
0100
,
0000
0100
0001
0000
0011
0000
1010
0000
,
2000
0000
3001
0000
1000
0100
0000
0010
0001
0100
0001
0100
0010
1000
0001
0100
,
0000
0010
1000
0000
0100
0000
0010
0001
0100
0010
0100
0010
1000
0001
0010
0100
,
0000
0000
1000
0000
0010
1000
0000
0001
1000
0100
0010
0001
0010
0100
1000
0001
,
0000
0000
0100
0000
0010
0000
1000
0000
0100
0010
0100
0010
0001
1000
0000
0000
,
2002
0000
3003
0000
0001
0010
0000
0100
1000
0010
1000
0010
0100
0001
1000
0010
,
0000
0100
0001
0000
0010
0000
0100
1000
0010
0100
0010
0100
0001
1000
0100
0010
,
0000
0000
0001
0000
0100
0001
0000
1000
0001
0010
0100
1000
0100
0010
0001
1000
,
0000
0000
0010
0000
0100
0000
0001
0000
0010
0100
0010
0100
1000
0001
0000
0000
,
0200
0000
0000
0000
0301
1000
0000
0000
0000
0000
1100
0000
0000
0000
0101
0000
,
0000
0011
0000
0000
1010
0000
0000
0000
1001
0000
0000
0000
0001
0010
0100
1000
,
0002
0000
1003
0000
0001
0100
0000
0010
1000
0100
1000
0100
0010
0001
1000
0001
,
0000
0000
0100
0000
0010
0000
1000
0000
0100
0010
0100
0010
0001
1000
0000
0000
,
2002
0000
3003
0000
0001
0100
0000
0010
1000
0001
0010
0100
1000
0100
0010
0001
,
0000
0000
1000
0000
0010
0000
0100
0010
1000
0001
1000
0001
0010
0100
1000
0001
,
0000
0000
0100
0000
0010
0100
0000
0001
1000
0100
1000
0100
0010
0001
1000
0001
,
0000
0000
0100
0000
0010
0000
1000
0000
0100
0010
0100
0010
0001
1000
0000
0000
,
2002
0000
0000
0003
,
0020
0000
0000
3000
,
0002
0000
0000
0030
,
0200
0000
0000
0003
,
2000
0000
0000
0300
,
0002
0000
0000
3000
,
0020
0000
0000
0003
,
0200
0000
0000
0000
0030
0000
0000
0000
1300
0100
0010
0100
1000
0000
0001
1000
,
0001
0100
0001
0100
0000
0010
0000
0100
1000
0000
0100
0000
0010
0000
1000
0100
,
0010
0001
0010
0001
0000
0100
0010
1000
0001
0000
0010
0000
0100
0000
1000
0001
,
1000
0010
1000
0010
0000
0100
0000
0010
0001
0000
0010
0000
0100
0000
0001
0010
,
0100
0000
1000
0000
0010
0000
0100
0001
0000
0001
1000
0000
0100
0010
0001
1000
,
0010
0100
0010
0100
0000
0001
0000
1000
0010
0000
0100
0000
1000
0000
0100
0010
,
1000
0001
1000
0001
0000
0010
0100
1000
0001
0000
0100
0000
0010
0000
1000
0001
,
0010
0100
0010
0100
0000
1000
0000
0001
0010
0000
0100
0000
0001
0000
0100
0010
,
0001
1000
0001
1000
0010
0100
0010
1000
0001
0010
0100
1000
0001
1000
0100
0010
,
0001
1000
0001
1000
0000
0001
0000
0000
1010
0000
0000
0011
0000
0000
0101
0000
,
0000
1100
0000
0000
1001
0000
0000
0000
1000
0010
1000
0010
0100
0001
0010
0100
,
2000
0000
3001
0000
1000
0000
0010
0100
0000
0100
0001
0000
1000
0100
0010
0100
,
1000
0000
0001
0000
0100
0000
0010
1000
0000
1000
0001
0000
0010
0100
1000
0100
,
0010
0000
0001
1000
0000
0001
1000
0000
0010
0100
0001
0100
0010
1000
0100
0010
,
0100
0000
1000
0001
0000
1000
0001
0000
0100
0010
1000
0010
0100
0001
0010
0100
,
0010
0000
0001
0000
1000
0000
0010
0100
0000
0100
0001
0000
1000
0100
0010
0001
,
1000
0010
1000
0010
0100
0001
0100
0001
0010
0100
1000
0001
0100
0010
1000
0001
,
2000
0000
0001
0000
3100
0010
0001
0000
,
0001
0010
0100
0000
1000
0001
1000
0001
,
0002
0000
1000
0000
0103
0010
1000
0000
,
1000
0010
0100
0000
0001
1000
0001
1000
;

//---------------dance-single - ----------------
#NOTES:
     dance-single:
     :
     Medium:
     12:
     0.523589,0.596358,0.157195,0.173742,0.086871,443.000000,424.000000,19.000000,21.000000,0.000000,0.000000,0.523589,0.596358,0.157195,0.173742,0.086871,443.000000,424.000000,19.000000,21.000000,0.000000,0.000000:
0000
0000
0000
0000
,
0000
0000
0000
0000
,
0000
0000
0000
0000
,
0000
0000
0000
0000
2002
0000
0000
3003
,
1000
0100
0010
0000
0010
0100
1000
0000
,
0001
0100
0010
0000
0010
0100
0001
0000
,
1000
0100
1000
0100
0010
0001
0010
0001
,
1000
1010
0011
1001
,
0001
0000
0000
0000
0010
0000
0000
0100
0000
0000
1000
0000
0001
0000
0000
0000
,
0100
0000
0010
0000
0100
0000
0000
0001
0000
0000
1000
0000
0100
0000
0000
0000
,
0010
0000
0000
0000
0001
0000
0000
0100
0000
0000
0010
0000
1000
0000
0000
0000
,
0001
0000
0001
0000
1000
0000
0000
0100
0000
0000
0010
0000
0001
0000
0000
0000
,
1000
0000
0000
0000
0010
0000
0000
0100
0000
0000
0001
0000
1000
0000
0000
0000
,
0100
0000
0010
0000
0100
0000
0000
1000
0000
0000
0001
0000
0100
0000
0000
0000
,
0010
0000
0000
0000
1000
0000
0000
0100
0000
0000
0010
0000
0001
0000
0000
0000
,
0100
0010
1000
0001
0010
0100
1000
0001
,
1000
0000
0010
0100
0010
0001
0010
1000
,
0100
0010
1000
0010
0001
1000
0001
0000
,
0100
0010
0100
1000
0100
0001
1000
0100
,
0010
1000
0010
0100
1000
0001
1000
0000
,
0002
1003
0001
0100
0010
0001
0010
0100
,
0001
1000
0010
0001
0010
0100
0001
0000
,
1000
0100
0010
1000
0010
0001
1000
0001
,
0100
0000
0010
0000
0100
0000
0000
0010
0000
0000
0100
0000
0000
0000
0000
0000
,
0001
0000
1000
0000
0100
0000
0010
0001
,
0000
0001
1000
0000
0001
1000
0010
1000
,
0001
0000
0010
0000
0100
0000
1000
0010
,
0000
1000
0001
0000
1000
0100
0010
0001
,
1000
0000
0001
0000
0100
0000
0010
1000
,
0000
1000
0001
0000
1000
0001
0010
0001
,
1000
0000
0010
0000
0100
0000
0001
0010
,
0000
0001
1000
0000
1001
0000
0110
0000
,
2002
3003
0001
0100
0010
0100
0001
0010
,
0000
0010
0100
1000
0010
0001
0010
1000
,
0000
0001
1000
0100
0010
0100
1000
0010
,
0000
0010
0100
0001
0010
0100
1000
0000
,
2002
3003
1000
0010
0100
0010
1000
0100
,
0000
0100
0010
0001
0100
1000
0100
0001
,
0000
1000
0001
0010
0100
0010
0001
0100
,
0000
0100
0010
1000
0100
0010
0001
0000
,
2000
0000
3001
0000
0000
1100
0000
1010
,
0000
1001
0000
0000
0011
0000
0000
0000
0110
0000
0000
0000
0000
0000
0000
0000
,
2000
3001
1000
0000
0010
0100
0001
1000
,
0000
0100
0010
0001
0100
0010
1000
0000
,
2002
3003
0001
0100
0010
0100
0001
0010
,
0000
0010
0100
1000
0010
0001
0010
1000
,
0000
0001
1000
0100
0010
0100
1000
0010
,
0000
0010
0100
0001
0010
0100
1000
0000
,
0002
0000
0000
0000
,
0203
0000
0000
0000
,
0320
0000
0000
0000
,
2030
0000
0000
0000
,
3200
0000
0000
0000
,
0320
0000
0000
0000
,
0032
0000
0000
0000
,
2003
0000
0001
3001
,
1000
0100
0010
0100
0001
0100
0010
0001
,
0100
0010
0100
1000
0100
0001
1000
0000
,
0001
0010
0100
0010
1000
0010
0100
1000
,
0010
0100
0010
0001
0010
1000
0001
0000
,
1000
0100
0001
0100
0010
0001
0100
0010
,
0001
0010
0100
0001
1000
0001
1000
0000
,
0001
0010
1000
0010
0100
1000
0010
0100
,
1000
0000
0100
0000
0010
0000
1000
0000
0001
0000
1000
0000
0001
1000
0001
1000
,
0002
0000
0000
0000
0000
0000
0003
0000
1100
0000
0000
0110
0000
0000
0011
0000
,
0000
1001
0000
0000
0110
0000
0000
0000
0001
0000
0010
0000
0100
0000
1000
0000
,
0002
0000
1003
0000
0001
0000
0000
0100
0000
0000
0010
0000
0100
0000
0001
0000
,
1000
0000
0100
0000
0010
0000
0000
0100
0000
0000
1000
0000
0001
0000
1000
0000
,
0010
0000
0100
0010
0000
0100
0001
0000
1000
0000
0100
0000
0010
0000
0001
0000
,
0100
0000
0010
0100
0000
0010
1000
0000
0001
0000
0010
0000
0100
0000
1000
0000
,
0001
0000
0100
0000
0010
0000
0000
0100
0000
0000
0001
0000
1000
0000
0010
0000
,
1000
0000
0100
0000
0010
0000
0000
0100
0000
0000
1000
0000
0001
0000
1000
0000
,
0001
0000
1000
0000
0010
0100
0010
0000
,
1000
0001
0010
0000
0100
1000
0001
1000
,
1000
0000
0001
0000
0100
0010
0100
0000
,
0001
1000
0100
0000
0010
0001
1000
0001
;

//---------------dance-single - ----------------
#NOTES:
     dance-single:
     :
     Easy:
     8:
     0.364030,0.408035,0.091008,0.115828,0.016547,308.000000,297.000000,11.000000,14.000000,0.000000,0.000000,0.364030,0.408035,0.091008,0.115828,0.016547,308.000000,297.000000,11.000000,14.000000,0.000000,0.000000:
0000
0000
0000
0000
,
0000
0000
0000
0000
,
0000
0000
0000
0000
,
0000
0000
0002
0000
,
1003
0000
0100
0000
0010
0001
1000
0000
,
0001
0000
0100
0000
0010
1000
0001
0000
,
1000
1000
0001
0001
,
1001
0110
1001
0001
,
1000
0100
0010
0001
,
0100
0000
0010
0000
1000
0001
1000
0000
,
0001
0010
0100
1000
,
0010
0000
0100
0000
0001
1000
0001
0000
,
1000
0001
0010
0100
,
1000
0000
0001
0000
0100
0010
0100
0000
,
0001
1000
0100
0010
,
0001
0000
1000
0000
0010
0100
0010
1000
,
0001
0000
0010
0000
0100
1000
0001
0000
,
0100
0010
0100
0000
0001
0000
1000
0000
,
0100
0000
0010
0000
0001
1000
0001
0000
,
0100
0010
0100
0000
0001
0000
1000
0001
,
1000
0000
0100
0000
0010
0001
1000
0000
,
0010
0100
0010
0000
1000
0000
0001
0000
,
0010
0000
0100
0000
1000
0001
1000
0000
,
0010
0000
0100
0000
0010
0000
0000
1000
0000
0000
0001
0000
0000
0000
0000
0000
,
1000
0000
0000
0000
1001
0000
0000
0001
,
0000
0001
0010
0000
0100
0000
0000
1000
,
0001
0000
0000
0000
1001
0000
0000
1000
,
0000
1000
0010
0000
0100
0000
0000
0001
,
1000
0000
0100
0010
0100
0000
1000
0001
,
0000
0001
1000
0000
0010
0000
0100
0000
,
0001
0000
0010
0100
0010
0000
0001
1000
,
0000
1000
0001
0000
1001
0000
1001
0000
,
1000
0010
0001
0010
,
0100
0000
0010
0000
1000
0001
1000
0000
,
0001
0010
1000
0010
,
0100
0000
0010
0000
0001
1000
0001
0000
,
1000
0010
0100
1000
,
0100
0000
0001
0000
1000
0001
1000
0000
,
0001
0010
0100
0001
,
0100
0000
1000
0000
0001
1000
0001
0000
,
2000
0000
3001
0000
0000
1000
0000
0100
,
0000
0010
0000
0000
0001
0000
0000
0000
1001
0000
0000
0000
0000
0000
0000
0000
,
2000
3001
1000
0000
0001
0000
0010
0000
,
0100
0000
1000
0000
0010
0100
0010
0000
,
1000
0100
0001
0100
,
0010
0000
0001
0000
1000
0001
1000
0000
,
0001
0100
1000
0100
,
0010
0000
1000
0000
0001
1000
0001
0000
,
2000
0000
0000
0000
,
3200
0000
0000
0000
,
0320
0000
0000
0000
,
0032
0000
0000
0000
,
0203
0000
0000
0000
,
0320
0000
0000
0000
,
2030
0000
0000
0000
,
3002
0000
1000
1003
,
0001
0000
0010
0000
0100
0010
0001
0000
,
1000
0000
0010
0000
0100
0010
1000
0000
,
0100
0100
0010
0001
,
0100
0100
0010
1000
,
0001
0000
0010
0000
0100
1000
0001
0000
,
1000
0000
0100
0000
0010
0001
1000
0000
,
0010
0010
1000
0001
,
0010
0000
0010
0000
0001
1000
0001
1000
,
0002
0000
0000
0000
0000
0000
0000
0000
1003
0000
0000
1000
0000
0000
0001
0000
,
0000
0001
0000
0000
1000
0000
0000
0000
2002
0000
0000
0000
3003
0000
0000
0000
,
0001
0100
1000
0100
,
0001
0010
0100
1000
,
0010
0010
1000
0100
,
0010
0010
0001
0100
,
0001
0000
0010
0000
0100
1000
0001
0000
,
1000
0000
0100
0000
0010
0001
0010
0001
,
1000
0000
1001
0000
,
0000
0001
0000
0000
1000
0000
0000
0001
,
0001
0000
0000
0000
1001
0000
0000
1000
,
0000
1000
0001
0000
1000
0000
0001
1000
;

//---------------dance-single - ----------------
#NOTES:
     dance-single:
     :
     Beginner:
     3:
     0.166650,0.188634,0.000000,0.024820,0.000000,141.000000,141.000000,0.000000,3.000000,0.000000,0.000000,0.166650,0.188634,0.000000,0.024820,0.000000,141.000000,141.000000,0.000000,3.000000,0.000000,0.000000:
// measure 0
0000
0000
0000
0000
,  // measure 1
0000
0000
0000
0000
,  // measure 2
0000
0000
0000
0000
,  // measure 3
0000
0000
0000
0000
,  // measure 4
0001
0000
0001
0000
,  // measure 5
1000
0000
1000
0000
,  // measure 6
0010
0000
0010
0000
,  // measure 7
0010
0010
0010
1000
,  // measure 8
0000
0001
0000
1000
,  // measure 9
0000
0010
0000
0100
,  // measure 10
0000
0001
0000
1000
,  // measure 11
0000
0100
0000
0010
,  // measure 12
0000
0001
0000
0100
,  // measure 13
0000
0010
0000
1000
,  // measure 14
0000
0001
0000
0010
,  // measure 15
0000
0100
0000
1000
,  // measure 16
0001
0000
1000
0000
,  // measure 17
0001
0000
1000
0000
,  // measure 18
0010
0000
0100
0000
,  // measure 19
0010
0000
0100
0000
,  // measure 20
0001
0000
1000
0000
,  // measure 21
0001
0000
1000
0000
,  // measure 22
0100
0000
0010
0000
,  // measure 23
0002
0000
0003
0000
,  // measure 24
1000
0000
1000
0000
,  // measure 25
0010
0000
0010
0000
,  // measure 26
0100
0000
0100
0000
,  // measure 27
0001
0000
0001
0000
,  // measure 28
1000
0000
1000
0000
,  // measure 29
0100
0000
0100
0000
,  // measure 30
0010
0000
0010
0000
,  // measure 31
0001
0000
1000
0001
,  // measure 32
1000
0000
0001
0000
,  // measure 33
0010
0000
0100
0000
,  // measure 34
1000
0000
0010
0000
,  // measure 35
0100
0000
0001
1000
,  // measure 36
0001
0000
1000
0000
,  // measure 37
0100
0000
0010
0000
,  // measure 38
0001
0000
0100
0000
,  // measure 39
0010
0000
1000
0001
,  // measure 40
1000
0000
0002
0000
,  // measure 41
0000
0000
0003
0000
,  // measure 42
1000
0000
0100
0000
,  // measure 43
0010
0000
0001
1000
,  // measure 44
0001
0000
0100
0000
,  // measure 45
0010
0000
1000
0000
,  // measure 46
0100
0000
0010
0000
,  // measure 47
0001
0000
1000
0001
,  // measure 48
1000
0000
0000
0000
,  // measure 49
0001
0000
0000
0000
,  // measure 50
1000
0000
0000
0000
,  // measure 51
0001
0000
0000
0000
,  // measure 52
0100
0000
0000
0000
,  // measure 53
0010
0000
0000
0000
,  // measure 54
0100
0000
0000
0000
,  // measure 55
0010
0000
1000
0001
,  // measure 56
1000
0000
0100
0000
,  // measure 57
0010
0000
0100
0000
,  // measure 58
1000
0000
0010
0000
,  // measure 59
0100
0000
0001
1000
,  // measure 60
0001
0000
0010
0000
,  // measure 61
0100
0000
0010
0000
,  // measure 62
0001
0000
0100
0000
,  // measure 63
0010
0000
1000
0001
,  // measure 64
1000
0000
0002
0000
,  // measure 65
0000
0000
0003
0000
,  // measure 66
1000
0000
0100
0000
,  // measure 67
0010
0000
0001
1000
,  // measure 68
0001
0000
0100
0000
,  // measure 69
0010
0000
1000
0000
,  // measure 70
0001
0000
0010
0000
,  // measure 71
0100
0000
1000
0001
,  // measure 72
1000
0000
0000
0000
,  // measure 73
0001
0000
0000
0000
,  // measure 74
1000
0000
0000
0000
,  // measure 75
0001
0000
0000
0000
,  // measure 76
1000
0000
0000
0000
;
