#TITLE:Divers;
#SUBTITLE:;
#ARTIST:Shinji Hosoe;
#TITLETRANSLIT:;
#SUBTITLETRANSLIT:;
#ARTISTTRANSLIT:;
#GENRE:DRUM AND BASS;
#CREDIT:;
#BANNER:divers-bn.png;
#BACKGROUND:divers-bg.png;
#LYRICSPATH:;
#CDTITLE:cdtitle.png;
#MUSIC:divers.ogg;
#OFFSET:-0.025377;
#SAMPLESTART:40.025375;
#SAMPLELENGTH:14.400000;
#SELECTABLE:YES;
#BPMS:0.000000=150.000000
;
#STOPS:
;
#BGCHANGES:;
#KEYSOUNDS:;
#ATTACKS:;

//---------------dance-single - ----------------
#NOTES:
     dance-single:
     :
     Hard:
     13:
     0.587557,0.575231,0.278028,0.076697,0.292409,429.000000,400.000000,29.000000,8.000000,0.000000,0.000000,0.587557,0.575231,0.278028,0.076697,0.292409,429.000000,400.000000,29.000000,8.000000,0.000000,0.000000:
0000
0000
0000
0000
,
0000
0000
0000
0000
,
1000
0001
0001
0100
0001
0001
0010
0000
,
0000
0010
0100
1000
0000
1000
0010
1000
,
0100
0000
0000
0100
0000
0000
0001
0000
0100
0000
0000
0100
0000
0000
1000
0000
,
0001
0000
0000
0001
0000
0000
1000
0000
1001
0000
0000
0000
0001
1000
0001
1000
,
0001
1000
1000
0010
1000
1000
0100
0010
,
0000
0100
1000
0001
0000
0100
0010
1000
,
0001
0000
0000
0001
0000
0000
1000
0000
0100
0000
0000
0100
0000
0000
0010
0000
,
0002
0000
0000
0000
0000
0000
0000
0000
0003
0000
0001
0000
1000
0001
1000
0001
,
1000
0100
0001
0100
1000
0001
1000
0000
,
0010
0000
0100
0000
0110
0000
0000
0000
1001
0000
0000
1000
0001
0000
1000
0000
,
0001
0100
1000
0100
0001
1000
0100
0010
,
0001
0000
1000
0000
1001
0000
0000
0000
1010
0000
0000
0010
0000
0000
0010
0000
,
0100
1000
0100
0001
1000
0100
0010
0000
,
0001
0000
1000
0000
1001
0000
0000
0000
0011
0000
0000
0001
0010
0000
0010
0000
,
0100
0001
0100
1000
0100
0010
0001
1000
,
1001
0001
0011
0000
0010
0100
0010
0100
,
1000
0100
0001
1000
0100
0001
1000
0000
,
0100
0000
0010
0000
0110
0000
0000
0000
1100
0000
0000
1000
0100
0000
0010
0000
,
0001
0100
1000
0001
0100
1000
0100
0010
,
0001
0000
1000
0000
1001
0000
0000
0000
0011
0000
0000
0010
0000
0000
0010
0000
,
0100
1000
0100
0010
0100
1000
0001
0000
,
0100
0000
0010
0000
0110
0000
0000
0000
1001
0000
0000
0001
1000
0000
0001
0000
,
0100
0010
0100
0001
0100
0010
1000
0001
,
0200
0000
0010
0000
0010
0000
0320
0000
1000
0000
1000
0000
,
1030
0000
0100
0000
0001
0000
0010
0000
1000
0000
0000
1000
0000
0000
0001
0000
,
0010
0000
0000
0010
0000
0000
0001
0000
1000
0000
0100
0000
0010
0000
0000
0000
,
0001
0000
0100
0000
1000
0000
0010
0000
0001
0000
0000
0001
0000
0000
1000
0000
,
0010
0000
0000
0010
0000
0000
1000
0000
0001
0000
0010
0000
0100
0000
0000
0000
,
1000
0000
0100
0000
0010
0000
0100
0000
1000
0000
0000
1000
0000
0000
0001
0000
,
0100
0000
0000
0100
0000
0000
0010
0000
1000
0000
0010
0000
0100
0000
0000
0000
,
0001
0000
0100
0000
0010
0000
0100
0000
0001
0000
0000
0001
0000
0000
1000
0000
,
0100
0000
0000
0100
0000
0000
0010
0000
0001
1000
0000
1000
0001
0000
0100
0000
,
0010
0000
1000
0000
0010
0100
0010
0000
0020
0000
0000
1000
0000
0000
1000
0000
,
2030
0000
0000
0001
0000
0000
3001
0000
0010
0000
0000
0100
0000
0000
1000
0000
,
1000
0000
0001
0000
0010
0100
0010
0000
0020
0000
0000
0001
0000
0000
0001
0000
,
0032
0000
0000
1000
0000
0000
1003
0000
0010
0000
0000
0100
0000
0001
1000
0000
,
0001
0000
1000
0000
0010
1000
0010
0000
1010
0000
0000
1001
0000
0000
0001
0000
,
0011
0000
0000
1001
0000
0000
1000
0000
0100
0000
0000
0001
0000
0000
0100
0000
,
1000
0000
0100
0000
0010
0001
0010
0000
0011
0000
0000
1001
0000
0000
1000
0000
,
1010
0000
0000
1001
0000
0000
0001
0000
0100
0000
1000
0000
0100
0000
0010
0000
,
2000
0001
0000
0010
,
0000
0000
0000
0000
0001
0000
0000
0000
3000
0000
0000
0000
0001
1000
0001
1000
,
0001
1000
1000
0100
1000
1000
0010
0000
,
0000
0010
0100
0001
0000
0001
0010
0001
,
0100
0000
0000
0100
0000
0000
1000
0000
0100
0000
0000
0100
0000
0000
0001
0000
,
1000
0000
0000
1000
0000
0000
0001
0000
1001
0000
0000
0000
1000
0001
1000
0001
,
1000
0001
0001
0010
0001
0001
0100
0010
,
0000
0100
0001
1000
0000
0100
0010
0001
,
1000
0000
0000
1000
0000
0000
0010
0000
1000
0000
0000
1000
0000
0000
0100
0000
,
0010
0000
0001
0000
0010
0000
0100
0000
1000
0000
0001
0000
0100
0010
0100
0010
,
1000
0001
0100
0010
0100
0001
1000
0000
,
0000
1000
0100
0001
0000
0001
0100
1000
,
1100
0000
0000
0100
0000
0000
0100
0000
0101
0000
0000
0100
0000
0000
0100
0000
,
1000
0000
0000
1000
0000
0000
0001
0000
1001
0000
0000
0000
1000
0001
1000
0001
,
1000
0001
0100
0010
0100
0001
0010
0100
,
0000
1000
0100
0001
0000
0001
0100
1000
,
0001
0100
0001
0100
0010
0100
0010
0100
,
0001
1000
0100
0010
0110
0000
0001
1000
,
1001
0000
0000
0000
;

//---------------dance-single - ----------------
#NOTES:
     dance-single:
     :
     Medium:
     7:
     0.315007,0.402661,0.220505,0.067110,0.000000,230.000000,207.000000,23.000000,7.000000,0.000000,0.000000,0.315007,0.402661,0.220505,0.067110,0.000000,230.000000,207.000000,23.000000,7.000000,0.000000,0.000000:
// measure 0
0000
0000
0000
0000
,  // measure 1
0000
0000
0000
0000
,  // measure 2
1000
0000
0000
0001
0000
0000
0010
0000
,  // measure 3
0000
0100
1000
0010
,  // measure 4
0100
1000
0100
0001
,  // measure 5
1000
1000
1001
0000
,  // measure 6
0001
0000
0000
1000
0000
0000
0010
0100
,  // measure 7
0000
0001
0100
0001
,  // measure 8
0010
0100
1000
0001
,  // measure 9
2000
0000
3000
0100
,  // measure 10
0010
1000
0010
0001
,  // measure 11
0000
0011
1000
1010
,  // measure 12
0010
0001
0010
1000
,  // measure 13
0000
0001
0001
0001
,  // measure 14
1000
0100
0010
0001
,  // measure 15
0000
1100
0001
0101
,  // measure 16
0001
0100
0010
1000
,  // measure 17
0001
0001
0010
0100
,  // measure 18
1000
0100
0001
0010
,  // measure 19
0000
1001
0001
0101
,  // measure 20
0001
0100
1000
0010
,  // measure 21
0000
0001
0001
0001
,  // measure 22
0100
0010
1000
0010
,  // measure 23
0000
1001
0001
0011
,  // measure 24
0100
1000
0100
0010
,  // measure 25
0002
0000
0000
0003
,  // measure 26
1000
0100
0001
0000
0100
0000
0100
0000
,  // measure 27
1100
0101
0001
1000
,  // measure 28
0001
0100
1000
0000
0100
0000
0100
0000
,  // measure 29
0101
1100
1000
0001
,  // measure 30
1000
0100
0010
0000
0001
0000
0001
0000
,  // measure 31
1010
0011
0001
1000
,  // measure 32
0001
0100
0010
0000
1000
0000
1000
0000
,  // measure 33
0011
0000
1010
0000
0001
1000
0001
0000
,  // measure 34
0020
0000
0001
0031
,  // measure 35
1000
0010
0100
0001
,  // measure 36
0200
0000
0001
0301
,  // measure 37
1000
0100
0010
0001
,  // measure 38
1010
0000
0010
0100
,  // measure 39
1000
0100
0001
1000
,  // measure 40
0011
0000
0010
0100
,  // measure 41
0001
0100
1000
0001
,  // measure 42
2002
0000
0000
0000
,  // measure 43
3003
0000
0000
0000
,  // measure 44
1000
0000
0000
0001
0000
0000
0010
0000
,  // measure 45
0000
0100
1000
0010
,  // measure 46
0100
1000
0100
0001
,  // measure 47
1000
1000
1001
0000
,  // measure 48
0001
0000
0000
1000
0000
0000
0010
0100
,  // measure 49
0000
0001
0100
0001
,  // measure 50
0010
0100
1000
0001
,  // measure 51
2000
0000
0010
3010
,  // measure 52
0100
0000
0000
0001
0000
0000
0010
0000
,  // measure 53
0000
0001
0100
0010
,  // measure 54
1000
0010
0001
0010
,  // measure 55
1000
1000
1010
0000
,  // measure 56
0010
0000
0000
0100
0000
0000
0001
1000
,  // measure 57
0000
0100
0010
0001
,  // measure 58
1000
0010
1000
0000
0001
0010
0001
0000
,  // measure 59
1000
0001
1000
0001
0100
0000
0010
0000
,  // measure 60
1001
0000
0000
0000
;

//---------------dance-single - ----------------
#NOTES:
     dance-single:
     :
     Easy:
     4:
     0.268441,0.316377,0.258854,0.047936,0.000000,196.000000,169.000000,27.000000,5.000000,0.000000,0.000000,0.268441,0.316377,0.258854,0.047936,0.000000,196.000000,169.000000,27.000000,5.000000,0.000000,0.000000:
0000
0000
0000
0000
,
0000
0000
0000
0000
,
1010
0000
1000
0000
,
0001
0000
0010
0100
,
1000
0100
0001
0100
,
1000
1000
1100
0000
,
0011
0000
0001
0000
,
1000
0000
0010
0100
,
0001
1000
0100
0010
,
0002
0000
0000
0003
,
0001
0100
1000
0100
,
0000
0101
0000
0011
,
0001
0010
1000
0010
,
0000
0011
0000
1000
,
1000
0010
0100
0001
,
0000
0101
0000
1100
,
1000
0100
0010
0001
,
0011
0000
0010
0100
,
1000
0100
0001
0010
,
0000
1001
0000
0101
,
0001
0100
1000
0010
,
0000
1001
0000
0001
,
0100
0010
1000
0010
,
0000
1010
0000
1100
,
0100
0010
0001
0010
,
0200
0000
0000
0300
,
1000
0100
0001
0000
,
0100
0000
1000
1000
,
0001
0100
1000
0000
,
0100
0000
0001
0001
,
0010
0100
1000
0000
,
0001
0000
1000
1000
,
0010
0100
0001
0000
,
1000
0000
0100
0010
,
0002
0000
1000
0000
,
1003
0001
0010
0100
,
2000
0000
0001
0000
,
3001
1000
0010
0100
,
0101
0000
1001
0000
,
0101
0001
1000
0100
,
1100
0000
1001
0000
,
1100
1000
0001
0100
,
0020
0000
0000
0000
,
0030
0000
0000
0000
,
1010
0000
1000
0000
,
0001
0000
0010
0100
,
1000
0100
0001
0100
,
1000
1000
1100
0000
,
0011
0000
0001
0000
,
1000
0000
0010
0100
,
0001
1000
0100
0010
,
0001
0001
0001
0001
,
0011
0000
1000
0000
,
0010
0000
0100
0001
,
1000
0100
0010
0100
,
1000
1000
1100
0000
,
1010
0000
0001
0000
,
0010
0000
0100
1000
,
0001
0001
1000
1000
,
0010
0100
0010
0000
,
1001
0000
0000
0000
;

//---------------dance-single - ----------------
#NOTES:
     dance-single:
     :
     Beginner:
     3:
     0.145177,0.201331,0.076697,0.047936,0.000000,106.000000,98.000000,8.000000,5.000000,0.000000,0.000000,0.145177,0.201331,0.076697,0.047936,0.000000,106.000000,98.000000,8.000000,5.000000,0.000000,0.000000:
0000
0000
0000
0000
,
0000
0000
0000
0000
,
1001
0000
0000
0000
,
1000
0000
0000
0000
,
0100
0000
0010
0000
,
0001
0001
0001
0000
,
1001
0000
0000
0000
,
0001
0000
0000
0000
,
0100
0000
0010
0000
,
1001
0000
0000
0000
,
1000
0000
0001
0000
,
1000
0000
0000
0000
,
0010
0000
0100
0000
,
0001
0000
0000
0000
,
0001
0000
1000
0000
,
0001
0000
0000
0000
,
0010
0000
0100
0000
,
1000
0000
0001
0001
,
0001
0000
0100
0000
,
1000
0000
0000
0000
,
0100
0000
0001
0000
,
1000
0000
0000
0000
,
1000
0000
0100
0000
,
0001
0000
0000
0000
,
0100
0000
1000
0000
,
0020
0000
0030
0000
,
0010
0000
1000
0000
,
0001
0000
0100
0100
,
0100
0000
0001
0000
,
1000
0000
0001
0001
,
0001
0000
0010
0000
,
0100
0000
1000
1000
,
1000
0000
0010
0000
,
0100
0000
0001
0001
,
0002
0000
0003
0000
,
0100
0000
1000
0000
,
0200
0000
0300
0000
,
0001
0000
1000
0000
,
2000
0000
3000
0000
,
0100
0000
0001
0000
,
0200
0000
0300
0000
,
1000
0000
0001
0000
,
1001
0000
0000
0000
,
0000
0000
0000
0000
,
1000
0000
0000
0000
,
0001
0000
0000
0000
,
0100
0000
0010
0000
,
1000
1000
1000
0000
,
1001
0000
0000
0000
,
1000
0000
0000
0000
,
0100
0000
0010
0000
,
0001
0000
0000
0000
,
0110
0000
0000
0000
,
1000
0000
0000
0000
,
0001
0000
0100
0000
,
0010
0010
0010
0000
,
0110
0000
0000
0000
,
0001
0000
0000
0000
,
1000
0000
0100
0000
,
0010
0010
0010
0000
,
1001
0000
0000
0000
;
