#VERSION:0.83;
#TITLE:Darkness;
#SUBTITLE:;
#ARTIST:Sanxion7;
#TITLETRANSLIT:;
#SUBTITLETRANSLIT:;
#ARTISTTRANSLIT:;
#GENRE:;
#ORIGIN:;
#CREDIT:;
#BANNER:darkness-bn.png;
#BACKGROUND:darkness-bg.png;
#PREVIEWVID:;
#JACKET:darkness-jacket.png;
#CDIMAGE:;
#DISCIMAGE:;
#LYRICSPATH:;
#CDTITLE:;
#MUSIC:Darkness.ogg;
#OFFSET:0.075000;
#SAMPLESTART:37.326000;
#SAMPLELENGTH:12.000000;
#SELECTABLE:YES;
#BPMS:0.000=85.000,
49.000=170.000;
#STOPS:49.000=2.460;
#DELAYS:;
#WARPS:;
#TIMESIGNATURES:0.000=4=4;
#TICKCOUNTS:0.000=4;
#COMBOS:0.000=1;
#SPEEDS:0.000=1.000=0.000=0;
#SCROLLS:0.000=1.000;
#FAKES:;
#LABELS:0.000=Song Start;
#BGCHANGES:;
#KEYSOUNDS:;
#ATTACKS:
;

//---------------dance-single - ----------------
#NOTEDATA:;
#CHARTNAME:;
#STEPSTYPE:dance-single;
#DESCRIPTION:;
#CHARTSTYLE:;
#DIFFICULTY:Beginner;
#METER:3;
#RADARVALUES:0.124008,0.198651,0.008347,0.033387,0.000000,104.000000,103.000000,1.000000,4.000000,0.000000,0.000000,0.000000,0.000000,0.000000,0.124008,0.198651,0.008347,0.033387,0.000000,104.000000,103.000000,1.000000,4.000000,0.000000,0.000000,0.000000,0.000000,0.000000;
#CREDIT:SHAYMIN;
#NOTES:
// measure 0
0000
0000
0000
0000
,  // measure 1
0000
0000
0000
0000
,  // measure 2
0000
0000
0000
0000
,  // measure 3
0000
0000
0000
0000
,  // measure 4
0000
0100
0000
0100
,  // measure 5
0000
0100
0000
0000
,  // measure 6
0000
0010
0000
0010
,  // measure 7
0000
0010
0000
0000
,  // measure 8
0000
1000
0000
0001
,  // measure 9
0001
1000
0000
1000
,  // measure 10
1000
0001
0000
1000
,  // measure 11
0000
0001
0000
1000
,  // measure 12
0000
0000
0010
0000
,  // measure 13
0010
0000
0100
0000
,  // measure 14
0100
0000
0010
0000
,  // measure 15
0000
0000
1000
0000
,  // measure 16
0001
0000
1000
0000
,  // measure 17
1000
0000
0001
0000
,  // measure 18
0000
0000
0001
0000
,  // measure 19
0001
0000
1000
0000
,  // measure 20
0000
0000
1001
0000
,  // measure 21
0001
0000
0001
0000
,  // measure 22
1000
0000
1000
0000
,  // measure 23
0000
0000
0100
0000
,  // measure 24
0010
0000
0100
0000
,  // measure 25
0100
0000
0010
0000
,  // measure 26
0000
0000
0010
0000
,  // measure 27
0010
0000
0100
0000
,  // measure 28
0000
0000
0020
0000
,  // measure 29
0000
0000
0030
0000
,  // measure 30
0001
0000
0002
0000
,  // measure 31
0000
0000
0003
0000
,  // measure 32
1000
0000
1000
0000
,  // measure 33
0100
0000
1000
0000
,  // measure 34
0000
0000
0001
0000
,  // measure 35
0100
0000
0001
0000
,  // measure 36
0000
0000
2000
0000
,  // measure 37
3000
0000
0001
0000
,  // measure 38
0001
0000
0001
0000
,  // measure 39
0000
0000
1000
0000
,  // measure 40
1000
0000
1000
0000
,  // measure 41
0001
0000
1000
0000
,  // measure 42
0000
0000
0001
0000
,  // measure 43
1000
0000
0001
0000
,  // measure 44
0000
0000
0100
0000
,  // measure 45
0100
0000
0100
0000
,  // measure 46
0100
0000
0010
0000
,  // measure 47
0010
0000
0010
0000
,  // measure 48
0010
0000
1000
0000
,  // measure 49
1000
0000
1000
0000
,  // measure 50
1000
0000
0001
0000
,  // measure 51
0001
0000
0001
0000
,  // measure 52
0001
0000
1000
0000
,  // measure 53
1000
0000
0001
0000
,  // measure 54
0001
0000
1000
0000
,  // measure 55
1000
0000
0001
0000
,  // measure 56
0001
0000
0010
0000
,  // measure 57
0010
0000
0100
0000
,  // measure 58
0100
0000
0010
0000
,  // measure 59
0010
0000
0100
0000
,  // measure 60
0100
0000
0010
0000
,  // measure 61
0000
0000
0001
0000
,  // measure 62
0000
0000
0100
0000
,  // measure 63
0000
0000
0010
0000
,  // measure 64
0000
0000
1000
0000
,  // measure 65
0000
0000
0001
0000
,  // measure 66
0000
0000
0020
0000
,  // measure 67
0000
0000
0000
0000
,  // measure 68
0030
0000
0000
0000
;

//---------------dance-single - ----------------
#NOTEDATA:;
#CHARTNAME:;
#STEPSTYPE:dance-single;
#DESCRIPTION:;
#CHARTSTYLE:;
#DIFFICULTY:Easy;
#METER:7;
#RADARVALUES:0.261132,0.340545,0.041733,0.100160,0.000000,219.000000,214.000000,5.000000,12.000000,0.000000,0.000000,0.000000,0.000000,0.000000,0.261132,0.340545,0.041733,0.100160,0.000000,219.000000,214.000000,5.000000,12.000000,0.000000,0.000000,0.000000,0.000000,0.000000;
#CREDIT:SHAYMIN;
#NOTES:
0000
0000
0000
0000
,
0000
0000
0000
0000
,
0000
0000
0000
0000
,
0000
0000
0000
0000
,
0000
1000
1000
0001
,
0001
0020
0030
0200
,
0300
1000
1000
0001
,
0001
0200
0300
0020
,
0030
1001
1000
0100
,
0010
0010
0010
0000
0001
0000
0100
0000
,
0010
0010
0010
0000
1000
0000
0001
0000
,
1000
0100
1000
0010
,
0100
0000
1001
0000
,
0100
0000
0010
1000
,
0001
1000
0010
0000
,
1000
0000
0100
1000
,
0001
1000
0100
0010
,
0001
0000
0100
0010
,
1000
0000
0001
0001
,
1000
1000
0100
0010
,
0001
1000
1001
0000
,
0010
0000
0100
0001
,
1000
0001
0100
0000
,
0001
0000
0010
0001
,
1000
0001
0010
0100
,
1000
0000
0010
0100
,
0001
0000
1000
0100
,
0010
0001
0100
0000
,
0100
0000
1001
0000
,
1000
0100
1000
1000
,
0001
0001
0010
0000
,
0001
0100
0001
0001
,
1000
1000
0010
0000
,
1000
0000
0100
0000
,
1000
0010
1000
0000
,
0001
0010
0001
0100
,
0010
1000
0001
0000
,
1001
0000
1000
1000
,
0001
0001
0100
0000
,
1000
0100
1000
1000
,
0001
0001
0010
0000
,
0001
0000
0100
0000
,
0001
0010
0001
0000
,
0100
0000
0010
0010
,
0010
0000
0010
0000
1000
0001
1000
0000
,
0100
1000
0010
0100
,
0001
1000
0001
0001
,
0100
0100
0010
1000
,
0001
0000
1000
0000
0010
0100
0010
0000
,
1000
0100
0010
0001
,
0100
0010
0100
0100
,
0001
0001
1000
0100
,
0010
0000
0100
0000
1000
0001
1000
0000
,
0010
0100
0001
0010
,
0001
0000
0100
0000
0010
0100
0010
0000
,
1000
0100
1000
0010
,
0100
0000
0010
0000
1000
0001
1000
0000
,
0100
0010
0001
0001
,
1000
0000
1000
0000
0010
0100
0010
0000
,
1000
0001
0010
0010
,
0100
0100
0020
0000
,
0000
0031
0200
0300
,
0020
0030
2000
0000
,
0000
3000
0100
1000
,
0010
0100
0002
0000
,
0000
0013
0200
0300
,
2000
3000
0020
0000
,
0000
0000
0000
0000
,
0030
0000
0000
0000
;

//---------------dance-single - ----------------
#NOTEDATA:;
#CHARTNAME:;
#STEPSTYPE:dance-single;
#DESCRIPTION:;
#CHARTSTYLE:;
#DIFFICULTY:Medium;
#METER:9;
#RADARVALUES:0.364870,0.425681,0.058427,0.158587,0.066774,306.000000,299.000000,7.000000,19.000000,0.000000,0.000000,0.000000,0.000000,0.000000,0.364870,0.425681,0.058427,0.158587,0.066774,306.000000,299.000000,7.000000,19.000000,0.000000,0.000000,0.000000,0.000000,0.000000;
#CREDIT:SHAYMIN;
#NOTES:
0000
0000
0000
0000
,
0000
0000
0000
0000
,
0000
0000
0000
0000
,
0000
0000
0000
0000
,
0000
0000
1000
0000
0100
1000
1000
0000
,
0010
0100
0100
0000
0001
0000
0010
0001
,
0010
0001
1000
0000
0010
1000
1000
0000
,
0100
0010
0010
0000
0001
0000
0100
0010
,
0100
0010
1000
0000
0100
1000
0010
0010
,
0100
0100
0001
0000
0010
0001
0100
0100
,
0010
0010
1000
0000
0001
0000
1000
0000
,
0100
0010
0001
0000
1000
0000
0001
0000
,
0100
0010
0000
0000
1001
0000
1000
0000
,
0100
0000
0000
1000
0000
1000
0020
0000
0000
0100
0000
0000
,
1000
0130
0101
0001
,
1000
0000
0000
0001
0000
0001
0020
0000
0000
0100
0000
0000
,
0001
0000
0000
0130
0000
0100
1000
0000
0000
0001
0000
0000
,
0110
0000
0000
1000
0000
0001
0100
0000
0000
0010
0000
0010
,
1000
0001
1000
0100
,
0010
0001
0010
0001
0000
0001
0200
0000
0000
0010
0000
0000
,
1000
0310
1001
0001
,
0010
0000
0000
0001
0000
0001
0200
0000
0000
0010
0000
0000
,
0001
0310
1010
1000
,
0100
0000
0000
0010
0000
0010
0002
0000
0000
0100
0000
0000
,
1000
0000
0000
0013
0000
0010
0001
0000
0000
1000
0000
0000
,
1001
0000
0000
1000
0000
0100
0010
0000
0000
0001
0000
0001
,
1000
0010
0100
0001
,
1000
0100
1000
0100
0000
0100
2000
0000
0000
3020
0000
0000
,
0100
0130
0110
0000
,
1000
0000
0001
0010
0100
0000
0010
0000
,
0001
1000
0010
0000
,
0100
0000
0010
1000
0001
0000
0010
0000
,
0001
0100
0020
1030
,
2000
3100
0010
0001
,
0100
0010
1000
0000
,
0001
1000
0001
0000
0100
0000
0100
0000
,
0010
0010
0200
0000
,
0310
0000
1000
0100
0010
0000
0100
0000
,
1000
0001
0100
0000
,
0010
0000
0100
0001
1000
0000
0100
0000
,
0010
0001
2000
3010
,
0020
0130
0001
1000
,
0100
0010
0100
0000
,
1000
0001
0100
0010
1000
0000
1000
0000
,
1000
0000
0001
0000
1000
0100
0010
0100
,
1000
0001
0100
0001
,
0010
0000
0100
0000
1000
0001
0100
0001
,
1000
0000
0100
0000
0010
0001
1000
0000
,
0010
0000
0010
0000
1000
0001
0100
0010
,
1000
0010
0100
0001
,
0010
0000
0100
0000
1000
0001
0010
0100
,
1000
0000
0001
0000
0010
0001
0100
0000
,
0010
0000
0010
0000
1000
0000
0010
0100
,
0010
0000
1000
0000
0001
0000
0100
0010
,
1000
0000
0001
0000
1000
0100
1000
0100
,
0010
0000
0010
0000
0001
0100
0001
0100
,
0010
0000
1000
0000
0001
1000
0100
0010
,
0001
0000
1000
0000
0010
0000
1000
0100
,
0010
0000
0100
0000
1000
0010
0100
0010
,
1000
0000
1000
0000
0001
0010
0100
0010
,
0001
1000
0020
0000
,
0000
1030
0200
0000
,
2300
0000
3001
0010
,
0001
0100
0000
0100
0001
0000
1000
0000
,
0100
1000
0000
1000
0200
0000
0000
0000
,
0000
0310
0002
0000
,
2003
0000
3020
0000
,
0000
0000
0000
0000
,
0030
0000
0000
0000
;

//---------------dance-single - ----------------
#NOTEDATA:;
#CHARTNAME:;
#STEPSTYPE:dance-single;
#DESCRIPTION:;
#CHARTSTYLE:;
#DIFFICULTY:Hard;
#METER:13;
#RADARVALUES:0.492455,0.624332,0.091814,0.233707,0.267094,413.000000,402.000000,11.000000,28.000000,0.000000,0.000000,0.000000,0.000000,0.000000,0.492455,0.624332,0.091814,0.233707,0.267094,413.000000,402.000000,11.000000,28.000000,0.000000,0.000000,0.000000,0.000000,0.000000;
#CREDIT:SHAYMIN;
#NOTES:
0000
0000
0000
0000
,
0000
0000
0000
0000
,
0000
0000
0000
0000
,
0000
0000
0000
0000
,
0000
0000
1000
0100
0010
0010
0001
0100
,
0010
0010
1000
0200
1300
0010
0100
0002
,
0103
0010
1000
0001
0010
0010
0001
0100
,
0010
0010
1000
0200
0310
0010
0100
2000
,
3010
0000
0000
0010
0000
0000
0110
0000
0000
0000
0000
0000
0000
0000
0000
1000
0100
0010
0001
0000
0000
1000
0000
0000
,
0001
0000
0000
1000
0000
0000
0010
0000
0000
0000
0000
0000
0000
0000
0000
0001
0010
0100
1000
0000
0000
0001
0000
0000
,
1000
0000
0000
0001
0000
0001
0010
0000
0000
0100
0000
0000
1000
0000
0000
0100
0000
0000
0010
0000
0000
0001
0000
0000
,
1000
0000
0000
1000
0000
0000
0001
0000
0000
0100
0000
0000
0010
1000
0010
1000
0000
1000
0100
0000
0000
0010
0000
0000
,
0001
0000
0000
1000
0000
0000
0000
0000
0000
0000
0000
0000
1100
0000
0000
0000
0000
0000
0100
0000
0000
0000
0100
0000
,
0010
0000
0000
0001
1000
0010
0200
0000
0000
0010
0000
0000
,
1000
0000
0000
0310
0000
0000
1000
0000
1000
0100
0000
0100
,
0010
0000
0000
0001
1000
0001
0200
0000
0000
0010
0000
0000
,
1000
0000
0000
0310
0000
0010
0100
0000
0000
0101
0000
0000
,
1001
0000
0000
1000
0000
0100
0010
0000
0000
0001
0000
1000
,
0100
0000
0000
1000
0000
0000
0010
0000
0000
0100
0000
0100
,
0010
1000
0010
1000
0000
1000
0100
0000
0100
0010
0000
0010
,
0001
0000
0001
1000
0001
1000
0001
0000
0000
0010
0000
0010
,
0100
0000
0000
1000
0001
1000
0020
0000
0000
0100
0000
0000
,
1000
0000
0000
0130
0000
0000
0001
0000
0001
0010
0000
0010
,
0100
0000
0000
1000
0010
0100
0002
0000
0000
0010
0000
0000
,
0100
0000
0000
1003
0000
1000
0001
0000
0000
0011
0000
0000
,
0110
0000
0000
1000
0000
1000
0010
0000
0000
0100
0000
0001
,
0100
0000
0000
0010
0000
0000
1000
0000
0000
0100
0000
0100
,
0010
0001
0010
0001
0000
0001
2000
0000
0000
3020
0000
0000
,
0230
0000
0000
0301
0010
0100
1000
0000
0000
0001
0000
0000
,
0101
0000
1000
0100
0020
0000
0001
0000
,
0100
0000
0031
0000
0001
1000
0001
0100
,
0010
1000
0100
0010
0200
0000
1000
0000
,
0010
0000
0000
0000
1300
0000
0000
0001
1000
0000
0000
0000
0010
0000
0000
0000
,
0110
0000
0000
0000
1000
0000
0000
0001
1000
0000
0000
0000
0100
0000
0000
1000
,
0100
0010
0011
0001
,
1000
0100
1000
0000
0001
0000
0000
0000
2000
0000
0000
0000
3020
0000
0000
0000
,
0230
0000
0000
0301
1000
0001
0020
0000
0000
0000
0000
0000
,
0130
0000
1000
0001
0200
0000
0010
0000
,
1000
0000
0310
0000
0001
0010
0100
1000
,
0001
1000
0100
0010
0200
0000
0001
0000
,
0010
0000
0000
0000
1300
0000
0000
0001
1000
0000
0000
0000
0010
0000
0000
0000
,
0110
0000
0000
0000
0001
0000
0000
1000
0001
0000
0000
0000
1000
0000
0000
0100
,
1000
0010
1010
1000
,
0001
0010
0001
0000
1000
0000
0000
0100
1000
0000
0000
0100
1000
0000
0000
0100
,
1000
0000
0000
0000
0001
1000
0010
1000
,
0001
0010
0100
1000
0001
0100
0010
0100
,
0001
1000
0100
0010
0001
1000
0001
1000
,
0010
0100
0010
0000
1000
0001
1000
0001
,
0010
0100
0010
0000
1000
0001
0010
0001
,
1000
0010
0100
0001
1000
0100
0010
0100
,
1000
0001
0100
0010
1000
0100
1000
0100
,
0010
0000
0001
0000
0010
0000
0000
0000
0100
0010
0100
0000
1000
0000
0000
0000
,
0010
0000
0100
0001
1000
0000
0000
0000
0100
0000
0010
0000
0001
0000
0010
0000
,
0100
1000
0010
0100
0010
1000
0100
0010
,
0001
0100
0010
0100
0001
1000
0100
1000
,
0001
0000
0100
0000
0001
0000
0000
0001
0000
0000
0001
0000
1000
0000
0000
1000
,
0000
0000
1000
0000
0001
0000
0000
0001
1000
0000
0100
0000
1000
0000
0010
0000
,
0100
0001
0010
0001
0100
0010
1000
0100
,
0010
0001
0010
0100
1000
0010
1000
0010
,
0100
0000
0001
0000
0100
0000
0000
0000
0010
0100
0010
0000
1000
0000
0000
0000
,
0001
0000
0000
0000
1000
0001
1000
0001
2000
0000
0000
0000
0100
0000
0000
0000
,
0010
3100
0020
1030
,
0200
0310
2000
0001
,
0100
3001
0002
0100
,
1000
0103
0020
1000
,
0100
1030
2000
3100
,
0020
0031
0200
0000
,
0000
0000
0000
0000
,
0300
0000
0000
0000
;

//---------------dance-single - ----------------
#NOTEDATA:;
#CHARTNAME:;
#STEPSTYPE:dance-single;
#DESCRIPTION:;
#CHARTSTYLE:;
#DIFFICULTY:Challenge;
#METER:16;
#RADARVALUES:0.665350,0.766226,0.108507,0.175280,0.730335,558.000000,545.000000,13.000000,21.000000,0.000000,0.000000,0.000000,0.000000,0.000000,0.665350,0.766226,0.108507,0.175280,0.730335,558.000000,545.000000,13.000000,21.000000,0.000000,0.000000,0.000000,0.000000,0.000000;
#CREDIT:SHAYMIN;
#NOTES:
0000
0000
0000
0000
,
0000
0000
0000
0000
,
0000
0000
0000
0000
,
0000
0000
0000
0000
,
0000
0000
0000
0000
0000
0000
1000
0000
0000
0100
0010
0100
0010
0000
0000
0001
0000
0000
0100
0000
0000
0010
1000
0010
,
1000
0000
0000
0001
0000
0000
0010
0000
0000
0100
1000
0100
0010
0000
0000
0001
0000
0000
1000
0000
0000
0001
0100
0010
,
0100
0000
0000
0001
0100
0010
1000
0000
0000
0100
1000
0100
1000
0000
0000
0010
0000
0000
0100
0000
0000
0001
1000
0001
,
1000
0000
0000
0100
0000
0000
0010
0000
0000
0001
0010
0100
0010
0000
0000
0001
0000
0000
0100
0000
0000
0010
1000
0010
,
0100
0000
0000
0001
1000
0100
0010
0000
0000
0000
0000
0000
0001
0000
0000
1000
0100
0010
0001
0000
0000
1000
0000
0000
,
0001
0000
0000
0001
0000
0000
0100
0000
0000
0000
0000
0000
0100
0000
0000
0001
0100
0010
1000
0000
0000
0001
0000
0000
,
1000
0000
0000
1000
0000
0100
0010
0000
0000
0001
0000
0000
0010
0000
0000
0100
0000
0100
0010
0000
0000
0001
0000
0001
,
0100
0000
0000
0010
0000
0000
1000
0000
0000
0001
0000
0000
1000
0100
0010
0001
0000
1000
0001
0000
0001
0100
0000
0100
,
0010
0000
0010
1000
0001
1000
0000
0000
0000
0000
0000
0000
1100
0000
0000
0000
0100
0000
1000
0000
0000
0000
1000
0000
,
0010
0000
0010
0100
0001
0100
0020
0000
0000
1000
0000
0000
,
0100
0000
0000
1030
0000
0000
0001
0010
0100
1000
0100
0010
,
0001
1000
0010
0100
0001
0100
0010
0000
0010
1000
0000
1000
,
0001
0000
0001
0010
0100
1000
0200
0000
0000
0310
0000
0000
,
1001
0000
0000
0100
0010
0100
0010
0000
0000
0010
1000
0100
,
0010
0000
0000
0011
0000
0000
1100
0000
0000
0001
0000
0100
,
0001
1000
0001
0100
0000
0100
0010
1000
0010
0100
0001
0100
,
0010
1000
0100
0001
0100
1000
0010
0000
0010
1000
0000
1000
,
0100
0000
0100
0010
0001
0010
0200
0000
0000
1000
0000
0000
,
0010
0000
0000
1300
0000
0000
0001
0010
0100
0010
0001
0100
,
0010
1000
0001
1000
0010
0100
0010
0000
0010
1000
0000
1000
,
0100
0000
0100
0010
0001
0010
0200
0000
0000
0310
0000
0000
,
1001
0000
0000
0100
0010
0100
0010
0000
0000
1000
0000
0010
,
1000
0000
0000
1010
0000
0000
0101
0000
0000
1000
0000
0100
,
0010
0001
0010
0100
0000
0100
2000
0000
0000
3020
0000
0000
,
0130
0001
0100
0010
0100
0010
1000
0000
0000
0100
0000
0000
,
1100
0000
0000
0000
1000
0100
0010
0001
2000
0000
0000
0000
0010
0000
0000
0000
,
3020
0000
0130
0000
0100
0001
0100
0010
,
0100
0000
0001
0000
1000
0100
1000
0100
0020
0000
0000
0000
0001
0000
0000
0000
,
0130
0000
0000
0000
0001
0000
0000
0001
1000
0000
0000
0000
0010
0000
0000
0000
,
1010
0000
0000
0000
1000
0000
0100
1000
0100
0000
0000
0000
0010
0000
0000
0001
,
1000
0010
0110
0100
,
0010
1000
0001
0000
0010
0000
0000
0100
0020
0000
0000
0000
0032
0000
0000
0000
,
2003
0000
0000
3010
0100
0001
2000
0000
0000
0000
0000
0000
,
3100
0000
0000
0000
0001
0100
0010
1000
0002
0000
0000
0000
0010
0000
0000
0000
,
0023
0000
0130
0000
0100
1000
0100
0010
,
0100
0000
1000
0000
0001
0100
0001
0100
0020
0000
0000
0000
1000
0000
0000
0000
,
0130
0000
0000
0000
1000
0000
0000
1000
0001
0000
0000
0000
0010
0000
0000
0000
,
0011
0000
0000
0000
0001
0000
1000
0001
1000
0000
0000
0000
0010
0000
0000
1000
,
0010
0100
0101
0001
,
1000
0100
0010
0000
0001
0000
0000
1000
0010
0000
0000
0100
0010
0000
0000
1000
,
0010
0100
0010
0100
0010
1000
0010
0000
0100
0001
0010
0000
0001
0000
0100
0000
,
0010
1000
0100
0000
1000
0000
0010
0000
0100
0001
1000
0000
0100
0000
1000
0000
,
0001
0100
0010
0000
1000
0000
0100
0000
1000
0010
1000
0010
1000
0000
0001
0000
,
0010
0000
0001
0010
0001
0000
1000
0000
0001
0100
0001
0100
0001
0000
1000
0000
,
0001
0000
0100
0010
0100
0000
0001
0000
1000
0100
0010
0000
0100
0000
1000
0000
,
0001
0100
0010
0000
0100
0000
0001
0000
1000
0001
0010
0000
0001
0000
1000
0000
,
0010
1000
0001
0000
0100
0000
0001
0000
1000
0100
1000
0100
1000
0000
0001
0000
,
0100
0000
0001
0100
0001
0000
1000
0000
0010
1000
0010
0000
1010
0000
1000
0000
,
0001
0000
0010
0001
0010
0000
0100
0000
1000
0100
0010
0100
1000
0000
0010
0000
,
0100
0001
0100
0010
0100
0000
0001
0000
1000
0100
1000
0100
0010
0000
0001
0000
,
0100
0001
0100
0001
1000
0000
0100
0000
1000
0010
1000
0000
0100
0000
1000
0010
,
0000
1000
0010
0000
0100
0000
0001
1000
0000
0100
1000
0000
0010
0000
0100
0001
,
0000
0100
0010
0000
1000
0000
0001
0000
0010
0001
0010
0001
1000
0000
0010
0000
,
1000
0100
1000
0100
0010
0000
0001
0000
0100
0010
1000
0010
0100
0000
0010
0000
,
0100
0001
0100
0010
0100
0000
0001
0000
1000
0100
0010
0000
0100
0000
1000
0000
,
0001
0010
0100
0000
0010
0000
0001
0000
0100
0010
1000
0000
0010
0000
0100
0000
,
0001
1000
0100
0000
1000
0001
0100
0010
1000
0000
0100
0000
1000
0000
0000
0000
,
0010
0000
0100
0000
0010
0100
0010
0000
1000
0000
0001
0000
1000
0000
0000
0000
,
0001
0000
0010
0000
0001
0010
0001
0000
0010
0000
0100
0000
0010
0000
0000
0000
,
0100
0000
1000
0000
0100
1000
0100
0000
0010
0000
0001
0000
0010
0000
0000
0000
,
0100
0000
1000
0000
0001
1000
0001
0000
0200
0000
0010
0000
0310
0000
0000
0000
,
2000
0100
3100
0000
0020
0001
0031
0000
,
0200
0310
2000
0000
,
0000
0000
0000
0000
,
3000
0000
0000
0000
;
