#VERSION:0.83;
#TITLE:D.E.A.L. Breaker Intro;
#SUBTITLE:(Extended);
#ARTIST:Ikralu;
#TITLETRANSLIT:;
#SUBTITLETRANSLIT:;
#ARTISTTRANSLIT:;
#GENRE:;
#ORIGIN:;
#CREDIT:;
#BANNER:dealbreaker-bn.png;
#BACKGROUND:dealbreaker-bg.png;
#PREVIEWVID:;
#JACKET:dealbreaker-jacket.png;
#CDIMAGE:;
#DISCIMAGE:;
#LYRICSPATH:;
#CDTITLE:cdtitle.png;
#MUSIC:dealbreaker.ogg;
#OFFSET:-0.637530;
#SAMPLESTART:39.638000;
#SAMPLELENGTH:14.400000;
#SELECTABLE:YES;
#DISPLAYBPM:*;
#BPMS:0.000=100.000,
112.000=50.000,
113.000=100.000,
114.000=200.000,
116.000=100.000,
196.000=200.000,
200.000=100.000;
#STOPS:31.000=0.600;
#DELAYS:;
#WARPS:;
#TIMESIGNATURES:0.000=4=4;
#TICKCOUNTS:0.000=4;
#COMBOS:0.000=1;
#SPEEDS:0.000=1.000=0.000=0;
#SCROLLS:0.000=1.000;
#FAKES:;
#LABELS:0.000=Song Start;
#BGCHANGES:;
#KEYSOUNDS:;
#ATTACKS:
;

//---------------dance-single - ----------------
#NOTEDATA:;
#CHARTNAME:;
#STEPSTYPE:dance-single;
#DESCRIPTION:;
#CHARTSTYLE:;
#DIFFICULTY:Hard;
#METER:15;
#RADARVALUES:0.606728,0.805719,0.191188,0.157047,1.037876,622.000000,594.000000,28.000000,23.000000,36.000000,0.000000,0.000000,0.000000,0.000000,0.606728,0.805719,0.191188,0.157047,1.037876,622.000000,594.000000,28.000000,23.000000,36.000000,0.000000,0.000000,0.000000,0.000000;
#CREDIT:TonyAkita;
#OFFSET:-0.637530;
#BPMS:0.000000=100.000000
,112.000000=50.000000
,113.000000=100.000000
,114.000000=200.000000
,116.000000=100.000000
,196.000000=200.000000
,200.000000=100.000000
;
#STOPS:31.000000=0.600000
;
#DELAYS:;
#WARPS:;
#TIMESIGNATURES:0.000000=4=4
;
#TICKCOUNTS:0.000000=4
;
#COMBOS:0.000000=1
;
#SPEEDS:0.000000=1.000000=0.000000=0
;
#SCROLLS:0.000000=1.000000
;
#FAKES:;
#LABELS:0.000000=Song Start
;
#DISPLAYBPM:*;
#NOTES:
0000
0000
0000
0000
,
0000
0000
0000
0000
,
0000
0000
0000
0000
,
0000
0000
0000
0000
,
0000
0000
0000
0000
,
0000
0000
0000
2000
,
0000
0000
0001
0000
0000
0000
3001
1000
,
0000
0010
0000
0000
0010
0000
0000
0010
0100
0001
1000
0001
MMMM
0000
0000
0000
,
1001
0000
1100
0000
0000
1000
0100
0010
0100
1000
0000
0010
0100
0001
0100
0010
,
1010
0000
1001
0000
0000
0001
0010
0100
0010
0001
0000
0100
0010
1000
0010
0100
,
0110
0000
0101
0000
0000
0001
0100
1000
0100
0001
0000
1000
0100
0010
0001
1000
,
1001
0000
1100
0000
0000
1000
0100
0001
0100
1000
0000
0001
1000
0100
0010
0001
,
2000
0000
0010
0010
0000
0010
3010
0000
0100
1000
0000
0100
0001
0000
1000
0100
,
0020
0000
0001
0001
0000
0001
0031
0000
0010
0100
0000
1000
0001
0100
0010
1000
,
0002
0000
0010
0010
0000
0010
0013
0000
0100
0001
0000
0100
1000
0000
0001
0100
,
0020
0000
1000
1000
0000
1000
1030
0000
0010
0100
1000
0100
0001
1000
MMMM
1000
,
0002
0000
1000
1000
0000
1000
1003
0000
0001
0100
0000
0001
0010
0000
0100
1000
,
0200
0000
1000
1000
0000
1000
1300
0000
0100
0010
0000
0001
1000
0010
0100
0001
,
2000
0000
0001
0001
0000
0001
3001
0000
1000
0100
0000
1000
0010
0000
0100
0001
,
0200
0000
0001
0001
0000
0001
0301
0000
1000
0100
0010
0001
1000
0001
0100
0010
,
1000
0010
1000
0010
0000
0100
1000
0000
0100
0001
0000
0100
0010
0000
0100
0001
,
1000
0100
1000
0100
0000
0010
0001
0000
0010
0100
0000
1000
0100
0010
0001
1000
,
0001
0010
0001
0010
0000
0100
0001
0000
0100
1000
0000
0100
0010
0000
0100
1000
,
0001
0100
0001
0100
0000
0010
1000
0000
0010
0100
1000
0100
0001
1000
MMMM
1000
,
0001
0010
0001
0010
0000
0100
1000
0000
0100
0010
0000
0100
1000
0000
0001
0100
,
0010
1000
0010
1000
0000
0010
0100
0000
0001
1000
0000
0100
0010
0001
0010
0100
,
1000
0010
1000
0010
0000
0100
0001
0000
0100
0010
0000
0100
0001
0000
1000
0100
,
0010
0001
0010
0001
0000
0010
0100
0000
1000
0100
0010
0001
0100
0010
1000
0001
,
0200
0000
0000
0000
,
0310
1000
0000
1010
0000
1100
0000
1000
0100
001M
0000
M010
0100
0001
0100
0010
,
1000
0001
0000
0011
0000
0101
0000
0001
0100
100M
0000
M001
0100
1000
0100
0010
,
0001
0010
0000
0011
0000
0101
0000
0001
0100
001M
0000
M010
0100
1000
0100
0010
,
0001
1000
0000
0010
1000
0010
0000
1000
0010
0100
1000
0100
0001
1000
MMMM
1000
,
0001
0010
0000
0011
0000
1001
0000
1000
0001
M100
0000
100M
0100
0001
0100
0010
,
1000
0010
0000
1010
0000
1100
0000
1000
0100
M001
0000
100M
0100
0001
0100
0010
,
1000
0010
0000
1010
0000
1001
0000
0001
1000
010M
0000
M001
0100
1000
0100
0010
,
0001
1000
0000
0010
1000
0010
0000
1000
0001
0010
0100
1000
0001
0100
0010
1000
,
0002
0000
0100
0000
0000
0100
0000
0000
0203
0000
0000
0010
0000
0000
0310
1000
,
0002
0000
0010
0000
0000
0010
0000
0000
0023
0000
0000
0130
1000
0100
0010
0001
,
1000
0001
0100
0010
0000
1010
0010
0000
0001
0010
0000
1000
0010
0000
0010
0100
,
0001
1000
0100
0010
0000
0011
0001
0000
0100
0010
0001
0010
1000
0001
MMMM
0001
,
2000
0000
0010
0000
0000
0010
0000
0000
3020
0000
0000
0100
0000
0000
0130
0001
,
2000
0000
0100
0000
0000
0100
0000
0000
3200
0000
0000
0310
0001
0010
0100
1000
,
0001
0100
0010
1000
0000
1010
0010
0000
0001
0010
0000
1000
0010
0000
0010
0100
,
0001
1000
0100
0010
0000
0011
0001
0000
1000
0100
0010
0001
1000
0010
0100
0001
,
2000
0000
0001
0000
,
3002
0000
1000
0000
,
1003
0011
1001
1010
,
0010
0000
1000
0000
0001
0010
0100
1000
0010
0100
0010
1000
0001
0010
0100
1000
,
002M
M000
000M
M000
,
1030
0010
0100
0001
1000
0010
1000
0010
0100
0001
0100
0010
1000
0100
0010
0001
,
0010
0100
0010
0100
1000
0100
0010
0001
1000
0010
0100
0001
0100
0010
0100
0001
,
1000
0100
1000
0100
0010
0001
0010
0100
1000
0100
0010
0001
0100
0010
0100
0001
,
1000
0010
1000
0010
0100
0001
0100
0010
1000
0100
0001
0100
1000
0001
1000
0001
,
0100
0010
1000
0010
0100
0001
0100
0001
1000
0100
0010
0001
0010
0100
0010
0001
,
1000
0010
1000
0010
0100
0001
0100
0010
1000
0010
0100
0001
1000
0100
0010
0001
,
0100
0001
0010
0001
0100
0001
0010
0000
0100
1000
0010
1000
0100
1000
0010
0000
,
1000
0010
1000
0010
0100
0001
0100
0001
0010
0001
0010
0001
0010
0100
0010
0100
1000
0000
0100
0000
0010
0000
0001
0000
0100
0000
0010
0000
1000
0000
0001
0000
,
2002
0000
0000
0000
,
3003
0000
0000
0000
;

//---------------dance-single - ----------------
#NOTEDATA:;
#CHARTNAME:;
#STEPSTYPE:dance-single;
#DESCRIPTION:;
#CHARTSTYLE:;
#DIFFICULTY:Medium;
#METER:10;
#RADARVALUES:0.304339,0.342431,0.068281,0.170703,0.105836,312.000000,302.000000,10.000000,25.000000,8.000000,0.000000,0.000000,0.000000,0.000000,0.304339,0.342431,0.068281,0.170703,0.105836,312.000000,302.000000,10.000000,25.000000,8.000000,0.000000,0.000000,0.000000,0.000000;
#CREDIT:TonyAkita;
#DISPLAYBPM:*;
#NOTES:
0000
0000
0000
0000
,
0000
0000
0000
0000
,
0000
0000
0000
0000
,
0000
0000
0000
0000
,
0000
0000
0000
0000
,
0000
0000
0000
2000
,
0000
0000
0001
0000
3000
0000
0100
0010
,
0000
0001
0000
0000
0001
0000
0000
0000
0010
0000
0100
0000
2002
0000
3003
0000
,
1000
0100
0010
0100
1000
0000
1001
0000
,
0001
0100
0010
0100
0001
0000
0010
0100
,
1000
0100
0001
0100
1000
0000
1001
0000
,
0001
0100
1000
0100
0001
0000
0010
0100
,
2000
0000
0010
0000
3010
0000
0100
1000
,
0200
0000
0001
0000
0301
0000
0001
1000
,
0002
0000
0010
0000
0013
0000
0100
0001
,
0200
0000
1000
0000
1300
0100
0001
0100
,
0020
0000
0001
0000
0031
0000
0010
0100
,
2000
0000
0001
0000
3001
0000
0001
0100
,
0020
0000
1000
0000
1030
0000
0010
0100
,
0002
0000
1000
0000
1003
0100
0010
0001
,
0100
0000
1000
0000
0000
0100
0000
0000
0100
0000
0000
0000
0001
0000
0010
0000
,
0100
0000
1000
0000
0000
0001
0000
0000
0001
0000
0000
0000
0001
0000
1000
0000
,
0100
0000
0001
0000
0000
0100
0000
0000
0100
0000
0000
0000
1000
0000
0010
0000
,
0100
0000
0001
0000
0000
0001
0000
0000
0001
0000
0100
0000
1000
0000
0100
0000
,
0001
0000
1000
0000
0000
0010
0000
0000
0010
0000
0000
0000
1000
0000
0100
0000
,
0010
0000
0001
0000
0000
1000
0000
0000
1000
0000
0000
0000
1000
0000
0001
0000
,
0010
0000
1000
0000
0000
0010
0000
0000
0010
0000
0000
0000
0001
0000
0100
0000
,
0010
0000
1000
0000
0000
1000
0000
0000
0001
0000
0010
0000
0100
0000
1000
0000
,
0200
0000
0000
0000
,
0310
0000
0000
0001
0000
1000
0000
0000
1010
0000
0000
0000
0010
0000
M001
0000
,
0010
0000
0000
1000
0000
0001
0000
0000
0011
0000
0000
0000
0010
0000
0100
0000
,
1000
0000
0000
0001
0000
1000
0000
0000
1100
0000
0000
0000
0100
0000
M001
0000
,
0100
0000
0000
1000
0010
0000
0000
1000
0001
0000
0100
0000
1000
0000
0100
0000
,
0001
0000
0000
0010
0000
0100
0000
0000
1100
0000
0000
0000
1000
0000
0100
0000
,
M001
0000
0000
0100
0000
0010
0000
0000
0011
0000
0000
0000
0001
0000
1000
0000
,
0001
0000
0000
0100
0000
0010
0000
0000
1010
0000
0000
0000
1000
0000
0010
0000
,
M001
0000
0000
0010
1000
0000
0000
0001
1000
0000
0100
0000
0010
0000
0001
0000
,
0002
0000
0000
0000
0203
0000
0010
0010
,
0320
0000
0000
0000
2030
0000
0001
0001
,
3001
0000
1000
0000
0000
0100
0000
0000
0001
0000
0000
0100
0000
0000
1000
0000
,
0001
0000
0100
0000
0000
0010
0000
0000
1000
0000
0010
0000
0001
0000
0010
0000
,
2000
0000
0000
0000
3200
0000
0010
0010
,
0320
0000
0000
0000
0032
0000
1000
1000
,
1003
0000
0001
0000
0000
0100
0000
0000
1000
0000
0000
0100
0000
0000
0001
0000
,
1000
0000
0100
0000
0000
0010
0000
0000
0001
0000
0010
0000
0100
0000
1000
0000
,
2000
0000
0001
0000
,
3002
0000
1000
0000
,
1003
1000
0001
0001
,
0010
0010
0100
1000
0001
0100
0010
1000
,
002M
M000
000M
M000
,
1030
0010
0100
0001
0010
0001
0100
0010
,
1000
0100
0010
0001
1000
0010
0100
0001
,
1000
0100
1000
0100
0010
0001
0010
0100
,
1000
0001
0100
0010
1000
0100
0001
0100
,
1000
0100
1000
0100
0010
0001
0010
0100
,
1000
0010
0100
0001
1000
0100
0010
0001
,
0100
0001
0010
0000
0100
1000
0010
0000
,
1000
0010
0100
0001
0010
0100
1000
0001
,
2002
0000
0000
0000
,
3003
0000
0000
0000
;

//---------------dance-single - ----------------
#NOTEDATA:;
#CHARTNAME:;
#STEPSTYPE:dance-single;
#DESCRIPTION:;
#CHARTSTYLE:;
#DIFFICULTY:Easy;
#METER:6;
#RADARVALUES:0.217525,0.322288,0.129734,0.157047,0.000000,223.000000,204.000000,19.000000,23.000000,2.000000,0.000000,0.000000,0.000000,0.000000,0.217525,0.322288,0.129734,0.157047,0.000000,223.000000,204.000000,19.000000,23.000000,2.000000,0.000000,0.000000,0.000000,0.000000;
#CREDIT:TonyAkita;
#DISPLAYBPM:*;
#NOTES:
0000
0000
0000
0000
,
0000
0000
0000
0000
,
0000
0000
0000
0000
,
0000
0000
0000
0000
,
0000
0000
0000
0000
,
0000
0000
0000
2000
,
0000
0001
0000
3001
,
0010
0000
0100
0000
1000
1000
2000
0000
,
3001
0010
0100
1000
,
0010
0100
0010
1000
,
0001
0100
1000
0100
,
0001
0010
0100
1000
,
2000
0010
0010
3010
,
0200
0010
0310
1000
,
0002
0010
0010
0013
,
0100
0000
0001
0000
0100
1000
0100
0000
,
2000
0100
0100
3100
,
0020
0100
0130
1000
,
0002
0100
0100
0103
,
1000
0000
0100
0000
0001
0100
0001
0000
,
0101
0001
0010
0100
,
1000
0100
0001
0100
,
1000
0010
1000
0100
,
0010
0000
0001
0000
1000
0100
1000
0000
,
1100
1000
0010
0100
,
0001
0100
1000
0100
,
0001
0010
0001
0100
,
0010
0000
1000
0000
0001
1000
0001
0000
,
2002
0000
0000
0000
,
3003
0000
1000
0010
1000
0000
1010
0000
,
1100
0000
0100
M001
0100
0000
1100
0000
,
0101
0000
0001
0100
0001
0000
0101
0000
,
0011
0000
0010
0000
0100
1000
0100
0000
,
1001
0000
0001
0010
0001
0000
0011
0000
,
0101
0000
0100
100M
0100
0000
0101
0000
,
1100
0000
1000
0100
1000
0000
1100
0000
,
1010
0000
0010
0000
0100
0001
0100
0000
,
0002
0000
0023
0000
,
0230
0000
2300
0000
,
3100
0001
0100
1000
,
0001
0000
0100
0000
0010
1000
0010
0000
,
2000
0000
3200
0000
,
0320
0000
0032
0000
,
0103
1000
0100
0001
,
1000
0000
0100
0000
0010
0001
0010
0000
,
0012
0000
0000
0000
,
2003
0000
0000
0000
,
3010
0000
1001
0000
,
0001
0000
0100
0000
0010
0100
0010
0100
,
0020
0000
0000
0000
,
1030
0010
0100
0001
,
0010
0001
0100
0010
,
1000
0010
1000
0100
,
0001
0100
1000
0001
,
0100
0010
1000
0010
,
0100
0001
0010
0001
,
0100
0010
0100
0000
0001
1000
0001
0000
,
1000
0100
0010
0001
,
2002
0000
0000
0000
,
3003
0000
0000
0000
;

//---------------dance-single - ----------------
#NOTEDATA:;
#CHARTNAME:;
#STEPSTYPE:dance-single;
#DESCRIPTION:;
#CHARTSTYLE:;
#DIFFICULTY:Beginner;
#METER:2;
#RADARVALUES:0.096569,0.141001,0.027313,0.109250,0.000000,99.000000,95.000000,4.000000,16.000000,0.000000,0.000000,0.000000,0.000000,0.000000,0.096569,0.141001,0.027313,0.109250,0.000000,99.000000,95.000000,4.000000,16.000000,0.000000,0.000000,0.000000,0.000000,0.000000;
#CREDIT:TonyAkita;
#DISPLAYBPM:*;
#NOTES:
// measure 0
0000
0000
0000
0000
,  // measure 1
0000
0000
0000
0000
,  // measure 2
0000
0000
0000
0000
,  // measure 3
0000
0000
0000
0000
,  // measure 4
0000
0000
0000
0000
,  // measure 5
0000
0000
0000
2000
,  // measure 6
0000
0000
3000
1000
,  // measure 7
0000
0001
0000
2002
,  // measure 8
3003
0000
1000
0000
,  // measure 9
0100
0000
0010
0000
,  // measure 10
0001
0000
0100
0000
,  // measure 11
1000
0000
0100
0000
,  // measure 12
0002
0000
0003
0000
,  // measure 13
2000
0000
3000
0000
,  // measure 14
0020
0000
0030
0000
,  // measure 15
0100
0000
0001
0001
,  // measure 16
0002
0000
0003
0000
,  // measure 17
0020
0000
0030
0000
,  // measure 18
0200
0000
0300
0000
,  // measure 19
1000
0000
0010
0010
,  // measure 20
0010
0000
0000
0000
,  // measure 21
1001
0000
0000
0000
,  // measure 22
0100
0000
0000
0000
,  // measure 23
0001
0000
1000
1000
,  // measure 24
1000
0000
0000
0000
,  // measure 25
0110
0000
0000
0000
,  // measure 26
0001
0000
0000
0000
,  // measure 27
0100
0000
0010
0010
,  // measure 28
0020
0000
0000
0000
,  // measure 29
0030
0000
1000
0000
,  // measure 30
0010
0000
0001
0000
,  // measure 31
0100
0000
1000
0000
,  // measure 32
0100
0000
0010
0010
,  // measure 33
0010
0000
0001
0000
,  // measure 34
0010
0000
1000
0000
,  // measure 35
0100
0000
0001
0000
,  // measure 36
0100
0000
0010
0010
,  // measure 37
0020
0000
0030
0000
,  // measure 38
0200
0000
0300
0000
,  // measure 39
0001
0000
0100
0000
,  // measure 40
1000
0000
0100
0100
,  // measure 41
0200
0000
0300
0000
,  // measure 42
0020
0000
0030
0000
,  // measure 43
0001
0000
0010
0000
,  // measure 44
1000
0000
0010
0010
,  // measure 45
0010
0000
0000
0000
,  // measure 46
1001
0000
0000
0000
,  // measure 47
1000
0000
1000
0000
,  // measure 48
0001
0001
0001
0001
,  // measure 49
0002
0000
0000
0000
,  // measure 50
0003
0000
0100
0000
,  // measure 51
0010
0000
1000
0000
,  // measure 52
0010
0000
0100
0000
,  // measure 53
0001
0000
1000
1000
,  // measure 54
1000
0000
0100
0000
,  // measure 55
0010
0000
0001
0000
,  // measure 56
0010
0000
0100
0000
,  // measure 57
1000
1000
1000
1000
,  // measure 58
2000
0000
0000
0000
,  // measure 59
3000
0000
0000
0000
;
