#TITLE:Cyclone Strait;
#SUBTITLE:;
#ARTIST:HyeNRG;
#TITLETRANSLIT:;
#SUBTITLETRANSLIT:;
#ARTISTTRANSLIT:;
#GENRE:;
#CREDIT:;
#BANNER:;
#BACKGROUND:;
#LYRICSPATH:;
#CDTITLE:;
#MUSIC:cyclonestrait.mp3;
#OFFSET:-1.688600;
#SAMPLESTART:71.386185;
#SAMPLELENGTH:15.000000;
#SELECTABLE:YES;
#BPMS:0.000000=150.000000
;
#STOPS:172.000000=1.200000
;
#BGCHANGES:;
#KEYSOUNDS:;
#ATTACKS:;

//---------------dance-single - ----------------
#NOTES:
     dance-single:
     :
     Hard:
     13:
     0.653207,0.711242,0.369077,0.266555,0.560450,669.000000,615.000000,54.000000,39.000000,4.000000,0.000000,0.653207,0.711242,0.369077,0.266555,0.560450,669.000000,615.000000,54.000000,39.000000,4.000000,0.000000:
0000
0000
0000
0000
,
0000
0000
0000
0000
,
0000
0000
0000
0000
,
0000
0000
0000
0000
,
1000
0000
0001
0000
0010
0000
0001
0000
1000
0100
1000
0000
0010
0000
0100
0000
,
0001
0000
1000
0000
0100
0000
1000
0000
0001
0010
0001
0000
0100
0000
0010
0000
,
1000
0000
0010
0000
0100
0000
0001
0000
0010
0100
0010
0000
0001
0000
1000
0000
,
0001
0000
0100
0000
0010
0000
1000
0000
0010
0100
0010
0000
1000
0000
0001
0000
,
0200
0000
0000
1000
0000
0000
1000
0000
2300
0000
0000
0010
0000
0000
0010
0000
,
3020
0000
0000
0001
0000
0000
0001
0000
0032
0000
0000
1000
0000
0000
1003
0000
,
1000
1010
0001
0011
,
1001
0000
1010
0000
0010
0100
0010
0100
,
0020
0000
0000
0000
1000
0000
0000
0000
2030
0000
0000
0100
0000
0000
0100
0000
,
3200
0000
0000
0010
0000
0000
0010
0000
0320
0000
0000
0001
0000
0000
0001
0000
,
0031
0000
1000
0000
0010
0000
0000
0000
0020
0000
0000
0001
0000
0000
0001
0000
,
0032
0000
0000
0100
0000
0000
0100
0000
0203
0000
0000
1000
0000
0000
1000
0000
,
1300
0000
0010
0000
0100
0000
0000
0000
0002
0000
0000
0010
0000
0000
0010
0000
,
0023
0000
0000
0100
0000
0000
0100
0000
0230
0000
0000
1000
0000
0000
1000
0000
,
1300
0000
0001
0000
0100
0000
0000
0000
0200
0000
0000
1000
0000
0000
1000
0000
,
2300
0000
0000
0010
0000
0000
0010
0000
3020
0000
0000
0001
0000
0000
0001
0000
,
0031
0000
1000
0000
0010
0000
0100
0000
0010
0000
0000
1010
0000
0000
1001
0000
,
0001
0000
0000
0011
0000
0000
1001
0000
1000
0000
0000
1010
0000
0000
0110
0000
,
0001
0000
0010
0000
0100
0000
0010
0000
0001
0000
0000
0011
0000
0000
0101
0000
,
1000
0000
0000
1010
0000
0000
1100
0000
0001
0000
0000
0011
0000
0000
0110
0000
,
1000
0000
0100
0000
0010
0000
0100
0000
1000
0000
0000
1100
0000
0000
0101
0000
,
1000
0000
0000
1010
0000
0000
0011
0000
1000
0000
0000
1100
0000
0000
0101
0000
,
0100
0000
0001
0000
1000
0000
0001
0000
0010
0000
0000
0011
0000
0000
0110
0000
,
1000
0000
0000
1010
0000
0000
0110
0000
0001
0000
0000
0011
0000
0000
1001
0000
,
1000
0000
0010
0000
0100
0000
0001
0000
2000
0000
0000
0010
0000
0000
3010
0000
,
2000
0000
0000
0001
0000
0000
3001
0000
0010
0000
0000
0100
0000
0000
1000
0000
,
1001
0000
0001
0000
0100
0000
0010
0000
0200
0000
0000
0001
0000
0000
0301
0000
,
0200
0000
0000
1000
0000
0000
1300
0000
0100
0000
0000
0001
0000
0000
1000
0000
,
1001
0000
0001
0000
0010
0000
0100
0000
1000
0010
0000
0010
0000
0000
0100
0000
,
0101
0000
0001
0000
0010
0000
0001
0000
0100
0010
0000
0010
0000
0000
1000
0000
,
1010
0000
0010
0000
0100
0000
0001
0000
1000
0100
0000
0100
0000
0000
0010
0000
,
0011
0000
0001
0000
0100
0000
0001
0000
0010
0100
0000
0100
0000
0000
1000
0000
,
1001
0001
0100
0001
1001
0001
0010
0001
,
1001
1000
0100
1000
1001
1000
0010
1000
,
0001
0001
1000
1000
0010
0010
0100
0100
,
0001
0001
0100
0100
1000
1000
0100
0100
,
0001
1000
0001
1000
0001
1000
0001
1000
0010
0100
0010
0100
0010
0100
0010
0400
,
0040
0000
0000
0330
,
2002
0000
0000
0000
0000
0000
0000
3003
,
MMMM
0000
0000
0000
1000
0000
0100
0000
0010
0001
0010
0000
0100
1000
0000
0001
,
0100
0000
0100
0000
0010
1000
0000
0001
0010
0000
0010
0000
0100
1000
0000
0001
,
0100
0000
0100
0000
0010
0000
1000
0000
0001
0100
0001
0000
1000
0100
0000
0010
,
0100
0000
0100
0000
1000
0100
0000
0010
0001
0000
0001
0000
0100
0010
0000
0100
,
0001
0000
0001
0000
1000
0000
0010
0000
0100
0001
0100
0000
0010
1000
0000
0001
,
0010
0000
0010
0000
0100
1000
0000
0001
0100
0000
0100
0000
0010
1000
0000
0001
,
0010
0000
0010
0000
0100
0000
1000
0000
0001
0000
1000
0000
2000
0000
0000
0010
,
0000
0000
3010
0000
0020
0000
0000
0100
0000
0000
0100
0000
0230
0000
0000
0001
,
0000
0000
0301
0000
0001
0000
1000
0000
0010
0100
0010
0000
0100
0001
0000
0100
,
1000
0000
0100
0000
0010
0001
0000
0010
1000
0000
0010
0000
0100
0001
0000
1000
,
0100
0000
0100
0000
0010
0000
0001
0000
1000
0001
1000
0000
0010
0100
0000
0100
,
0001
0000
0001
0000
0010
0100
0000
0100
1000
0000
1000
0000
0001
0100
0000
0010
,
1000
0000
1000
0000
0001
0000
0010
0000
0100
1000
0100
0000
0010
0001
0000
0010
,
1000
0000
0010
0000
0100
1000
0000
0100
0001
0000
0100
0000
0010
0001
0000
1000
,
0010
0000
0010
0000
0100
0000
0001
0000
1000
0001
1000
0000
1100
0000
0000
1001
,
0000
0000
0001
0000
0011
0000
0000
1001
0000
0000
1000
0000
1010
0000
0000
1001
,
0000
0000
0001
0000
0010
0001
0010
0001
0100
0000
0100
0000
0010
1000
0000
1000
,
0100
0000
0100
0000
0010
0001
0000
0001
0100
0000
0100
0000
0001
0100
0000
0010
,
1000
0000
1000
0000
0100
1000
0100
1000
0001
0000
0001
0000
0010
0100
0000
0100
,
1000
0000
1000
0000
0010
0100
0000
0100
0001
0000
0001
0000
1000
0100
0000
0010
,
0001
0000
0001
0000
1001
0000
0000
0000
1000
0000
0010
0000
0200
0000
0000
0001
,
0000
0000
0001
0000
0302
0000
0000
0010
0000
0000
0010
0000
0023
0000
0000
0100
,
0000
0000
0130
0000
0110
0000
0000
0000
1000
0000
0001
0000
2000
0000
0000
0010
,
0000
0000
3010
0000
2000
0000
0000
0001
0000
0000
3001
0000
1010
0000
0000
0011
,
0000
0000
1001
0000
1000
0000
0100
0000
0010
0000
0001
0000
1000
0010
1000
0010
,
0000
0100
0001
0000
1000
0100
1000
0100
0000
0010
0001
0000
1000
0001
1000
0001
,
0000
0010
0100
0000
1000
0000
1000
0000
0010
0000
0100
0000
0001
0100
0001
0100
,
0000
0010
1000
0000
0001
0010
0001
0010
0000
0100
1000
0000
0001
1000
0001
1000
,
0000
0100
0010
0000
0001
0000
0001
0000
0100
0000
0010
0000
1000
0010
1000
0010
,
0000
0100
0001
0000
1000
0100
1000
0100
0000
0010
0001
0000
1000
0001
1000
0001
,
0000
0010
0100
0000
2000
0000
0000
0010
0000
0000
0010
3000
0020
0000
0000
0100
,
0000
0000
0100
0000
0230
0000
0000
0001
0000
0000
0001
0000
0302
0000
0000
1000
,
0000
0000
1000
0000
1003
0000
0010
0000
0100
0000
0001
0000
1000
0100
1000
0000
,
0001
0000
0100
0000
0010
0000
1000
0000
0010
0000
0001
0000
0010
1000
0010
0000
,
0100
0000
0001
0000
1000
0000
0100
0000
0010
0000
0001
0000
1000
0010
1000
0000
,
0001
0000
0010
0000
0100
0000
1000
0000
0100
0000
0001
0000
0100
1000
0100
0000
,
0010
0000
0010
0000
0020
0000
0000
0001
0000
0000
0001
0000
0032
0000
0000
1000
,
0000
0000
1000
0000
2003
0000
0000
0010
0000
0000
0010
0000
3020
0000
0000
0100
,
0000
0100
0130
0000
0101
0000
1000
0000
,
1100
0000
1001
0000
0110
0000
0001
1000
,
0001
1000
1001
0000
0000
0000
0000
0000
;

//---------------dance-single - ----------------
#NOTES:
     dance-single:
     :
     Medium:
     7:
     0.386652,0.398295,0.198208,0.177704,0.109356,396.000000,367.000000,29.000000,26.000000,4.000000,0.000000,0.386652,0.398295,0.198208,0.177704,0.109356,396.000000,367.000000,29.000000,26.000000,4.000000,0.000000:
0000
0000
0000
0000
,
0000
0000
0000
0000
,
0000
0000
0000
0000
,
0000
0000
0000
0000
,
1000
0000
0001
0000
1000
0010
1000
0000
,
0001
0100
0001
0000
0001
0010
0001
0000
,
0010
0000
0100
0000
1000
0100
1000
0000
,
1000
0010
1000
0000
0001
1000
0001
0000
,
1002
0010
0000
0010
,
0000
0000
0010
0000
0003
0000
0010
0100
,
2000
0010
0000
3010
,
0000
1000
1010
0011
,
2001
0000
0000
0000
0000
0000
0000
0000
0001
0000
0000
0001
0000
0000
0000
0000
,
0010
0000
0000
0010
0000
0000
0000
0000
0001
0000
0000
0001
0000
0000
3000
0000
,
0002
0000
0000
0000
0000
0000
0000
0000
1000
0000
0000
1000
0000
0000
0000
0000
,
0010
0000
0000
0010
0000
0000
0000
0000
1000
0000
0000
1000
0000
0000
0003
0000
,
0200
0000
0000
0000
0000
0000
0000
0000
0010
0000
0000
0010
0000
0000
0000
0000
,
1000
0000
0000
1000
0000
0000
0000
0000
0010
0000
0000
0010
0000
0000
0300
0000
,
0020
0000
0000
0000
0000
0000
0000
0000
1000
0000
0000
1000
0000
0000
0000
0000
,
0001
0000
0000
0001
0000
0000
0000
0000
1000
0000
0000
1000
0000
0000
0030
0000
,
0001
0000
0001
0000
0010
0100
1000
0000
,
0001
0100
1000
0000
1000
0100
0001
0000
,
1000
0000
1000
0000
0100
0010
0001
0000
,
1000
0010
0001
0000
0001
0010
1000
0000
,
0010
0000
0010
0000
0100
0001
1000
0000
,
0100
0010
0001
0000
0001
0010
0100
0000
,
0010
0000
0010
0000
0100
1000
0001
0000
,
1000
0100
0010
0000
0010
0100
1000
0000
,
1100
0000
0001
0000
0001
0010
0001
0000
,
0001
0100
0001
0000
0010
0100
1000
0000
,
1010
0000
0001
0000
1000
0010
1000
0000
,
1000
0100
1000
0000
0010
0100
0001
0000
,
0101
0000
1000
0000
0100
0010
0001
0000
,
0011
0000
1000
0000
0010
0100
0001
0000
,
1010
0000
0001
0000
0010
0100
1000
0000
,
1100
0000
0001
0000
0100
0010
1000
0000
,
0101
0000
1100
0000
,
0011
0000
1010
0000
,
0001
0001
1000
1000
,
0100
0001
0100
1000
,
0100
0100
0100
0000
0010
0010
0010
0000
,
0020
0000
0000
0030
,
2002
0000
0000
3003
,
MMMM
0000
0000
0000
1000
0000
0100
0000
0010
0000
0000
0000
0002
0000
0000
1000
,
0000
0000
1000
0000
2003
0000
0000
0001
0000
0000
0001
0000
3001
0000
0000
0100
,
0000
0000
0010
0000
1000
0000
0001
0000
1000
0000
0000
0000
0200
0000
0000
0010
,
0000
0000
0010
0000
0320
0000
0000
0001
0000
0000
0001
0000
0031
0000
0000
1000
,
0000
0000
1000
0000
0001
0000
0100
0000
0010
0000
0000
0000
2000
0000
0000
0001
,
0000
0000
0001
0000
3002
0000
0000
1000
0000
0000
1000
0000
1003
0000
0000
0100
,
0000
0010
0001
1000
0001
0000
1000
0000
,
1010
0001
0011
0010
,
1001
0000
0000
0000
1000
0000
0100
0000
0001
0000
0000
0000
0200
0000
0000
1000
,
0000
0000
1000
0000
2300
0000
0000
0001
0000
0000
0001
0000
3001
0000
0000
0100
,
0000
0000
0010
0000
1000
0000
0001
0000
0010
0000
0000
0000
0200
0000
0000
1000
,
0000
0000
1000
0000
2300
0000
0000
0010
0000
0000
0010
0000
3010
0000
0000
0100
,
0000
0000
0001
0000
0001
0000
0010
0000
1000
0000
0000
0000
0020
0000
0000
0001
,
0000
0000
0001
0000
0032
0000
0000
1000
0000
0000
1000
0000
1003
0000
0000
0010
,
0000
0100
0001
1000
0100
0000
0010
0000
,
0011
1000
1010
0010
,
1001
0000
0001
0100
0010
0100
0001
0000
,
0001
0100
1000
0000
1000
0100
0001
0000
,
0010
0100
1000
0001
0100
0010
1000
0000
,
1000
0010
0001
0000
0001
0010
1000
0000
,
0001
0010
0200
0000
1000
0000
0000
0000
,
1300
0000
0000
0000
0001
0000
0000
0001
0000
0000
0001
0000
1000
0000
0000
1000
,
0000
1000
0020
0000
0100
0000
0000
0000
,
0130
0001
1000
0011
,
1010
0000
0001
0010
0100
0000
1000
0000
,
0100
0001
0100
1000
,
0010
0000
1000
0100
0010
0000
0001
0000
,
0010
1000
0010
0001
,
0100
0000
0010
1000
0100
0000
1000
0000
,
0010
0100
0001
0010
,
0001
2000
0010
0000
,
3010
0000
1010
0000
,
0011
0000
1000
0000
0001
0000
1000
0010
,
1000
0000
0001
0100
0001
0000
0001
0010
,
0001
0000
0010
0000
0100
0000
1000
0100
,
1000
0000
1000
0010
1000
0000
0001
1000
,
0001
2001
0010
0000
,
0010
0000
0010
3000
,
0010
0100
0002
0000
0010
0000
0000
0000
,
0013
0000
0001
0011
,
1010
1001
0000
0000
;

//---------------dance-single - ----------------
#NOTES:
     dance-single:
     :
     Easy:
     5:
     0.202113,0.284497,0.150365,0.116191,0.000000,207.000000,185.000000,22.000000,17.000000,0.000000,0.000000,0.202113,0.284497,0.150365,0.116191,0.000000,207.000000,185.000000,22.000000,17.000000,0.000000,0.000000:
0000
0000
0000
0000
,
0000
0000
0000
0000
,
0000
0000
0000
0000
,
0000
0000
0000
0000
,
0000
0001
0000
0001
,
0000
0100
0010
1000
,
0000
1000
0000
1000
,
0000
0100
0010
0001
,
0002
0000
0000
0000
,
0000
0000
0000
0003
,
0011
0000
0000
1010
,
0000
0000
0001
1000
,
2001
0000
0000
3000
,
0010
0000
0001
0000
,
0020
0000
0000
0030
,
0100
0000
0001
0000
,
0002
0000
0000
0003
,
0010
0000
1000
0000
,
0020
0000
0000
0030
,
0100
0000
1000
0000
,
0001
0001
0001
0000
,
0100
0000
1000
0000
,
0100
0100
0100
0000
,
0010
0000
1000
0000
,
1000
1000
1000
0000
,
0100
0000
0001
0000
,
0100
0100
0100
0000
,
0010
0000
0001
0000
,
0011
0000
1000
1000
,
0001
0000
1000
0010
,
1010
0000
0001
0001
,
1000
0000
0001
0010
,
0011
0000
1000
0100
,
1100
0000
0001
0100
,
0101
0000
1000
0010
,
1010
0000
0001
0010
,
0011
0000
0101
0000
,
1010
0000
1100
0000
,
0001
0001
0100
0100
,
0010
0010
1000
1000
,
2000
0000
0001
0000
,
0002
0000
0000
3003
,
0220
0000
0000
0000
,
0330
1000
0100
0010
,
0001
1000
0000
1000
,
0000
0001
0100
0010
,
1000
0001
0000
0001
,
0000
0010
0100
1000
,
0001
0100
0000
0100
,
0000
0020
0000
0000
,
0030
0010
0000
1001
,
0000
0001
0100
1000
,
0100
0001
0000
0001
,
0000
1000
0100
0001
,
0010
1000
0000
1000
,
0000
0001
0010
1000
,
0010
0001
0000
0001
,
0000
1000
0010
0001
,
0100
1000
0000
1001
,
0000
0001
0010
0100
,
1000
0001
0100
1000
,
0100
0001
0100
0010
,
1000
0001
0010
1000
,
0010
0002
0000
0000
,
0003
0001
0000
0001
,
0000
2000
0000
0000
,
3000
1000
0000
1001
,
0000
0001
0001
0100
,
0000
0001
0000
0010
,
0000
0100
1000
0100
,
0000
0001
0000
0100
,
0000
1000
1000
0010
,
0000
1000
0000
0100
,
0000
0220
0000
0000
,
0000
0000
0000
0000
,
0330
0000
0001
0000
,
0001
0000
0100
0010
,
1000
0000
1000
0000
,
1000
0000
0100
0010
,
0001
0002
0000
0000
,
0000
0000
0000
0003
,
0000
0011
0000
0000
,
1010
0000
0000
1001
,
0220
0330
0000
0000
;

//---------------dance-single - ----------------
#NOTES:
     dance-single:
     :
     Beginner:
     4:
     0.144506,0.255278,0.123026,0.116191,0.000000,148.000000,130.000000,18.000000,17.000000,0.000000,0.000000,0.144506,0.255278,0.123026,0.116191,0.000000,148.000000,130.000000,18.000000,17.000000,0.000000,0.000000:
// measure 0
0000
0000
0000
0000
,  // measure 1
0000
0000
0000
0000
,  // measure 2
0000
0000
0000
0000
,  // measure 3
0000
0000
0000
0000
,  // measure 4
0000
0001
0000
0001
,  // measure 5
0000
1000
0000
1000
,  // measure 6
0000
0010
0000
0010
,  // measure 7
0000
0100
0000
0100
,  // measure 8
0200
0000
0000
0000
,  // measure 9
0000
0000
0300
0000
,  // measure 10
0110
0000
0000
1001
,  // measure 11
0000
0000
0001
0001
,  // measure 12
0002
0000
0000
0003
,  // measure 13
0000
0000
0000
0000
,  // measure 14
2000
0000
0000
3000
,  // measure 15
0000
0000
0000
0000
,  // measure 16
0200
0000
0000
0300
,  // measure 17
0000
0000
0000
0000
,  // measure 18
0020
0000
0000
0030
,  // measure 19
0000
0000
0000
0000
,  // measure 20
0001
0000
0001
0000
,  // measure 21
0100
0000
0010
0000
,  // measure 22
1000
0000
1000
0000
,  // measure 23
0100
0000
0010
0000
,  // measure 24
0001
0000
0001
0000
,  // measure 25
0010
0000
0100
0000
,  // measure 26
1000
0000
1000
0000
,  // measure 27
0010
0000
0100
0000
,  // measure 28
1001
0000
0000
0000
,  // measure 29
0010
0000
0100
0000
,  // measure 30
0110
0000
0000
0000
,  // measure 31
1000
0000
0001
0000
,  // measure 32
1001
0000
0000
0000
,  // measure 33
0110
0000
0000
0000
,  // measure 34
1001
0000
0000
0000
,  // measure 35
0110
0000
0000
0000
,  // measure 36
1000
0000
1000
0000
,  // measure 37
0001
0000
0001
0000
,  // measure 38
0100
0100
0100
0100
,  // measure 39
0100
0100
0100
0100
,  // measure 40
0200
0000
0300
0000
,  // measure 41
0020
0000
0030
0000
,  // measure 42
2002
0000
0000
0000
,  // measure 43
3003
1000
0000
0010
,  // measure 44
0000
0001
0000
0010
,  // measure 45
0000
1000
0000
0100
,  // measure 46
0000
0001
0000
0100
,  // measure 47
0000
1000
0000
0010
,  // measure 48
0000
0100
0000
0001
,  // measure 49
0000
2002
0000
0000
,  // measure 50
0000
3003
0000
0110
,  // measure 51
0000
0001
0000
0100
,  // measure 52
0000
1000
0000
0010
,  // measure 53
0000
1000
0000
0100
,  // measure 54
0000
0001
0000
0010
,  // measure 55
0000
0100
0000
1000
,  // measure 56
0000
0001
0000
1000
,  // measure 57
0000
0010
0000
0100
,  // measure 58
0000
0010
0000
1001
,  // measure 59
0000
1000
1000
1000
,  // measure 60
0000
0100
0000
0010
,  // measure 61
0000
0001
0001
0001
,  // measure 62
0000
0100
0000
0010
,  // measure 63
0000
2000
0000
3000
,  // measure 64
0000
1000
0000
0001
,  // measure 65
0000
2002
0000
3003
,  // measure 66
0000
1001
0000
0110
,  // measure 67
0000
0001
0000
0100
,  // measure 68
0000
1000
0000
0100
,  // measure 69
0000
0001
0000
0010
,  // measure 70
0000
1000
0000
0010
,  // measure 71
0000
0001
0000
0100
,  // measure 72
0000
0010
0000
1000
,  // measure 73
0000
2002
0000
0000
,  // measure 74
0000
0000
0000
3003
,  // measure 75
0000
0000
0001
0000
,  // measure 76
0001
0000
0100
0000
,  // measure 77
0100
0000
0010
0000
,  // measure 78
0010
0000
1000
0000
,  // measure 79
1000
2000
0000
0000
,  // measure 80
0000
0000
0000
3000
,  // measure 81
0000
1001
0000
0000
,  // measure 82
0110
0000
0000
0010
,  // measure 83
0010
0000
0000
0000
;
