#TITLE:Cycling!;
#SUBTITLE:;
#ARTIST:Yamajet (feat. あまね);
#TITLETRANSLIT:Cycling!;
#SUBTITLETRANSLIT:;
#ARTISTTRANSLIT:Yamajet (feat. Amane);
#GENRE:;
#CREDIT:Z-I-v Battle Royale 2020;
#MUSIC:Cycling!.ogg;
#BANNER:Cycling!.png;
#BACKGROUND:Cycling!-bg.png;
#CDTITLE:;
#SAMPLESTART:44.492;
#SAMPLELENGTH:21.818;
#SELECTABLE:YES;
#OFFSET:-0.037;
#BPMS:0.000=220.000;
#STOPS:;
#BGCHANGES:;
#FGCHANGES:;

//--------------- dance-single - DJSuperNOVA ----------------
#NOTES:
     dance-single:
     DJSuperNOVA:
     Beginner:
     4:
     0,0,0,0,0:
0000
0000
0000
0000
,
0000
0000
0000
0000
,
0000
0000
0000
0000
,
0000
0000
0000
0000
,
0000
0000
0000
0000
,
1000
0000
0000
0000
,
1000
0000
0000
0000
,
0001
0000
0000
0000
,
0001
0000
0000
0000
,
0020
0000
0000
0000
,
0030
0000
0000
0000
,
0200
0000
0000
0000
,
0300
0000
0000
0000
,
0020
0000
0000
0000
,
0030
0000
0000
0000
,
1001
0000
0000
0000
,
0000
0000
0000
0000
,
1000
0000
1000
0000
,
1000
0000
0000
0000
,
0001
0000
0001
0000
,
0001
0000
0000
0000
,
1000
0000
0001
0000
,
1000
0000
0000
0000
,
0001
0000
1000
0000
,
0001
0000
0000
0000
,
0010
0000
0010
0000
,
0010
0000
0000
0000
,
0100
0000
0100
0000
,
0100
0000
0000
0000
,
0010
0000
0100
0000
,
0010
0000
0000
0000
,
0100
0000
0010
0000
,
0100
0000
0000
0000
,
1000
0000
0000
0000
,
0001
0000
0000
0000
,
0100
0000
0000
0000
,
0010
0000
0000
0000
,
1001
0000
0000
0000
,
1000
0000
0000
0000
0000
0000
0000
0001
,
0000
0000
0000
0000
,
0010
0010
0010
0000
,
1001
0000
0100
0000
,
1000
0000
0000
0000
,
1000
0000
0100
0000
,
0001
0000
0001
0000
,
1000
0000
0010
0000
,
0001
0000
0000
0000
,
0001
0000
0010
0000
,
1000
0000
1000
0000
,
0001
0000
0100
0000
,
0001
0000
0000
0000
,
1000
0000
0100
0000
,
1000
0000
1000
0000
,
0001
0000
1000
0000
,
0001
0000
0000
0000
,
1000
0000
0001
0000
,
1000
0000
0000
0000
,
1001
0000
0100
0000
,
0000
0000
0100
0000
,
0000
0000
0010
0000
,
0000
0000
0010
0000
,
0000
0000
1000
0000
,
0000
0000
1000
0000
,
0001
0000
0000
0001
,
0000
0000
0001
0000
,
1000
0000
1000
0000
,
1000
1000
1000
0000
,
0001
0000
0001
0000
,
0001
0001
0001
0000
,
0100
0000
0100
0000
,
0100
0100
0100
0000
,
0010
0000
0010
0000
,
0010
0010
0010
0000
,
1000
0000
0001
0000
,
1000
1000
1000
0000
,
0001
0000
1000
0000
,
0001
0001
0001
0000
,
1000
0000
0100
0000
,
0001
0000
0100
0000
,
1000
0000
0001
0000
,
0100
0100
0100
0000
,
2002
0000
0000
0000
,
0000
0000
0000
0000
,
3003
0000
0000
0000
0000
0000
0000
1001
,
0000
0000
0100
0000
,
1000
0000
0100
0000
,
0001
0000
0000
0000
,
0001
0000
0010
0000
,
1000
0000
1000
0000
,
0001
0000
0100
0000
,
0001
0000
0000
0000
,
1000
0000
0100
0000
,
0001
0000
0100
0000
,
1000
0000
1000
0000
,
0001
0000
0000
0000
,
0001
0000
0001
0000
,
1000
0000
0000
0000
,
1001
0000
0100
0000
,
0000
0000
0100
0000
,
0000
0000
0010
0000
,
0000
0000
0010
0000
,
0000
0000
1000
0000
,
0000
0000
1000
0000
,
0001
0000
0000
0000
,
0001
0000
0000
0000
,
1000
0000
0001
0000
,
0000
0000
0001
0000
,
0000
0000
1000
0000
,
0000
0000
1000
0000
,
0000
0000
0010
0000
,
0000
0000
0100
0000
,
1001
0000
0000
0000
;

//--------------- dance-single - DJSuperNOVA ----------------
#NOTES:
     dance-single:
     DJSuperNOVA:
     Easy:
     8:
     0,0,0,0,0:
0000
0000
0000
0000
,
0000
0000
0000
0000
,
0000
0000
0000
0000
,
0000
0000
0000
0000
,
0000
0000
0000
0000
,
1000
0000
1000
0000
,
0001
0000
0001
0000
,
1000
0000
0001
0000
,
1000
0000
0001
0000
,
0200
0000
0010
0000
,
0000
0000
0310
0000
,
0020
0000
0100
0000
,
0000
0000
0130
0000
,
2000
0000
0001
0000
,
0000
0000
3001
0000
,
1001
0000
0000
1000
0000
1000
0000
0001
,
0000
0001
0000
0000
1001
0000
0000
0000
,
1000
0100
0001
0100
,
1000
1000
0001
0001
,
1000
0010
0001
0010
,
1000
1000
0001
0001
,
1001
0100
0001
0010
,
0001
0100
0010
0100
,
0010
1000
0100
1000
,
0010
0001
0010
1000
,
1001
0010
1000
0100
,
0010
0010
0100
0100
,
0001
0010
0001
0100
,
0010
0010
0100
0100
,
1000
0001
0100
0001
,
1000
1000
0001
0001
,
1000
0100
1000
0001
,
0100
1000
0100
0001
,
1000
0100
1000
0000
,
0001
0100
0001
0000
,
1000
0010
1000
0000
,
0001
0010
0001
0000
,
1000
1000
0001
0001
,
0100
0000
0010
0000
0100
0000
0000
0110
,
0000
0010
0010
0010
,
1000
0001
1000
0001
,
1001
1000
0100
1000
,
0001
0001
1000
1000
,
0010
0100
0001
0001
,
0100
0010
1000
1000
,
1001
0001
0100
0001
,
1000
1000
0010
0010
,
0100
0001
0100
1000
,
0100
0100
0010
0010
,
0110
0001
1000
0001
,
1000
1000
0001
0001
,
1000
0100
1000
0010
,
0001
0001
1000
1000
,
1001
1000
0010
1000
,
0100
0100
0001
0001
,
1000
0010
1000
0001
,
0100
0001
1000
0001
,
1001
0000
0100
0000
,
0000
0000
0100
0000
,
1000
0000
0010
0000
,
0000
0000
0010
1000
,
0001
0000
1000
0000
,
0000
0000
1000
0000
,
0010
0000
0000
0001
0000
0000
0100
0000
,
0000
1000
0000
0000
0001
0000
0000
0000
,
1000
1000
0001
0001
,
1000
0001
1000
0001
,
0100
0100
0010
0010
,
0100
0010
0100
0010
,
1000
1000
0010
0010
,
0100
0001
0100
0001
,
0100
0100
0001
0001
,
1000
0100
1000
0100
,
1100
1000
0001
0001
,
0100
0001
0100
0001
,
1000
1000
0100
0100
,
0010
0001
0010
0001
,
1001
0100
1000
0100
,
0001
0100
1000
0010
,
1001
0000
1100
0000
,
0011
0101
1001
0101
,
2002
0000
0000
0000
,
0000
0000
0000
0000
,
3003
0000
0000
0000
0110
0000
0000
1001
,
0000
1000
0100
0001
,
1001
1000
0100
0001
,
1000
1000
0100
0100
,
0010
0001
0010
1000
,
0010
0010
0100
0100
,
0110
0001
1000
0001
,
1000
1000
0001
0001
,
1000
0000
0010
0000
1000
0000
0001
1000
,
0000
0001
1000
0100
,
1001
0001
0100
1000
,
0010
0010
0001
0001
,
1000
0100
1000
0001
,
0010
0001
1000
0001
,
1001
0000
0100
0000
,
0000
0000
0100
0000
,
1000
0000
0001
0000
,
0000
0000
0001
1000
,
0100
0000
0010
0000
,
0000
0000
0010
0000
,
0001
0000
0000
0100
0000
0000
1000
0000
,
0000
0010
0000
0000
0001
0000
0000
0000
,
2000
0000
0100
0000
,
0000
0000
3100
0000
,
0002
0000
0100
0000
,
0000
0000
0103
0010
,
0200
0000
0010
0000
,
0000
0000
0310
0000
,
1001
0000
0000
0000
,
0100
0100
0001
0000
;

//--------------- dance-single - DJSuperNOVA ----------------
#NOTES:
     dance-single:
     DJSuperNOVA:
     Medium:
     12:
     0,0,0,0,0:
0000
0000
0000
0000
,
0000
0000
0000
0000
,
0000
0000
0000
0000
,
0000
0000
0000
0000
,
0000
0000
0000
0000
,
1000
0000
1000
0000
,
0001
0000
0001
0000
,
1000
0000
0001
0000
,
1000
0000
0001
0000
,
1000
0100
0020
0000
,
0000
0000
0130
0000
,
0001
0100
0020
0000
,
0000
0000
0130
0000
,
1000
0100
0020
0000
,
0000
0000
0031
0000
,
1000
0001
0000
1000
0000
0100
0000
0010
,
0000
0001
0000
0000
1001
0000
0000
0000
,
1001
0000
0100
0000
0001
0100
0010
0000
,
1000
1000
0001
0001
,
1000
0000
0100
0000
0010
0001
0100
0000
,
0010
0010
0100
0100
,
1001
0000
0100
0000
1000
0010
0100
0000
,
0001
0001
1000
1000
,
0110
0000
0001
0000
1000
0100
0010
0000
,
0010
0000
0001
0000
0010
0100
1000
0000
,
1001
0000
0010
0000
1000
0100
0010
0000
,
0001
0001
1000
1000
,
0001
0000
0010
0000
0001
0100
0010
0000
,
1000
0010
0100
0100
,
1001
0000
0001
0000
0100
0010
0001
0000
,
1000
0100
0001
0100
,
0101
0000
0100
0000
1000
0100
0010
0000
,
0110
1000
0100
0001
,
2000
0000
0100
0000
,
3002
0000
0100
0000
,
2003
0000
0010
0000
,
3002
0000
1003
0000
,
1001
0000
1000
0000
0001
0100
0001
0000
,
0100
0000
0010
0000
1000
0100
1000
0002
,
0000
1000
1000
1003
,
0001
0100
0001
0000
1000
0100
1000
0000
,
1001
0000
0100
0000
0001
0100
0001
0000
,
1000
1000
0001
0001
,
0010
0000
0100
0000
1000
0100
1000
0000
,
0100
0010
1000
0100
,
1001
0000
0100
0000
0001
0100
0001
0000
,
1000
1000
0010
0010
,
0100
0000
0001
0000
1000
0100
1000
0000
,
0100
0100
0010
0100
,
0110
0000
0100
0000
0001
0010
0001
0000
,
1000
1000
0001
0001
,
1000
0000
0100
0000
1000
0010
1000
0000
,
0001
0001
0100
1000
,
1001
0000
0100
0000
0001
0010
0001
0000
,
0100
0000
1000
0000
0001
0100
0001
0000
,
1000
0100
1000
0001
,
0100
0001
1000
0001
,
1001
0000
0100
0000
,
0001
0000
0100
0000
,
1000
0000
0100
0000
,
0001
0000
0100
0000
,
1001
0000
0010
0000
,
1000
0000
0010
0000
,
1001
0000
0000
0100
0000
0000
1010
0000
,
0000
0100
0000
0000
0011
0000
0000
0000
,
1000
0000
1000
0000
0001
0100
0001
0000
,
1000
0000
0001
0000
1000
0100
1000
0000
,
0001
0000
0100
0000
0010
1000
0010
0000
,
0100
0000
0010
0000
0001
0010
0001
0000
,
1001
0000
0100
0000
0100
0010
0100
0000
,
0001
0000
1000
0000
0100
0010
0100
0000
,
1000
0000
0100
0000
0001
1000
0001
0000
,
1000
0100
1100
0101
,
1001
0000
1000
0000
0001
0010
0001
0000
,
0100
0000
0001
0000
0100
0010
0100
0000
,
1000
0000
1000
0000
0001
0100
0001
0000
,
1010
0010
0110
0100
,
0101
0000
0100
0000
1000
0010
0100
0000
,
0001
0000
0100
0000
1000
0100
0010
0000
,
1001
0000
1100
0000
,
1000
0001
1000
0001
0100
0001
0100
0000
,
2002
0000
0000
0000
,
0000
0000
0000
0000
,
3003
0000
0000
0000
1000
0100
0010
0001
,
0000
1000
0001
0100
,
1001
0000
1000
0000
0100
0010
0001
0000
,
1000
0000
0001
0000
0100
1000
0100
0000
,
0010
0000
1000
0000
0010
0100
0001
0000
,
0010
1000
0100
0010
,
0110
0000
0001
0000
1000
0100
1000
0000
,
0001
0000
1000
0000
0001
0100
0010
0000
,
1010
0000
1000
0000
0100
0010
0001
1000
,
0000
0001
1000
0001
,
1001
0000
1000
0000
0100
0010
0100
0000
,
0010
0001
0100
0001
,
1000
0000
0100
0000
1000
0010
1000
0000
,
0010
0001
1000
0001
,
1001
0000
0100
0000
,
1000
0000
0100
0000
,
0001
0000
0100
0000
,
1000
0000
0100
0000
,
1001
0000
0010
0000
,
1000
0000
0010
0000
,
0011
0000
0000
0100
0000
0000
1010
0000
,
0000
0100
0000
0000
1001
0000
0000
0000
,
1000
0100
0020
0000
,
0000
0000
0130
0000
,
0001
0100
0020
0000
,
0000
0000
0130
0110
,
1001
0100
0020
0000
,
0000
0000
0031
0000
,
1001
0000
0000
0000
,
0100
1000
0001
0010
0100
0000
0000
0000
;

//--------------- dance-single - DJSuperNOVA ----------------
#NOTES:
     dance-single:
     DJSuperNOVA:
     Hard:
     15:
     0,0,0,0,0:
0000
0000
0000
0000
,
0000
0000
0000
0000
,
0000
0000
0000
0000
,
0000
0000
0000
0000
,
0000
0000
0000
0000
,
0001
1000
0000
0100
0000
0010
0000
0001
,
0000
0100
0000
0010
0000
1000
0100
0010
,
0001
1000
0000
0010
0000
0100
0000
0001
,
0000
1000
0100
0010
0001
0000
1000
0000
,
1002
1000
0100
0000
,
0100
0100
1003
0010
,
1000
2000
0001
0000
,
0100
0100
3001
0100
,
0010
0020
1000
0000
,
0100
0100
1030
0100
,
0001
0010
0000
0110
0000
1100
0000
1001
,
0000
0101
0000
0100
0001
0000
1000
0000
,
1001
0000
1100
0000
1000
0010
0100
0010
,
0000
0010
1000
0001
0010
0001
0100
0000
,
1100
0000
1000
0100
0010
0001
0100
0010
,
0000
0010
0100
1000
0010
0100
0001
0000
,
0110
0000
0101
0000
0001
0100
0010
1000
,
0000
1000
0010
1000
0010
0100
0010
0000
,
1001
0000
0100
0010
0001
0100
0000
0110
,
0000
1000
0100
0010
0100
0010
0001
0000
,
1001
0000
0101
0000
1000
0100
1000
0010
,
0000
0100
0001
1000
0100
1000
0001
0000
,
1001
0000
0001
0100
0010
1000
0100
0010
,
0000
0010
0001
1000
0100
1000
0010
0000
,
0110
0000
1000
0100
0010
0001
0100
0001
,
0000
0001
1000
0000
1010
0000
0100
0000
,
0101
0000
0010
0001
0100
0010
1000
0010
,
1000
0000
0001
1000
0000
0010
0100
0010
,
1001
0000
0000
1000
0001
0000
0001
0100
,
0010
0000
0000
0010
1000
0100
0001
0100
,
0010
0000
0000
0010
0100
0000
0001
0100
,
0020
0000
0130
0000
,
1001
0000
0110
0000
1001
0000
1000
0100
,
0000
0100
0001
0010
0100
1000
0010
0200
,
0000
0010
0010
0310
,
1000
0000
0001
0100
0001
0000
1000
0100
1000
0000
0001
0100
0001
0000
0000
0000
,
0011
0000
1000
0100
0010
0001
0100
0010
,
1000
0000
0001
1000
0010
0100
0001
0000
,
1100
0000
0001
1000
0100
0010
0001
1000
,
0000
0001
0100
0000
1010
0000
0011
0000
,
1001
0000
0100
1000
0010
0100
0001
0010
,
0100
0000
0100
0001
0010
0100
1000
0000
,
0011
0000
0001
1000
0010
1000
0100
0010
,
0000
0001
1010
0011
,
1001
0000
0100
0001
1000
0010
0001
0010
,
0100
0000
0100
1000
0010
0100
0001
0000
,
0101
0000
0010
1000
0100
1000
0010
0100
,
0000
0100
0001
1000
0100
0010
0001
0000
,
1100
0000
0010
0001
1000
0100
0010
0001
,
0100
0000
0001
0010
0001
0100
0010
0000
,
0110
0000
0010
1000
0100
0010
0100
1000
,
0000
0100
0110
0010
,
1001
1000
0001
1000
,
0100
0010
0100
0000
0110
0000
0000
0000
,
0001
1000
0001
1000
,
0010
0100
0010
0000
0110
0000
0000
0000
,
1001
0100
0010
0100
,
0001
1000
0001
0000
0100
0000
0010
0000
,
0001
0100
0100
0010
1000
1000
0100
0010
,
0010
0001
0100
0100
0110
0000
0000
0000
,
1001
0000
0101
0000
0001
0100
1000
0100
,
0001
0010
0100
1000
0100
0010
0001
1000
,
0000
1000
0010
0100
0001
0100
1000
0100
,
0001
0000
0010
0000
0100
0000
1000
0000
0001
0000
0100
0010
0100
0000
0001
0000
,
1001
0000
1100
0000
0001
1000
0001
0100
,
0000
0000
0100
0000
0001
0000
1000
0100
1000
0000
0100
0010
0000
0000
0001
0000
,
1000
0000
1001
0000
0100
0001
0010
0001
,
1000
0000
0100
0000
1000
0000
0001
0000
0100
0000
0001
0000
1000
0000
0100
0010
,
0001
0000
0000
0000
0011
0000
0000
0000
1000
0000
0100
0000
1000
0000
0010
0100
,
0010
0000
1000
0000
0100
0000
0010
0000
0001
0000
0100
0000
0001
0000
0100
0010
,
0001
0000
0011
0000
0100
0010
0001
0100
,
1010
0011
0101
1100
,
1001
0000
0001
1000
0001
1000
0100
0010
,
0000
0010
0001
0100
0001
0010
0100
0000
,
1001
0000
0110
0000
,
1000
0000
0001
0000
1000
0000
0001
0100
0010
0000
1000
0100
0010
0000
0000
0000
,
0220
0000
0000
0000
,
0330
1000
0100
0010
,
0001
0000
0000
0001
1000
0001
1000
0100
,
0000
1100
0101
0011
,
1001
0000
0100
1000
0010
0100
0001
0010
,
0100
0000
0100
0001
0010
0100
1000
0000
,
0011
0000
0001
1000
0010
1000
0100
0010
,
0000
0001
1100
0101
,
1001
0000
0100
0001
1000
0010
0001
0010
,
0100
0000
0100
1000
0010
0100
0001
0000
,
0101
0000
0010
1000
0100
0001
0100
0010
,
0000
0011
0110
1100
,
1001
0000
0010
0001
1000
0100
0010
0001
,
0100
0000
0001
0010
0001
0100
0010
0000
,
0110
0000
0010
1000
0100
0010
0100
1000
,
0000
0010
0100
0000
0110
0000
0010
0000
,
1001
0100
0010
1000
,
0100
0010
0100
0000
0110
0000
0000
0000
,
0001
0100
0010
1000
,
0010
0100
0010
0000
0110
0000
0000
0000
,
1001
0100
0010
0100
,
0001
1000
0001
0000
0100
0000
0010
0000
,
0001
0100
0100
0010
1000
1000
0100
0010
,
0010
0001
0100
0100
0110
0000
0000
0000
,
1002
1000
0100
0000
,
0100
0000
0100
0000
1003
0000
0010
0001
,
1000
2000
0001
0000
,
0100
0000
0100
0000
3001
0000
0100
1000
,
0010
0020
1000
0000
,
0100
0100
1030
0000
,
1001
0000
0000
0000
,
0100
1000
0001
0010
0100
0000
0000
0000
;
