#TITLE:Cosmic Explorer;
#SUBTITLE:;
#ARTIST:Perfume;
#TITLETRANSLIT:;
#SUBTITLETRANSLIT:;
#ARTISTTRANSLIT:;
#GENRE:;
#CREDIT:;
#MUSIC:Cosmic Explorer.ogg;
#BANNER:Cosmic Explorer.png;
#BACKGROUND:Cosmic Explorer-bg.png;
#CDTITLE:;
#SAMPLESTART:85.800;
#SAMPLELENGTH:15.000;
#SELECTABLE:YES;
#OFFSET:2.400;
#BPMS:0.000=100.000;
#STOPS:;
#BGCHANGES:;
#FGCHANGES:;

//--------------- dance-single - Talkion ----------------
#NOTES:
     dance-single:
     Talkion:
     Beginner:
     2:
     0,0,0,0,0:
0000
0000
0000
0000
,
0000
0000
0000
0000
,
0000
0000
0000
0000
,
0000
0000
0000
0000
,
0000
0000
0000
0000
,
1000
0000
0000
0000
,
0001
0000
0000
0000
,
1000
1000
1000
1000
,
1000
0000
0000
0000
,
0001
0001
0001
0000
,
0100
0000
0010
0000
,
1000
0000
0001
0000
,
1000
0000
0000
0000
,
1000
1000
1000
0000
,
0010
0000
0100
0000
,
0001
0000
1000
0000
,
0001
0000
0000
0000
,
0200
0000
0000
0000
,
0000
0000
0000
0000
,
0000
0000
0000
0000
,
0000
0000
0000
0300
,
0100
0000
0100
0000
,
0010
0000
0010
0000
,
1000
0000
1000
0000
,
0001
0000
0001
0000
,
0010
0000
0010
0000
,
0100
0000
0100
0000
,
1000
0000
1000
0000
,
0001
0000
0010
0000
,
0002
0000
0000
0000
,
0003
0000
0000
0000
,
2000
0000
0000
0000
,
3000
0000
0000
0000
,
0002
0000
0000
0000
,
0003
0000
0000
0000
,
1000
1000
1000
1000
,
1000
0000
0000
0000
,
0001
0001
0001
0000
,
0100
0000
1000
0000
,
0100
0000
0001
0000
,
1000
0000
0000
0000
,
1000
1000
1000
0000
,
0010
0000
0001
0000
,
0010
0000
1000
0000
,
0001
0000
0000
0000
,
0001
0000
1000
0000
,
0001
0000
1000
0000
,
0010
0010
0010
0010
,
0010
0000
0000
0000
,
2000
0000
0000
0000
,
0000
0000
0000
0000
,
3000
0000
0000
0000
,
0000
0000
0000
0000
,
0010
0000
0000
0000
;

//--------------- dance-single - Talkion ----------------
#NOTES:
     dance-single:
     Talkion:
     Easy:
     5:
     0,0,0,0,0:
0000
0000
0000
0000
,
0000
0000
0000
0000
,
0000
0000
0000
0000
,
0000
0000
0000
0000
,
0000
0000
0000
0000
,
0002
0000
0203
0000
,
0320
0000
2030
0000
,
3001
0001
0001
0001
,
0110
0000
0000
0000
,
1000
0000
0100
0000
1000
0001
1000
0000
,
0020
0000
0100
0130
,
0002
0000
1000
1003
,
0100
0001
0010
1000
,
0100
0000
0010
0000
0001
1000
0001
0000
,
0200
0000
0010
0310
,
2000
0000
0001
3001
,
0010
1000
0100
0001
,
0010
0010
1000
1000
,
0010
0010
0001
0001
,
0100
0100
1000
1000
,
0100
0100
0001
1001
,
2000
0000
0000
3100
1000
0000
0001
0000
,
0202
0000
0303
0000
,
0002
0000
0000
0013
0001
0000
1000
0000
,
2020
0000
3030
0000
,
2000
0000
0000
3100
1000
0000
0010
0000
,
0220
0000
0330
0000
,
0200
0000
0000
0301
0100
0000
0010
0000
,
2020
3030
1001
0000
,
0002
0000
2003
0000
,
0000
0000
3200
0320
,
0032
0000
2003
0000
,
0000
0000
3020
0230
,
0302
0000
0023
0000
,
0100
0100
0230
2300
,
3010
0010
0100
0100
,
2002
0000
0000
3003
,
0010
0000
0001
0000
0100
0010
0100
0000
,
2000
0000
0100
3100
,
0002
0000
0010
0013
,
1000
0100
0001
0010
,
1000
0000
0001
0000
0010
0100
0010
0000
,
2000
0000
0010
3010
,
0002
0000
0100
0103
,
1000
0010
0001
0100
,
0010
0010
1000
1000
,
0100
0100
0010
0010
,
0001
0001
1000
1000
,
0010
0100
0001
1000
,
0200
0000
0000
0000
,
0000
0000
0000
0300
,
0100
0100
0010
0010
,
0001
0001
1000
2000
,
3000
0000
0000
0000
;

//--------------- dance-single - Talkion ----------------
#NOTES:
     dance-single:
     Talkion:
     Medium:
     7:
     0,0,0,0,0:
0000
0000
0000
0000
,
0000
0000
0000
0000
,
0000
0000
0000
0000
,
0000
0000
0000
0000
,
0000
0000
0000
0000
,
2001
0000
3200
0000
,
0320
0000
0032
0000
,
0103
0110
0110
0110
,
1000
0001
1000
0001
0200
0000
0310
0000
,
1010
0000
0000
0000
1100
0000
0000
1000
0000
0100
1000
0000
0002
0000
0000
0000
,
0203
0000
0000
0000
0010
0000
0000
0000
0310
0000
0000
0100
0000
0010
0100
0000
,
0002
0000
0000
0000
1000
0000
0000
0000
1003
0000
0000
0100
0000
1000
0100
0000
,
0020
0100
0001
0130
,
0011
0000
0000
0000
0101
0000
0000
0001
0000
0100
0001
0000
2000
0000
0000
0000
,
3200
0000
0000
0000
0010
0000
0000
0000
0310
0000
0000
0100
0000
0010
0100
0000
,
0002
0000
0000
0000
0100
0000
0000
0000
0103
0000
0000
1000
0000
0001
1000
0000
,
0002
0000
0100
0000
0103
0100
0010
0010
,
1000
0100
1000
0000
1000
0100
0010
0000
,
0001
0100
0001
0000
0001
0100
0010
0000
,
1000
0010
0001
0000
0001
0010
1000
0000
,
1000
0100
0010
0000
0110
0000
1001
0000
,
0002
0000
0000
0103
1000
0100
0010
0000
,
1000
0001
1000
0001
1000
0000
0100
0000
,
2000
0000
0000
3010
0001
0010
0100
0000
,
0001
1000
0001
1000
0001
0000
0010
0000
,
0200
0000
0000
0301
0100
1000
0001
0000
,
1000
0010
1000
0010
1000
0000
0100
0000
,
0020
0000
0000
1030
0010
0001
0100
0000
,
0010
0100
0010
0100
0002
0000
1000
1003
,
0100
0000
0000
0010
0000
0000
0010
0000
0002
0000
0000
1000
0000
0000
1003
0000
,
0020
0100
0001
1000
,
0130
0000
0000
0010
0000
0000
0010
0000
2000
0000
0000
0001
0000
0000
3001
0000
,
0020
0100
1000
0001
,
0130
0000
0000
1000
0000
0000
1000
0000
0100
0000
0000
0001
0000
0000
0001
0000
,
0200
1000
0001
0010
,
1300
1001
1001
1001
,
0202
0000
0000
0000
0000
0303
0101
0000
,
1100
0000
0000
0000
0101
0000
0000
0100
0000
0010
0100
0000
0020
0000
0000
0000
,
2030
0000
0000
0000
0100
0000
0000
0000
3100
0000
0000
0010
0000
0100
0010
0000
,
0002
0000
0000
0000
0100
0000
0000
0000
0103
0000
0000
1000
0000
0100
1000
0000
,
0200
0001
1000
0310
,
1010
0000
0000
0000
0011
0000
0000
0010
0000
0100
0010
0000
0200
0000
0000
0000
,
2300
0000
0000
0000
0010
0000
0000
0000
3010
0000
0000
0100
0000
0010
0100
0000
,
0002
0000
0000
0000
0010
0000
0000
0000
0013
0000
0000
1000
0000
0010
1000
0000
,
0020
0001
1000
0130
,
0010
0001
0010
0000
0010
0001
0100
0000
,
0010
1000
0010
0000
0010
1000
0100
0000
,
0011
0011
1100
1100
,
0010
0001
0010
0001
2000
0000
3010
0000
,
0220
0000
0000
0000
,
0000
0000
0000
0330
,
0001
0010
0100
0000
1000
0010
0100
0000
,
0001
0100
1000
0000
0001
0010
2000
0000
,
3001
0000
0000
0000
;

//--------------- dance-single - Talkion ----------------
#NOTES:
     dance-single:
     Talkion:
     Hard:
     11:
     0,0,0,0,0:
0000
0000
0000
0000
,
0000
0000
0000
0000
,
0000
0000
0000
0000
,
0000
0000
0000
0000
,
0000
0000
0000
0000
,
2001
0000
0000
3200
0302
0000
0000
0000
,
2003
0000
3020
0000
,
0031
0100
0001
0100
1000
0100
1000
0100
,
0001
1000
1000
0001
2002
3003
1001
0000
,
1000
0000
0000
0100
1000
0000
0100
1000
0000
0010
0100
0000
0001
0100
0010
2000
,
0000
0000
0000
0000
0100
0000
0000
3100
1000
0001
0100
0010
0000
0100
0020
0000
,
0000
0000
0000
0000
0031
0000
0010
0000
1000
0100
0010
0001
0000
0010
0200
0000
,
0000
0000
0001
0000
0010
0000
1300
0001
,
0100
0000
0000
0010
0100
0000
0010
0100
0000
0001
1000
0000
0001
0010
0100
2000
,
0000
0000
0000
0000
0010
0000
0000
3010
1000
0001
0010
0100
0000
0010
0200
0000
,
0000
0000
0000
0000
0301
0000
0100
0000
1000
0010
0100
0001
0000
0100
0020
0000
,
0000
0000
0000
0000
0031
0000
0000
0001
0010
0100
0010
0100
0001
1000
0001
1000
,
0100
0000
0010
0100
0010
0000
0001
0000
1000
0000
0010
1000
0010
0000
0100
0000
,
0001
0000
0010
0001
0010
0000
0100
0000
1000
0000
0010
1000
0010
0000
0001
0000
,
0010
0000
0100
0010
0100
0000
0001
0000
0010
0000
0100
0010
0100
0000
1000
0000
,
0010
0000
0100
0010
0100
0000
0001
0000
1000
0000
0001
0000
1001
0000
0000
0000
,
0012
0000
0000
0000
0103
0000
0001
0000
0010
0000
0100
0000
1000
0000
0001
1000
,
0020
0100
0100
0130
0010
0000
1001
0000
,
2100
0000
0000
0000
3010
0000
1000
0000
0100
0000
0010
0000
0001
0000
1000
0001
,
0200
0010
0010
0310
0100
0000
1001
0000
,
0021
0000
0130
0010
0001
0100
0010
1000
,
0002
0010
0010
0013
0001
0000
1001
0000
,
1020
0000
0031
0010
1000
0100
0010
0001
,
0100
0010
0110
0100
0120
0000
1000
1030
,
0001
0000
0000
0010
0000
0100
1000
0000
0002
0000
0000
0023
0000
0230
2300
0000
,
0001
0001
0010
3010
,
1000
0000
0000
0010
0000
0100
0001
0000
2000
0000
0000
3020
0000
0230
0302
0000
,
1000
1000
0010
0013
,
0100
0000
0000
0010
0000
0001
1000
0000
0200
0000
0000
0320
0000
0032
2003
0000
,
0010
0010
0100
3100
,
1000
0010
1000
0010
0001
0010
0001
0010
,
0200
0000
0000
0000
0000
0300
1001
0000
,
0001
0000
0000
0010
0001
0000
0010
0001
0000
0100
0010
0000
0001
0010
1000
0002
,
0000
0000
0000
0000
0010
0000
0000
0013
0001
0100
0010
1000
0000
0100
0020
0000
,
0000
0000
0000
0000
0130
0000
0010
0000
1000
0010
0100
1000
0000
0010
0200
0000
,
0000
0000
1000
0000
0010
0000
0301
1000
,
0010
0000
0000
0100
0010
0000
0100
0010
0000
1000
0100
0000
0001
0100
1000
0002
,
0000
0000
0000
0000
0100
0000
0000
0103
0001
0010
0100
1000
0000
0010
0200
0000
,
0000
0000
0000
0000
0310
0000
0100
0000
1000
0100
0010
1000
0000
0100
0020
0000
,
0000
0000
1030
0010
0001
0100
0110
0000
,
2000
0100
0001
0000
3002
0010
1000
0000
,
2003
0010
0001
0000
3002
0100
1000
0000
,
1003
0100
0001
0100
1000
0010
0001
0010
,
1000
0001
0001
1000
2002
3003
1001
0000
,
0220
0000
0000
0000
,
0000
0000
0000
0000
0000
0330
0001
0001
,
1000
0000
0100
0010
0100
0000
1000
0000
0001
0000
0100
0010
0100
0000
0001
0000
,
1000
0000
0100
0001
0100
0000
1000
0000
0010
0000
0100
0010
0002
0000
0000
0000
,
1003
0000
0000
0000
;

//--------------- dance-single - Talkion ----------------
#NOTES:
     dance-single:
     Talkion:
     Challenge:
     13:
     0,0,0,0,0:
0000
0000
0000
0000
,
0000
0000
0000
0000
,
0000
0000
0000
0000
,
0000
0000
0000
0000
,
0000
0000
0000
0000
,
2001
0000
0000
0000
0000
0000
0000
0000
0000
3100
0010
0001
0200
0000
0000
0000
0000
0000
0010
0000
0000
0000
0000
0000
,
0320
1000
2030
0100
,
3100
0010
0011
0100
1010
0100
0011
0100
,
1001
0100
0100
0110
4000
3004
0103
0000
,
1001
0000
0000
0001
0010
0000
0001
0010
0000
001M
1000
0000
0100
1000
0010
0100
,
0002
0000
0000
0000
0010
0000
0000
0013
0001
0100
0010
1000
0000
0100
0010
0000
,
0210
0000
0000
0000
0301
0000
0100
0000
1000
0100
0010
0001
0000
0100
0001
0000
,
0201
0000
1000
0000
0001
0000
0310
0100
,
0110
0000
0000
0100
0010
0000
0100
0010
0000
0M10
0001
0000
0010
0001
0100
0010
,
2000
0000
0000
0000
0100
0000
0000
3100
1000
0010
0100
0001
0000
0010
0100
0000
,
0120
0000
0000
0000
1030
0000
0010
0000
0001
0010
0100
1000
0000
0010
1000
0000
,
1020
0000
0000
0000
0031
0000
0000
0001
0010
0100
01M0
1000
0010
0100
01M0
1000
,
0001
0000
0010
0001
0010
0001
0100
0010
0000
0100
0001
0010
0000
0100
1000
0010
,
0000
0001
0010
1000
0000
0001
0100
1000
0000
0100
0010
1000
0000
0100
0010
0001
,
0000
1000
0010
0001
0000
1000
0100
0001
0000
0010
0001
0100
0000
0010
1000
0100
,
0000
0001
0100
1000
0000
0010
0100
0001
0000
0100
0001
0000
1001
0000
0000
0000
,
1200
0000
0310
0000
0201
0000
0310
0000
2000
0000
0001
3001
1000
0000
0001
0000
,
0021
0000
0130
0000
1020
0000
0130
0000
0002
0000
1000
1003
0001
0000
0100
0000
,
0201
0000
0310
0000
1200
0000
0310
0000
0200
0000
0010
0310
0100
0000
1000
0000
,
1002
0000
0103
0000
2001
0000
3100
0000
0020
0000
0100
0130
0010
0000
0001
0000
,
0102
0000
0013
0000
2100
0000
3010
0000
0200
0000
0001
0301
0100
0000
0010
0000
,
2010
0000
3100
0000
0012
0000
0103
0000
0020
0000
0100
0130
0010
0000
0100
0000
,
0120
0000
0031
0000
0120
0000
1030
0000
0002
0000
1000
1003
0001
0000
0010
0000
,
0110
0100
0110
0010
1002
0000
0100
0103
,
0010
0000
0000
1000
0000
0001
0100
0000
0020
0000
0000
2030
0000
3002
0203
0000
,
0010
0000
0000
0000
0000
0000
0010
0000
0000
0300
0000
0000
0001
1000
0001
1000
0000
0000
0100
0010
0100
0010
0000
0000
,
0001
0000
0000
0010
0000
0100
1000
0000
0002
0000
0000
0023
0000
0230
2300
0000
,
0010
0000
0000
0000
0000
0000
0010
0000
0000
3000
0000
0000
1000
0001
1000
0001
0000
0000
0100
0010
0100
0010
0000
0000
,
0100
0000
0000
0000
0000
0000
0000
0000
0000
0001
0000
0000
0000
0000
0000
1000
0000
0000
0010
0000
0000
0000
0000
0000
0200
0000
0000
0000
0000
0000
0000
0000
0300
0002
0000
0000
0000
0000
0000
2003
0000
0000
3020
0000
0000
0000
0000
0000
,
0100
0000
0000
0000
0000
0000
0100
0000
0000
0030
0000
0000
1000
0001
1000
0001
0000
0000
0010
0100
0010
0100
0000
0000
,
1000
0010
1010
0100
0011
0100
1010
0020
,
0200
0000
0000
0000
0000
0330
0110
0000
,
1001
0000
0000
1000
0100
0000
1000
0100
0000
M100
0001
0000
1000
0010
0001
0010
,
0200
0000
0000
0000
1000
0000
0000
1300
0100
0001
0010
0100
0000
1000
0001
0000
,
0201
0000
0000
0000
1300
0000
0001
0000
1000
0100
0001
0010
0000
0100
1000
0000
,
1020
0000
0001
0000
1000
0000
0130
0010
,
0110
0000
0000
0010
0100
0000
0010
0100
0000
01M0
1000
0000
0001
0010
1000
0010
,
0200
0000
0000
0000
0001
0000
0000
0301
0100
1000
0010
0100
0000
0001
1000
0000
,
1020
0000
0000
0000
0031
0000
1000
0000
0001
0010
1000
0100
0000
0010
0001
0000
,
1002
0000
0100
0000
0010
0000
0100
0103
,
0010
0000
0200
0001
0000
0310
0100
0000
0001
0000
2000
0100
0000
3001
1000
0000
,
0100
0000
0020
0001
0000
0130
0010
0000
0001
0000
2000
0010
0000
3001
1000
0000
,
0001
0100
0101
0010
1100
0010
0101
0010
,
1001
0010
0010
0110
4000
3004
0013
0100
,
2000
0000
0000
0000
,
3001
1000
1001
0001
1001
0000
0010
0010
,
1000
0100
1000
0100
0000
0010
0001
0100
0000
0010
1000
0100
0000
0001
0100
1000
,
0000
0001
0010
1000
0000
0010
0100
1000
0000
0010
0100
1000
0004
0000
0000
0000
,
1003
0000
0000
0000
;

//--------------- dance-double - Talkion ----------------
#NOTES:
     dance-double:
     Talkion:
     Edit:
     13:
     0,0,0,0,0:
00000000
00000000
00000000
00000000
,
00000000
00000000
00000000
00000000
,
00000000
00000000
00000000
00000000
,
00000000
00000000
00000000
00000000
,
00000000
00000000
00000000
00000000
,
10020000
00000000
00000000
00000000
00000000
00000000
00000000
00000000
00000000
00130000
00001000
00100000
00002000
00000000
00000000
00000000
00000000
00000000
00000000
00000000
00000000
00000000
00000000
00000000
,
00003020
00000000
00000032
00000000
,
00000103
00001000
00011000
00100000
00011000
00000010
00011000
00100000
,
10010000
00100000
00100000
01100000
40000000
30040000
00130000
00000000
,
00011000
00000000
00000000
00001000
00000010
00000000
00001000
00000010
00000000
0000M010
00000100
00000000
00000001
00000100
00000010
00010000
,
00002000
00000000
00000000
00000000
00100000
00000000
00000000
00103000
00001000
00010000
00000010
00000100
00000000
00000001
00001000
00000000
,
00001200
00000000
00000000
00000000
00000301
00000000
00000100
00000000
00001000
00000010
00000100
00001000
00000000
00010000
00100000
00000000
,
01200000
00001000
01000000
10000000
,
00310000
00000000
00000000
00010000
00100000
00000000
00010000
00100000
00000000
001M0000
01000000
00000000
10000000
01000000
00100000
00001000
,
00020000
00000000
00000000
00000000
00000010
00000000
00000000
00030010
00010000
00001000
00100000
01000000
00000000
10000000
00010000
00000000
,
02010000
00000000
00000000
00000000
13000000
00000000
01000000
00000000
00010000
00100000
01000000
00010000
00000000
00001000
00000010
00000000
,
00000210
00000000
00000000
00000000
00001300
00000000
00000000
00001000
00000010
00000001
00000010
00000001
00000100
00001000
00000100
00001000
,
00010000
00000000
01000000
10000000
00100000
00000000
00010000
00000000
00001000
00000000
00000010
00000001
00000100
00000000
00001000
00000000
,
00010000
00000000
00001000
00000010
00000100
00000000
00001000
00000000
00010000
00000000
00100000
01000000
00010000
00000000
00001000
00000000
,
00100000
00000000
00010000
00001000
00000100
00000000
00001000
00000000
00000010
00000000
00000100
00001000
00010000
00000000
00100000
00000000
,
00010000
00000000
00001000
00000010
00000001
00000000
00000100
00000000
00000010
00000000
00001000
00000000
00001001
00000000
00000000
00000000
,
00000021
00000000
00001030
00000000
00102000
00000000
00013000
00000000
00100000
00000000
01000000
01000000
00100000
00000000
10000000
00000000
,
12000000
00000000
03010000
00000000
00010200
00000000
00001300
00000000
00000010
00000000
00010000
00010000
00001000
00000000
00010000
00000000
,
00120000
00000000
00031000
00000000
00002010
00000000
00013000
00000000
00001000
00000000
00000100
00000100
00000010
00000000
00001000
00000000
,
00001200
00000000
00000310
00000000
00002010
00000000
00013000
00000000
00100000
00000000
01000000
01000000
00100000
00000000
10000000
00000000
,
21000000
00000000
30100000
00000000
00120000
00000000
00031000
00000000
00000010
00000000
00000100
00000100
00000010
00000000
00000001
00000000
,
00000012
00000000
00000103
00000000
00002100
00000000
00013000
00000000
01000000
00000000
00100000
00100000
01000000
00000000
10000000
00000000
,
10020000
00000000
00130000
00000000
00021000
00000000
00030010
00000000
00001000
00000000
00010000
00010000
00001000
00000000
00000100
00000000
,
00000110
00000010
00000110
00000100
00001002
00000000
00000100
00000103
,
00001000
00000000
00000000
00010000
00000000
10000000
00010000
00000000
00002000
00000000
00000000
00023000
00000000
20030000
30020000
00000000
,
00001000
00000000
00000000
00000000
00000000
00000000
00001000
00000000
00000000
00030000
00000000
00000000
00100000
00001000
00100000
00001000
00000000
00000000
01000000
00001000
01000000
00001000
00000000
00000000
,
00010000
00000000
00000000
00001000
00000000
00000001
00001000
00000000
00020000
00000000
00000000
00032000
00000000
00003002
00002003
00000000
,
00010000
00000000
00000000
00000000
00000000
00000000
00010000
00000000
00000000
00003000
00000000
00000000
00000100
00010000
00000100
00010000
00000000
00000000
00000010
00010000
00000010
00010000
00000000
00000000
,
00000100
00000000
00000000
00010000
00000000
01000000
00010000
00000000
00000200
00000000
00000000
00020300
00000000
02030000
03020000
00000000
,
00001000
00000000
00000000
00000000
00000000
00000000
00001000
00000000
00000000
00030000
00000000
00000000
00100000
00010000
00100000
00010000
00000000
00000000
10000000
00100000
10000000
00100000
00000000
00000000
,
01000000
00001000
00011000
01000000
00011000
00000100
00011000
00020000
,
00002000
00000000
00000000
00000000
00000000
00033000
00000110
00000000
,
00001001
00000000
00000000
00000001
00000010
00000000
00000001
00000010
00000000
0000001M
00001000
00000000
00010000
00100000
01000000
10000000
,
00200000
00000000
00000000
00000000
00010000
00000000
00000000
00310000
00001000
00000010
00000001
00000100
00000000
00000010
00001000
00000000
,
00001200
00000000
00000000
00000000
00000301
00000000
00001000
00000000
00000010
00000100
00010000
00001000
00000000
00100000
00010000
00000000
,
20010000
00000000
00100000
00000000
01000000
00000000
30100000
10000000
,
10010000
00000000
00000000
10000000
01000000
00000000
10000000
01000000
00000000
M1000000
00010000
00000000
00001000
00000100
00000010
00000001
,
00000200
00000000
00000000
00000000
00001000
00000000
00000000
00001300
00010000
01000000
10000000
00100000
00000000
01000000
00010000
00000000
,
00210000
00000000
00000000
00000000
10300000
00000000
00010000
00000000
01000000
00100000
00001000
00010000
00000000
00000100
00001000
00000000
,
00001002
00000000
00000100
00000000
00000010
00000000
00000103
00000100
,
00000020
00000000
00001030
00100000
00000000
01000000
00010000
00000000
00200000
00000000
00301000
00000010
00000000
00000100
00001000
00000000
,
00000002
00000000
00000103
00010000
00000000
00001000
00000100
00000000
00000020
00000000
00001030
00100000
00000000
00010000
10000000
00000000
,
00100000
00010000
00011000
00000010
00011000
00100000
00011000
00000010
,
00001001
00000010
00000010
00000110
00000004
00004003
00003010
00000100
,
00000002
00000000
00000000
00000000
,
00001003
00000100
00010100
00010000
00010100
00000000
00010000
00010000
,
00001000
00000000
00010000
00100000
10000000
00000000
00010000
00000000
00001000
00000000
00000001
00000010
00001000
00000000
00010000
00000000
,
00001000
00000000
00000010
00000001
00000100
00000000
00001000
00000000
00010000
01000000
00010000
01000000
40000000
00000000
00000000
00000000
,
30010000
00000000
00000000
00000000
;
