#TITLE:Confession;
#SUBTITLE:;
#ARTIST:Vective;
#TITLETRANSLIT:;
#SUBTITLETRANSLIT:;
#ARTISTTRANSLIT:;
#GENRE:Uplifting Progressive Trance;
#CREDIT:;
#BANNER:Confession-bn.png;
#BACKGROUND:Confession-bg.png;
#LYRICSPATH:;
#CDTITLE:;
#MUSIC:Confession.ogg;
#OFFSET:0.000000;
#SAMPLESTART:57.325394;
#SAMPLELENGTH:28.656715;
#SELECTABLE:YES;
#BPMS:0.000000=134.000000
;
#STOPS:60.000000=-7.164179,
80.000000=-7.164179,
128.000000=0.224000,
129.000000=0.224000,
130.000000=0.224000,
131.000000=0.224000,
132.000000=0.224000,
133.500000=0.224000,
134.500000=0.224000,
135.500000=0.224000,
136.500000=0.224000,
137.500000=0.224000
;
#BGCHANGES:;
#KEYSOUNDS:;
#ATTACKS:;

//---------------dance-single - ----------------
#NOTES:
     dance-single:
     :
     Hard:
     12:
     0.546014,0.773003,0.016546,0.165459,0.657699,462.000000,460.000000,2.000000,20.000000,16.000000,0.000000,0.546014,0.773003,0.016546,0.165459,0.657699,462.000000,460.000000,2.000000,20.000000,16.000000,0.000000:
// measure 0
0000
0000
0000
0000
,  // measure 1
0000
0000
0000
0000
,  // measure 2
0000
0000
0000
0000
,  // measure 3
0000
0000
0000
0000
,  // measure 4
0110
0000
000M
M000
,  // measure 5
000M
M000
000M
M000
,  // measure 6
0000
0000
0000
0000
,  // measure 7
0000
0000
0000
0000
,  // measure 8
0001
0100
0000
0001
0100
0000
0001
1000
0000
0002
1000
0000
0000
0000
0013
0000
,  // measure 9
0000
0000
0000
0000
,  // measure 10
1000
0100
0000
1000
0100
0000
1000
0010
0000
1000
0010
0000
0100
0000
0001
0000
,  // measure 11
0000
0000
0000
0000
,  // measure 12
0001
0010
0000
0001
0010
0000
0100
0010
0000
0200
0010
0000
0000
0000
1300
0000
,  // measure 13
0000
0000
0000
0000
,  // measure 14
1000
0001
0000
1000
0001
0000
0010
0001
0000
0010
0001
0000
0100
0000
0010
0000
,  // measure 15
0000
0000
0000
0000
,  // measure 16
0000
0000
0000
0000
,  // measure 17
0000
0000
0000
0000
,  // measure 18
0000
0000
0000
0000
,  // measure 19
0000
0000
0000
0000
,  // measure 20
0010
1000
0000
0010
1000
0000
0001
0010
0000
0002
0010
0000
0000
0000
1003
0000
,  // measure 21
0000
0000
0000
0000
,  // measure 22
0000
0000
0000
0000
,  // measure 23
0000
0000
0000
0000
,  // measure 24
0010
1000
0000
0010
1000
0000
0001
0010
0000
0002
0010
0000
0000
0000
0103
0000
,  // measure 25
0000
0000
0000
0000
,  // measure 26
0100
0010
0000
0100
0010
0000
1000
0001
0000
1000
0001
0000
0010
0000
0100
0000
,  // measure 27
0000
0000
0000
0000
,  // measure 28
0100
1000
0000
0100
1000
0000
0001
0100
0000
0002
0100
0000
0000
0000
1003
0000
,  // measure 29
0000
0000
0000
0000
,  // measure 30
1000
0010
0000
1000
0010
0000
1000
0100
0000
1000
0100
0000
1000
0000
0001
0000
,  // measure 31
0100
0010
0000
0100
0010
0000
0100
0001
0000
0100
0001
0000
1000
0000
0100
0000
,  // measure 32
0020
0030
0000
0000
0010
0000
0001
0000
2000
3000
0000
0000
1000
0000
0010
0000
0200
0300
0000
0000
0100
0000
0001
0000
2000
3000
0000
0000
1000
0000
0100
0000
,  // measure 33
0020
0030
0000
0000
0001
0000
0010
0000
0001
0000
0010
0000
0200
0300
0000
0000
0100
0000
1000
0000
0002
0003
0000
0000
0001
0000
0100
0000
0020
0030
0000
0000
,  // measure 34
0010
0000
1000
0000
0002
0003
0000
0000
0001
0000
0010
0000
0200
0300
0000
0000
0010
0000
0001
0000
1000
0000
0001
0000
0010
0000
0000
0000
0000
0000
0100
0000
,  // measure 35
0000
0000
1000
0000
0000
0010
0000
0000
0100
0000
0100
0000
0010
0000
0000
1000
,  // measure 36
0000
0000
0100
0000
0000
0001
0000
0000
0100
0000
1000
0000
0001
0000
0001
0000
,  // measure 37
0100
0100
1000
0001
0010
1000
0200
0000
,  // measure 38
0000
0000
0000
0000
0000
0000
0000
0000
0010
0000
0310
0000
0001
0100
0000
0001
,  // measure 39
0100
0000
0001
1000
0000
0001
1000
0000
0100
0000
0010
0000
0001
0100
0000
0001
,  // measure 40
0100
0000
0001
1000
0000
0001
1000
0000
0100
0000
0010
0000
0001
0100
0000
0001
,  // measure 41
0100
0000
0010
0100
0000
0010
0100
0000
0001
0000
1000
0000
0001
0100
0000
0001
,  // measure 42
0100
0000
0010
0100
0000
0010
0100
0000
0001
0000
1000
0000
0100
0010
0000
0100
,  // measure 43
0010
0000
0100
1000
0000
0100
1000
0000
0001
0000
1000
0000
0100
0010
0000
0100
,  // measure 44
0010
0000
0100
1000
0000
0100
1000
0000
0001
0000
1000
0000
0010
0100
0000
0010
,  // measure 45
0100
0000
0010
1000
0000
0010
1000
0000
0010
0000
0001
0000
0010
0100
0000
0010
,  // measure 46
0100
0000
0010
1000
0000
0010
1000
0000
0002
0000
0000
0000
0013
1000
0000
0010
,  // measure 47
1000
0000
0010
0001
0000
0010
0001
0000
1000
0000
0100
0000
0010
1000
0000
0010
,  // measure 48
1000
0000
0010
0001
0000
0010
0001
0000
1000
0000
0100
0000
1000
0010
0000
1000
,  // measure 49
0010
0000
0001
0010
0000
0001
0010
0000
0100
0000
0001
0000
1000
0010
0000
1000
,  // measure 50
0010
0000
0001
0010
0000
0001
0010
0000
0100
0000
0001
0000
0100
1000
0000
0100
,  // measure 51
1000
0000
0100
0010
0000
0100
0010
0000
1000
0000
0010
0000
0100
1000
0000
0100
,  // measure 52
1000
0000
0100
0010
0000
0100
0010
0000
1000
0000
0010
0000
0100
0001
0000
0100
,  // measure 53
0001
0000
0010
0001
0000
0010
0001
0000
1000
0000
0020
0000
0100
0000
0000
0100
,  // measure 54
0000
0000
0100
0000
0000
0130
0000
0000
0110
0000
0000
0000
0001
0010
0001
0000
,  // measure 55
1000
0000
0001
0100
0001
0000
1000
0000
0010
0100
0001
0000
0001
0010
0001
0000
,  // measure 56
1000
0000
0001
0100
0001
0000
1000
0000
0010
0100
0001
0000
1000
0100
1000
0000
,  // measure 57
0010
0000
1000
0001
1000
0000
0010
0000
0100
0000
0001
0000
1000
0100
1000
0000
,  // measure 58
0010
0000
1000
0001
1000
0000
0010
0000
0100
0000
0001
0000
0010
0100
0010
0000
,  // measure 59
0001
0000
0100
0010
0100
0000
0001
0000
1000
0100
0010
0000
0010
0100
0010
0000
,  // measure 60
0001
0000
0100
0010
0100
0000
0001
0000
1000
0100
0010
0000
0001
0100
0001
0000
,  // measure 61
1000
0000
0001
0010
0001
0000
1000
0000
0100
0000
0010
0000
0001
0100
0001
0000
,  // measure 62
1000
0000
0001
0010
0000
0001
0010
0000
0002
0000
2003
0000
3100
0010
0001
0000
,  // measure 63
1000
0000
0001
0100
0010
0000
1000
0000
0100
0010
0100
0000
0100
0010
0001
0000
,  // measure 64
1000
0000
0001
0100
0010
0000
1000
0000
0100
0010
0100
0000
1000
0010
0100
0000
,  // measure 65
1000
0000
0100
0001
1000
0000
0100
0000
0010
0000
0001
0000
1000
0010
0100
0000
,  // measure 66
1000
0000
0100
0001
1000
0000
0100
0000
0010
0000
0001
0000
0100
0001
1000
0000
,  // measure 67
0010
0000
1000
0100
0010
0000
0001
0000
1000
0001
1000
0000
0100
1000
0001
0000
,  // measure 68
0010
0000
0001
0100
0010
0000
1000
0000
0001
1000
0001
0000
0020
0000
0000
0000
,  // measure 69
0100
0000
0000
0000
0100
0000
0000
0000
0130
0000
0000
0000
1000
0010
0000
1000
,  // measure 70
0010
0000
0100
0001
0000
0100
0001
0000
0010
0000
0100
0000
000M
0000
M000
0000
,  // measure 71
00M0
0M00
000M
M000
00M0
0M00
000M
M000
;

//---------------dance-single - ----------------
#NOTES:
     dance-single:
     :
     Challenge:
     14:
     0.614561,0.921657,0.041365,0.157186,0.785929,520.000000,515.000000,5.000000,19.000000,34.000000,0.000000,0.614561,0.921657,0.041365,0.157186,0.785929,520.000000,515.000000,5.000000,19.000000,34.000000,0.000000:
0000
0000
0000
0000
,
0000
0000
0000
0000
,
0000
0000
0000
0000
,
0000
0000
0000
0000
,
1001
0MM0
0MMM
MMM0
,
00MM
MM00
000M
M000
,
0000
0000
0000
0000
,
0000
0000
0000
0000
,
0100
1000
0000
0100
1000
0000
0100
0001
0000
0200
0001
0000
0000
0000
0310
0000
,
0000
0000
0000
0000
,
0100
0001
0000
0100
0001
0000
0100
1000
0000
0100
1000
0000
0100
0000
0010
0000
,
0000
0000
0000
0000
,
0010
1000
0000
0010
1000
0000
0010
0001
0000
0020
0001
0000
0000
0000
0130
0000
,
0000
0000
0000
0000
,
0010
0001
0000
0010
0001
0000
0010
0100
0000
0010
0100
0000
0010
0000
1000
0000
,
0000
0000
0000
0000
,
0000
0000
0000
0000
,
0000
0000
0000
0000
,
0000
0000
0000
0000
,
0000
0000
0000
0000
,
000F
F000
0000
000F
F000
0000
000F
0100
0000
0002
0100
0000
0000
0000
1003
0000
,
0000
0000
0000
0000
,
0000
0000
0000
0000
,
0000
0000
0000
0000
,
0001
1000
0000
0001
1000
0000
0001
0100
0000
0002
0100
0000
0000
0000
1003
0000
,
0000
0000
0000
0000
,
1000
0010
0000
1000
0010
0000
0001
0010
0000
0001
0010
0000
1000
0000
0001
0000
,
0000
0000
0000
0000
,
0001
0010
0000
0001
0010
0000
0100
0010
0000
0200
0010
0000
0000
0000
1300
0000
,
0000
0000
0000
0000
,
1000
0010
0000
1000
0010
0000
0100
0001
0000
0100
0001
0000
0010
0000
0100
0000
,
1000
0010
0000
1000
0010
0000
0100
0001
0000
0100
0001
0000
1000
0000
0100
0000
,
0020
0030
0000
0000
0010
0000
0001
0000
2000
3000
0000
0000
1000
0000
0010
0000
0200
0300
0000
0000
0100
0000
0001
0000
0020
0030
0000
0000
0010
0000
0100
0000
,
0002
0003
0000
0000
0001
0000
0100
0000
1000
0000
0100
0010
0002
0003
0000
0000
0001
0000
0100
0000
0020
0030
0000
0000
0010
0000
1000
0000
0200
0300
0000
0000
,
0100
0000
0010
0000
2000
3000
0000
0000
1000
0000
0010
0000
0002
0003
0000
0000
0001
0000
1000
0000
0100
0000
1000
0000
0010
0000
0000
0000
0010
0000
0100
0000
,
0000
0000
0100
0000
0001
0000
0000
0000
0001
0000
1000
0000
0000
0000
1000
0000
0100
0000
0000
0000
0100
0000
0010
0100
0010
0000
0000
0000
0010
0000
1000
0000
,
0000
0000
1000
0000
0001
0000
0000
0000
0001
0000
0100
0000
0000
0000
0100
0000
1000
0000
0001
0000
0100
0000
0010
1000
0010
0000
0100
0000
0001
0000
0100
0000
,
0010
1000
0001
1000
0100
0010
0001
0100
0010
1000
0001
0010
0200
0000
0000
0000
,
0000
0000
0000
0000
0000
0000
0000
0000
0310
0000
0010
0000
0001
0000
0001
0100
,
0001
0000
0001
1000
0001
0000
0001
0100
0001
0000
0010
0000
0001
0000
0001
0100
,
0001
0000
0001
1000
0001
0000
0100
0001
0100
0000
0010
0000
1000
0000
1000
0100
,
1000
0000
1000
0010
1000
0000
0100
0000
0010
0000
0001
0000
1000
0000
1000
0100
,
1000
0000
1000
0010
1000
0000
0100
0000
0010
0000
0001
0000
0010
0000
0010
0001
,
0010
0000
0010
1000
0010
0000
0010
0100
0010
0000
1000
0000
0010
0000
0010
0001
,
0010
0000
0010
1000
0010
0000
0100
0010
0100
0000
1000
0000
0001
0000
0001
1000
,
0001
0000
0001
0100
0001
0000
1000
0000
0100
0000
0010
0000
0001
0000
0001
0010
,
0001
0000
0010
0001
0000
0010
0001
0000
1000
0000
0010
0000
1000
0000
1000
0010
,
1000
0000
1000
0100
1000
0000
1000
0001
1000
0000
0100
0000
1000
0000
1000
0010
,
1000
0000
1000
0001
1000
0000
0100
1000
0100
0000
0010
0000
0100
0000
0100
1000
,
0100
0000
0100
0001
0100
0000
0100
0000
0010
0000
0001
0000
0100
0000
0100
1000
,
0100
0000
0100
0001
0100
0000
0100
0000
0010
0000
1000
0000
0001
0000
0001
0100
,
0001
0000
0001
1000
0001
0000
0001
0010
0001
0000
1000
0000
0001
0000
0001
0100
,
0001
0000
0001
1000
0001
0000
0010
0001
0010
0000
1000
0000
0010
0000
0010
0100
,
0010
0000
0010
0001
0010
0000
0100
0000
1000
0000
0001
0000
0101
0000
0000
0100
,
0010
0000
1000
0000
0000
0001
0000
0000
0220
0000
0330
0000
1000
0100
0000
1000
,
0010
0000
1000
0100
1000
0100
0010
0000
0001
0100
0010
0000
1000
0100
0000
1000
,
0010
0000
1000
0100
1000
0100
0010
0000
0001
0100
0010
0000
0100
0001
0000
0001
,
0010
0000
0100
1000
0001
1000
0010
0000
0100
0000
0001
0000
0100
0001
0000
0001
,
0010
0000
0100
1000
0001
1000
0010
0100
0001
0000
1000
0000
0010
0100
0000
0001
,
0010
0000
0100
0010
0001
0010
0100
0000
1000
0001
1000
0000
0010
0100
0000
0001
,
0010
0000
0100
0010
0001
0010
0100
0000
1000
0001
1000
0000
0001
0100
0000
0100
,
0010
0000
1000
0001
0100
0001
1000
0000
0100
0000
0010
0000
0001
0100
0000
0100
,
0010
0000
1000
0001
0100
0001
1000
0010
0200
0000
0320
0000
1030
0100
0000
0001
,
0100
0000
1000
0001
0010
0001
1000
0000
0001
0100
0001
0000
1000
0100
0000
0001
,
0100
0000
1000
0001
0010
0001
1000
0000
0001
0100
0001
0000
1000
0010
0000
0010
,
0001
0000
1000
0100
0010
0100
0001
0000
0100
0000
0010
0000
1000
0010
0000
0010
,
0001
0000
1000
0100
0010
0100
0001
0100
0010
0000
0100
0000
0001
0010
0000
1000
,
0010
0000
0100
1000
0001
1000
0100
0000
1000
0001
1000
0000
0001
0010
0000
1000
,
0010
0000
0100
1000
0001
1000
0100
0000
1000
0001
1000
0000
0001
0010
0000
0010
,
0100
0000
1000
0001
0000
0001
1000
0000
0010
0000
0100
0000
0001
0010
0000
0100
,
1000
0000
0010
1000
0000
0001
0100
0000
0110
0000
1001
0000
0MM0
0000
M00M
0000
,
0MM0
M00M
0MM0
M00M
0MM0
M00M
0MM0
M00M
;
