#TITLE:Carmina;
#SUBTITLE:;
#ARTIST:CANVAS feat. Quimär;
#TITLETRANSLIT:;
#SUBTITLETRANSLIT:;
#ARTISTTRANSLIT:CANVAS feat. Quimar;
#GENRE:;
#CREDIT:;
#MENUCOLOR:;
#METERTYPE:DDR;
#BANNER:Carmina.png;
#BACKGROUND:Carmina-bg.png;
#LYRICSPATH:;
#CDTITLE:./CDTITLES/BEATMANIA IIDX.PNG;
#MUSIC:Carmina.ogg;
#OFFSET:0.000;
#SAMPLESTART:91.538;
#SAMPLELENGTH:15.000;
#SELECTABLE:YES;
#LISTSORT:;
#DISPLAYBPM:98.000:195.000;
#BPMS:0.000=195.000,227.000=97.500,243.000=195.000;
#STOPS:150.000=0.15384615384615384615384615384615
,150.500=0.15384615384615384615384615384615
,379.500=0.15384615384615384615384615384615
,382.000=0.15384615384615384615384615384615
;
#BGCHANGES:0.000=Carmina.avi=1.000=0=0=0,
99999=-nosongbg-=1.000=0=0=0 // don't automatically add -songbackground-
;
#ATTACKS:;

//---------------dance-single - ----------------
#NOTES:
     dance-single:
     :
     Beginner:
     5:
     0.185,0.255,0.000,0.000,0.004:
0000
0000
0000
0000
,
0000
0000
0000
0000
,
0000
0000
0000
0000
,
0000
0000
0000
0000
,
0000
0000
0000
0000
,
0000
0000
0000
0000
,
0000
0000
0000
0000
,
0000
0000
0000
0000
,
0000
0000
0000
0000
,
0000
0000
0000
0000
,
0001
0000
0000
0000
,
1000
0000
0000
0000
,
0010
0000
0000
0000
,
0100
0000
0000
0000
,
0001
0000
0001
0000
,
1000
0000
1000
0000
,
0010
0000
0010
0000
,
0100
0000
0100
0000
,
0010
0000
0000
0000
,
0000
0000
0000
0000
,
1000
0000
0000
0000
,
0000
0000
0001
0000
,
0001
0000
0000
0000
,
1000
0000
0000
0000
,
0001
0001
0001
0001
,
0000
1000
1000
0000
,
1000
0000
1000
0000
,
0001
0001
0001
0000
,
0100
0000
0100
0000
,
0010
0010
0010
0000
,
0100
0000
0100
0000
,
0001
0001
0001
0000
,
1000
0000
1000
0000
,
1000
0000
0000
0000
,
0100
0000
0100
0000
,
0010
0010
0010
0000
,
0001
0000
0001
0000
,
1000
1000
0000
1000
,
0000
0000
0000
0010
,
0000
0000
0000
0100
,
0000
0000
0000
0001
,
0000
0000
0000
1000
,
0000
1000
1000
0000
,
0000
0001
0000
0001
,
0001
0000
0000
0010
,
0000
0010
0010
0000
,
0000
0100
0000
0100
,
0100
0000
0000
1000
,
0000
1000
1000
0000
,
0000
0100
0000
0100
,
0100
0000
0000
0010
,
0000
0010
0000
0001
,
0000
0001
0000
1000
,
0000
1000
0000
0010
,
0000
0010
0000
0100
,
0000
0100
0100
0100
,
0000
0000
0000
0010
,
0000
1000
0000
0001
,
0000
0100
0000
0010
,
0000
0100
0000
0001
,
0000
1000
0000
0001
,
0000
0001
0000
0001
,
0000
0001
0000
1000
,
0000
1000
0000
1000
,
0000
1000
0000
0010
,
0000
0000
0000
0010
,
0000
0000
0000
0100
,
0000
0100
0000
0100
,
0100
0100
0100
0100
,
0000
0000
0000
0000
,
0000
0000
0000
1000
,
0000
1000
0000
0001
,
0001
0001
0000
0010
,
0000
0010
0000
0100
,
0100
0100
0000
1000
,
0000
1000
0000
0100
,
0100
0100
0000
0010
,
0000
0010
0000
0001
,
0001
0001
0000
1000
,
0000
1000
0000
0001
,
0001
0001
0000
0100
,
0000
0100
0000
0000
,
0010
0010
0000
1000
,
0000
1000
0000
0001
,
0000
0001
0000
0010
,
0010
0010
0010
0010
,
0000
0000
0000
0100
,
0000
0000
0010
0010
,
0000
0001
0000
1000
,
1000
1000
0000
0001
,
0000
1000
0000
0010
,
0010
0010
0000
0100
,
0000
0010
0000
0100
,
0100
0100
0000
0010
,
0000
0100
0000
0001
,
1000
0000
0000
0000
0000
0000
1000
0000
0000
0000
0001
0000
;

//---------------dance-single - ----------------
#NOTES:
     dance-single:
     :
     Easy:
     9:
     0.422,0.521,0.053,0.304,0.030:
0000
0000
0000
0000
,
0000
0000
0000
0000
,
0000
0000
0000
0000
,
0000
0000
0000
0000
,
0000
0000
0000
0000
,
0000
0000
0000
0000
,
0000
0000
0000
0000
,
0000
0000
0000
0000
,
0000
0000
0000
0000
,
0000
0000
0000
0000
,
0001
0000
0000
0001
0000
1000
0100
0000
,
0000
1000
0000
1000
0000
0001
0100
0000
,
0000
0001
0000
0001
0000
1000
0010
0000
,
1000
0000
0000
1000
0001
0000
0100
0000
,
0001
0000
0000
0010
0000
0001
1000
0000
,
0000
0010
0000
0010
0000
0100
0001
0000
,
0000
0100
0000
0100
0000
0010
1000
0000
,
0001
0010
0100
1000
,
0220
0000
0000
0000
,
0330
0000
0000
0000
0000
0000
0000
1000
,
0002
0000
0000
0000
,
0003
0000
0000
0000
0000
0000
0000
0000
1000
0000
0000
0001
0000
0000
1000
0000
,
0020
0000
0030
0000
,
0200
0000
0300
0000
,
0001
0001
1000
2000
,
3000
0010
0010
0100
,
0001
0010
0001
1000
,
0001
0100
0010
1000
,
0001
0010
0001
1000
,
0001
0100
0220
0330
,
1000
0010
1000
0001
,
1000
0100
0010
0001
,
1000
0000
0000
0100
0000
0000
0001
0000
,
0200
0000
1300
0000
,
0010
1000
0001
0100
,
0001
0000
0010
0000
0100
1000
0100
0000
,
1000
0010
0100
0001
,
1000
0000
0001
0000
0100
0110
0020
0000
,
0000
1030
0000
0000
0000
0000
0002
0000
,
0000
0000
0103
0000
0000
0000
0000
0000
0000
0000
0000
0000
0001
0000
0000
1000
,
0000
0000
0001
0000
0000
1000
0000
0000
0010
0000
0100
0000
0020
0000
0000
0000
,
0000
0030
0000
1000
,
0100
0001
0200
0000
,
0310
0001
0010
1000
,
0020
0000
0130
1000
,
0010
0001
0020
0000
,
0130
0001
0100
1000
,
0200
0000
0310
1000
,
0100
0001
0100
0010
,
0001
1000
0010
0001
,
0010
0000
0100
0000
0002
0000
1003
0100
,
1000
0000
0001
0000
0100
0000
0001
0010
,
0001
0000
1000
0000
0100
0000
1000
0010
,
1000
0000
0001
0000
0100
0000
0001
0010
,
0001
1000
0100
1000
,
0001
0100
0010
2002
,
0000
0000
3003
0020
,
0130
0000
0001
1000
0001
0000
0200
0000
,
0310
0000
1000
0001
0200
0000
0320
0000
,
1030
0000
0001
0010
0001
0000
2000
0000
,
3100
0000
0010
0001
2000
0000
3001
0100
,
0000
0001
1000
0000
0001
0000
1000
0100
,
0000
1000
0001
0000
1000
0000
0010
0100
,
0000
0010
1000
0000
0010
0000
0100
0010
,
0000
0100
0001
0000
0100
0000
0020
0000
,
0000
0000
0030
2000
,
0000
0000
3000
0001
,
0001
1000
1000
0010
,
0010
0100
0100
0020
,
0000
0000
0000
0000
,
1030
0002
0003
1000
,
0100
0020
0000
0000
0031
0000
0100
0000
,
0010
0100
0000
0001
1000
0000
0001
0000
,
0010
0100
0000
0000
1000
0000
0001
0010
,
0001
0020
0000
0031
1000
0000
0010
0000
,
0100
0002
0000
0000
1003
0000
0001
0000
,
0010
0100
0000
1000
0001
0000
0100
0010
,
0100
0000
0001
1000
0001
0000
1000
0010
,
1000
0020
0000
1030
0001
0000
1000
0000
,
0100
0000
0001
0000
0000
0000
0100
0000
0010
0000
0000
0000
0001
0000
0000
0100
,
0000
0002
0000
0000
1003
0000
0001
0000
,
0100
0000
0000
0000
0110
0000
0000
0000
0110
0000
0000
0000
0000
1000
0000
0001
,
0000
0000
1000
0000
0000
0020
0000
0000
0000
0000
0000
0000
1030
0000
0100
0000
,
1000
0000
0001
0100
0001
0000
1000
0010
,
1000
0000
0001
0010
0001
0000
1000
0100
,
1000
0100
0010
0000
0001
0000
0100
0010
,
0100
0010
1000
0000
0001
0000
2000
0000
,
0100
0000
3001
0020
,
0031
0000
0200
0000
0310
0000
1000
0100
,
0001
0000
0100
0000
0010
0000
0001
0010
,
1000
0000
0010
0000
0100
0000
1000
0010
,
0100
0000
0001
0000
0010
0000
0001
0010
,
0100
0000
1000
0000
0010
0000
1000
0001
,
0100
0000
0001
1000
0010
0000
1000
0001
,
1000
0001
1000
0001
1000
0000
0010
0010
,
0100
0000
0000
0100
0000
0000
0001
0000
0000
1000
0000
0000
0001
0000
0000
0000
0000
0000
0000
0000
2002
0000
0000
0000
,
0000
0000
0000
0000
,
0000
0000
0000
0000
,
3003
0000
0000
0000
;

//---------------dance-single - ----------------
#NOTES:
     dance-single:
     :
     Medium:
     13:
     0.665,0.856,0.129,0.304,0.270: // measure 1
0000
0000
0000
0000
,  // measure 2
0000
0000
0000
0000
,  // measure 3
0000
0000
0000
0000
,  // measure 4
0000
0000
0000
0000
,  // measure 5
0000
0000
0000
0000
,  // measure 6
0000
0000
0000
0000
,  // measure 7
0000
0000
0000
0000
,  // measure 8
0000
0000
0000
0000
,  // measure 9
0000
0000
0000
0000
,  // measure 10
0000
0000
0000
0000
,  // measure 11
0011
0000
0000
1001
0000
1000
0100
1000
,  // measure 12
0001
1000
0000
1001
0000
1000
0010
0100
,  // measure 13
0001
0010
0000
0011
0000
0001
0100
0010
,  // measure 14
1000
0000
0000
0001
0000
0000
1000
0000
0020
0000
0000
0000
0130
0000
0000
0000
,  // measure 15
1010
0000
0000
1001
0000
0001
0010
0001
,  // measure 16
1000
0001
0000
1000
0020
0000
0230
0000
,  // measure 17
0301
0010
0000
0011
0000
1000
0100
0010
,  // measure 18
0001
0010
0100
1000
0001
0100
0010
0000
,  // measure 19
1001
0000
0010
0001
0010
0001
0100
0000
,  // measure 20
0001
0000
1000
0010
1000
0010
0100
0010
,  // measure 21
1000
0000
0001
0010
0001
0010
0100
0000
,  // measure 22
1000
0000
0000
0000
0100
0000
0010
0000
0001
0000
0000
1000
0000
0000
0001
0000
,  // measure 23
0100
0000
0010
1000
0100
1000
0010
0000
,  // measure 24
1001
0000
0010
0001
0100
0001
0010
0000
,  // measure 25
0001
0000
0100
0000
0001
0000
1000
0001
1000
0001
1000
0002
,  // measure 26
0000
0000
0000
0103
0010
0100
0010
0100
0010
0200
0000
0000
,  // measure 27
0301
0000
0000
0010
0000
0000
0001
0000
0000
0000
1000
0000
0100
0000
0010
0000
,  // measure 28
0100
0000
0000
1000
0000
0000
0001
0000
0100
0000
0010
0000
0100
0000
0000
0000
,  // measure 29
0010
0000
0000
1000
0000
0000
0001
0000
0000
0000
1000
0000
0100
0000
0010
0000
,  // measure 30
0100
0000
0000
1000
0000
0000
0001
0000
0010
0000
0001
0000
1000
0000
0000
0000
,  // measure 31
0010
0000
0000
0100
0000
0000
0001
0000
0000
0000
1000
0000
0010
0000
1000
0000
,  // measure 32
0001
0000
0000
1000
0000
0000
0100
0000
0010
0000
0100
0000
1000
0000
0000
0000
,  // measure 33
0010
0000
0100
0001
0000
0100
1000
0100
,  // measure 34
0020
0000
1030
0001
,  // measure 35
1000
0000
0000
0100
0000
0000
0001
0000
0000
0000
0100
0000
0010
0000
0001
0000
,  // measure 36
1000
0000
0000
0010
0000
0000
0001
0000
0010
0000
0100
0000
0001
0000
1000
0000
,  // measure 37
0001
0000
0000
0010
0000
0000
1000
0000
0000
0000
0010
0000
0100
0000
1000
0000
,  // measure 38
0001
0000
0000
0100
0000
0000
1000
0000
1100
0000
0101
0000
0011
0000
0000
0100
,  // measure 39
0000
0000
1000
0000
0000
0000
0010
0000
1000
0000
0001
0000
1000
0000
0000
0010
,  // measure 40
0000
0000
0100
0000
0001
0000
0100
0000
0010
0000
1000
0000
0001
0000
0000
0011
,  // measure 41
0000
0000
1001
0000
0000
0101
0000
0000
0001
0000
1000
0000
0020
0000
0000
0000
,  // measure 42
0000
0000
0130
0010
,  // measure 43
1000
0100
0010
0100
2000
0000
0001
0000
,  // measure 44
3100
0000
1000
0000
0100
0010
0001
0010
,  // measure 45
0200
0001
0310
0100
,  // measure 46
0010
0001
0100
0001
0020
0000
0100
0000
,  // measure 47
1030
0000
0010
0000
0001
0100
0001
1000
,  // measure 48
0002
0000
0010
0000
1003
0000
0001
0100
,  // measure 49
0001
0100
0010
1000
0200
0000
0010
0000
,  // measure 50
0301
0000
1000
0100
1000
0100
0020
0000
,  // measure 51
0001
0000
1030
0000
0002
0000
1003
0100
,  // measure 52
1000
0100
0010
0100
1000
0100
1000
0010
,  // measure 53
1000
0010
0100
0001
1000
0100
1000
0001
,  // measure 54
1000
0001
0100
0010
1000
0100
1000
0010
,  // measure 55
1000
0010
0001
0010
0100
0001
1000
0100
,  // measure 56
1000
0100
0001
0100
0010
0001
1000
0002
,  // measure 57
0000
0000
0103
0010
,  // measure 58
1000
0000
0001
0000
1000
0100
2000
0000
3001
0000
0000
0000
0100
0000
0000
0000
,  // measure 59
0010
0000
1000
0000
0001
0010
0002
0000
2003
0000
0000
0000
3001
0000
0000
0000
,  // measure 60
0100
0000
0010
0000
1000
0100
2000
0000
3010
0000
0000
0000
1000
0000
0000
0000
,  // measure 61
0100
0000
0010
0000
0001
1000
0001
0000
0200
0000
0000
0000
0310
0000
1000
0000
,  // measure 62
0010
0001
0010
0100
0002
0000
0103
0001
,  // measure 63
0100
1000
0100
0010
2000
0000
3001
0010
,  // measure 64
0001
0100
1000
0100
0020
0000
1030
0010
,  // measure 65
1000
0100
0001
0100
0020
0000
0031
0100
,  // measure 66
0001
0000
1000
0002
0000
0000
0013
0000
0001
0000
0100
0000
0010
0000
1000
0000
,  // measure 67
0001
0000
0000
0000
0000
0000
1000
0000
0000
0200
0000
0000
0000
0000
0000
0000
0000
0000
1300
0000
0000
0000
0000
0000
0001
0000
0000
0000
0000
0000
1000
0000
0000
0000
0000
0000
0010
0000
0000
0000
0100
0000
0000
0000
0010
0000
0000
0000
,  // measure 68
0100
0010
0100
0001
0100
0001
0100
0001
0100
0001
1000
0001
,  // measure 69
1000
0001
1000
0001
0010
0001
0010
0001
0010
0002
0000
0000
,  // measure 70
0000
0000
0000
0000
,  // measure 71
1003
0000
0001
0000
0100
0000
0001
0000
1000
0000
0000
0000
0001
0010
0000
0000
,  // measure 72
0001
0000
0100
0000
0001
0000
0010
0000
0001
0000
0000
0000
1000
0100
0000
0000
,  // measure 73
1000
0000
0010
0000
1000
0000
0001
0000
1000
0000
0000
0000
0010
0100
0000
0000
,  // measure 74
0010
1000
0010
0100
0010
0000
1000
0100
,  // measure 75
0010
0000
0002
0000
0000
0000
1003
0000
0100
0000
0000
0000
1000
0100
0000
0000
,  // measure 76
0010
0000
0100
0000
1000
0000
0010
0000
0100
0000
0000
0000
0001
0100
0000
0000
,  // measure 77
0010
0000
0100
0000
0001
0000
0010
0000
0100
0000
0000
0000
0010
0001
0000
0000
,  // measure 78
1000
0010
0100
0001
1000
0000
0001
0010
,  // measure 79
0100
0000
2000
0000
0000
0000
3001
0000
0010
0000
0000
0000
0001
0100
0000
0000
,  // measure 80
1000
0000
0100
0000
0010
0000
1000
0000
0001
0000
0000
0000
1000
0000
0000
1100
,  // measure 81
0000
0102
0000
1003
0010
0000
1000
0100
,  // measure 82
0001
0000
0000
0000
0000
0000
0100
0000
0000
0000
0000
0000
0010
0000
0000
0000
0001
0000
0000
0000
0010
0000
0000
0000
0001
0000
0000
0000
1000
0000
0000
0000
0001
0000
0000
0000
0000
0000
0000
1000
0000
0000
0000
0000
0000
0010
0000
0000
,  // measure 83
0000
0000
0100
0000
0000
0020
0000
0000
0000
0000
1030
0000
0100
0000
0001
0000
,  // measure 84
0100
0010
0001
0010
1000
0010
0100
0001
,  // measure 85
0100
0010
0002
0000
2003
0000
3001
0100
,  // measure 86
1000
0000
0100
0000
0010
0000
1000
0000
0001
0100
0001
0000
2000
0000
0000
0000
,  // measure 87
0000
3002
0000
2003
,  // measure 88
0010
0000
3001
0200
,  // measure 89
0301
0000
0020
0000
0130
0000
1000
0100
,  // measure 90
0001
0100
0010
0001
0010
1000
0010
0100
,  // measure 91
0010
0001
1000
0001
0100
1000
0200
0000
,  // measure 92
0000
0310
1000
0010
0001
0010
0100
0001
,  // measure 93
0010
1000
0010
0100
1000
0001
1000
0100
,  // measure 94
1000
0100
0001
0100
0001
0100
1000
0001
,  // measure 95
1000
0000
0001
0000
1000
0000
0001
0000
1000
0001
1000
0000
0001
0100
0001
0000
,  // measure 96
1000
0000
0000
0100
0000
0000
1000
0000
0000
0000
0000
0000
0001
0000
0000
0000
0000
0000
1000
0000
0000
0001
0000
0000
1000
0000
0000
0000
0001
0000
0000
0000
0100
0000
0000
0000
0001
0000
0000
0000
0020
0000
0000
0000
0000
0000
0000
0000
,  // measure 97
0000
0000
0000
0000
,  // measure 98
0000
0000
0000
0000
,  // measure 99
0030
0000
0000
0000
;

//---------------dance-single - ----------------
#NOTES:
     dance-single:
     :
     Hard:
     18:
     1.000,1.000,0.365,0.213,1.000: // measure 1
0000
0000
0000
0000
,  // measure 2
0000
0000
0000
0000
,  // measure 3
0000
0000
0000
0000
,  // measure 4
0000
0000
0000
0000
,  // measure 5
0000
0000
0000
0000
,  // measure 6
0000
0000
0000
0000
,  // measure 7
0000
0000
0000
0000
,  // measure 8
0000
0000
0000
0000
,  // measure 9
0000
0000
0000
0000
,  // measure 10
0000
0000
0000
0000
,  // measure 11
0101
0000
0000
1100
0000
0001
0010
0100
,  // measure 12
1000
1010
0000
0011
0000
1000
0100
0010
,  // measure 13
0001
0101
0000
1100
0000
0010
0100
0001
,  // measure 14
1001
0000
0000
1100
0000
0000
0101
0000
0001
0010
0001
0010
0100
1000
0100
1000
,  // measure 15
0010
0000
0000
0110
0000
1000
0010
0100
,  // measure 16
0001
0011
0000
1001
0002
0000
0203
0000
,  // measure 17
0310
1010
0000
0011
0000
1000
0100
0010
,  // measure 18
0100
1000
0100
1000
0001
0100
0001
0100
0010
1000
0001
1000
0010
0000
0000
0000
,  // measure 19
1001
0000
0010
0100
1000
0000
0100
0000
0010
0000
0001
0000
1000
0000
0100
0000
,  // measure 20
0001
0100
0010
0001
1000
0001
0100
0101
,  // measure 21
0110
0000
0010
1000
0001
0000
0010
0000
0100
0000
1000
0000
0001
0000
0010
0000
,  // measure 22
1000
0000
0010
0000
0100
0000
1000
0000
1100
0000
0000
1001
0000
0000
0011
0000
,  // measure 23
0101
0000
0001
0100
0010
0000
1000
0000
0100
0000
0010
0000
0001
0000
1000
0000
,  // measure 24
1010
0000
1000
0010
0100
0000
0010
0000
1000
0000
0001
0000
0100
0000
0001
0000
,  // measure 25
1000
0100
1000
0001
0100
0001
1000
0010
1000
0001
0010
0002
,  // measure 26
0000
0000
0000
1003
0001
1000
0001
0010
0001
2000
0000
0000
,  // measure 27
3001
0000
0100
0001
0000
0100
0010
0000
0100
0000
0001
0000
1000
0000
0001
0000
,  // measure 28
1000
0000
0100
1000
0000
0100
0010
0001
1000
0000
0001
0100
0001
0000
1000
0000
,  // measure 29
0001
0000
0010
0100
0000
0010
0001
0000
1000
0000
0010
0000
0100
0000
0001
0000
,  // measure 30
1000
0000
0010
1000
0000
0010
0100
0010
1000
0000
0001
0010
0001
0000
1000
0000
,  // measure 31
1100
0000
0100
0010
0000
0100
1000
0000
0010
0000
0100
0000
0001
0000
1000
0000
,  // measure 32
0001
0000
0010
0100
0000
0010
0001
1000
0010
0000
0100
0001
0100
0000
0001
0000
,  // measure 33
1001
0000
0000
0000
0000
0000
1000
0000
0000
1100
0000
0000
0000
0000
0000
0001
0000
0000
0010
0000
0001
0000
0100
0000
,  // measure 34
0020
0000
0000
0000
0000
0000
0000
0000
1030
0010
0100
0001
1000
0000
0001
0000
,  // measure 35
1001
0000
0001
0010
0000
0001
0100
0000
0001
1000
0010
0000
1000
0000
0001
0000
,  // measure 36
1000
0000
0100
0001
0000
0100
1000
0001
0010
0000
0100
0010
0001
0000
1000
0000
,  // measure 37
1001
0000
1000
0010
0000
1000
0100
0000
1000
0001
0010
0000
0001
0000
0100
0000
,  // measure 38
0001
0000
0010
1000
0000
0010
0001
0000
0110
0000
1100
0000
1010
0000
0010
1000
,  // measure 39
0000
0010
0100
0000
0001
1000
0010
0000
1000
0000
0100
0000
1100
0000
1000
0001
,  // measure 40
0000
0010
0001
1000
0001
0000
1000
0010
0100
0000
0001
0000
1001
0000
0000
1100
,  // measure 41
0000
0000
0011
0000
0000
1001
0000
0000
0110
0000
1010
0000
2001
0000
0000
0000
,  // measure 42
0000
0000
0000
0000
3100
0000
0010
0001
,  // measure 43
0100
0000
1000
0000
0100
0010
1000
0001
1000
0000
0100
0000
0010
0000
0001
0000
,  // measure 44
1000
0000
0010
0000
0100
0000
0001
0000
0010
0000
1000
0000
0010
0100
0010
0001
,  // measure 45
1000
0001
0100
0010
1000
0001
0010
0001
,  // measure 46
0100
0000
1000
0000
0100
0010
1000
0100
1000
0000
0001
0000
0010
0000
0100
0000
,  // measure 47
1000
0000
0001
0000
0010
0000
1000
0000
0010
0100
0010
0001
0010
0000
0001
0100
,  // measure 48
0001
1000
0100
1000
0001
1000
0001
0010
,  // measure 49
1000
0010
0100
0010
0001
0000
0100
0000
0010
0000
1000
0000
0001
0000
0100
0000
,  // measure 50
0001
0000
1000
0000
0001
0000
0100
0000
1000
0100
0010
0100
0001
0000
1000
0000
,  // measure 51
0001
0010
0100
0000
0020
0000
0031
0100
,  // measure 52
0001
0010
0100
1000
0001
0000
1000
0010
0100
0000
0001
0000
1000
0000
0100
0000
,  // measure 53
1000
0010
0100
0001
1000
0000
0001
0010
0100
0000
1000
0000
0010
0000
0100
0000
,  // measure 54
0001
0100
0001
1000
0001
0010
0100
1000
0001
0100
0001
0000
1000
0000
0010
0000
,  // measure 55
1000
0100
1000
0001
1000
0010
0100
0001
1000
0100
1000
0000
0001
0010
0100
1000
,  // measure 56
0100
0010
0001
0010
0100
1000
0100
0010
0001
1000
0001
0100
0001
0000
2000
0000
,  // measure 57
0000
0000
0000
0000
3010
0100
0010
0100
0010
0000
1000
0000
2001
0000
0100
0000
,  // measure 58
0001
0000
3010
0100
0001
0010
0002
0000
1003
0000
0000
0000
0002
0000
0010
0000
,  // measure 59
1000
0000
0103
0010
1000
0100
2000
0000
0002
0000
3003
0000
1020
0000
0100
0000
,  // measure 60
0001
0000
1030
0001
0010
0100
2000
0000
3010
0000
0000
0000
1200
0000
0010
0000
,  // measure 61
0001
0000
1300
0001
0100
0001
0200
0000
0320
0000
0000
0000
1030
0100
1000
0100
,  // measure 62
1000
0000
0001
0100
0001
0100
0001
0000
0011
0000
0000
0000
0001
0100
0001
0100
,  // measure 63
0001
0000
1000
0010
1000
0010
1000
0000
1010
0000
0000
0000
1000
0100
0010
0100
,  // measure 64
1000
0000
0001
0100
0010
0100
0001
0000
0101
0000
0000
0000
0001
1000
0100
1000
,  // measure 65
0001
0000
1000
0001
0010
0001
1000
0000
1010
0000
0000
0000
0010
1000
0010
1000
,  // measure 66
0010
0000
1000
0001
0000
0001
0010
0000
0001
0000
0100
0000
0001
0010
0001
0010
,  // measure 67
0001
0000
0000
0000
0000
0000
0100
0000
0000
0010
0000
0000
0000
0000
0000
0010
0000
0000
1000
0000
0000
0000
0000
0000
0010
0000
0000
0000
0000
0000
0100
0000
0000
0000
0000
0000
0001
0000
0000
0000
0010
0000
0000
0000
0001
0000
0000
0000
,  // measure 68
1000
0010
1000
0001
0100
0001
1000
0100
1000
0001
0010
1000
,  // measure 69
0001
0100
1000
0001
0010
1000
0001
0100
1000
0020
0000
0000
,  // measure 70
0000
0000
0000
0000
,  // measure 71
0130
0000
0010
1000
0010
0000
1000
0000
0100
0000
1000
0000
0001
0010
0000
0001
,  // measure 72
0100
0000
0001
1000
0000
0001
0010
0000
0100
0000
1000
0100
1000
0010
0000
0100
,  // measure 73
0010
0000
1000
0001
0000
1000
0100
0000
0010
0000
0100
1000
0001
0000
0100
0000
,  // measure 74
0010
0100
0000
0001
0010
0001
1000
0000
0001
0000
1000
0100
1000
0000
0001
0000
,  // measure 75
0010
0000
1000
0000
0010
0000
0001
0100
0001
0010
0100
1000
0001
0100
0000
0010
,  // measure 76
0100
0000
0001
1000
0000
0001
0010
0000
0001
0000
1000
0010
1000
0000
0010
0100
,  // measure 77
0001
0100
0010
0000
1000
0100
1000
0001
0010
0100
0010
0001
0100
0000
0001
0000
,  // measure 78
0100
0000
1000
0000
0100
0000
0001
0000
0010
0000
0001
1000
0001
0000
1000
0000
,  // measure 79
0010
0000
0200
0000
0000
0000
0310
1000
0001
0010
0100
1000
0001
0100
0000
1000
,  // measure 80
0100
0000
0010
0100
0001
0010
0001
1000
0100
1000
0001
0100
0001
0000
0000
0011
,  // measure 81
0000
0000
2001
0000
0000
0000
3100
1000
0100
0000
1000
0001
1000
0000
0001
0000
,  // measure 82
0100
0000
0000
0000
0000
0000
0001
0000
0000
0000
0000
0000
1000
0000
0000
0000
0010
0000
0000
0000
0001
0000
0000
0000
1000
0000
0000
0000
0100
0000
0000
0000
0001
0000
0000
0000
0000
0000
0000
0100
0000
0000
0000
0000
0000
0001
0000
0000
,  // measure 83
0000
0100
0010
1000
0001
2000
0000
0000
0000
0000
3001
0010
0001
0000
1000
0000
,  // measure 84
0100
0000
1000
0010
1000
0000
0001
0000
0100
0000
0001
0010
0100
0000
0010
0000
,  // measure 85
0001
0000
1000
0010
0100
0010
0100
0010
1000
0010
1000
0010
1000
0100
0001
0100
,  // measure 86
0010
0001
1000
0001
0010
1000
0010
0100
1000
0001
0100
0001
1000
0010
0100
0001
,  // measure 87
1000
0010
0100
0001
1000
0100
0010
0001
1000
0100
0010
0001
2000
0000
0000
0000
,  // measure 88
0010
0000
3001
0200
,  // measure 89
0001
0000
0000
0000
0320
0000
0000
0000
0100
0000
0000
0000
1030
0100
1000
0100
,  // measure 90
0010
0100
0010
0100
0001
0100
0001
0100
0010
0100
0010
0100
1000
0010
0100
0001
,  // measure 91
1000
0010
0100
0001
0010
0100
1000
0100
0010
0100
1000
0100
0020
0000
0000
0000
,  // measure 92
0000
0000
0031
0000
1000
0010
1000
0010
0001
0010
0001
0010
0100
0010
1000
0010
,  // measure 93
0100
0010
1000
0010
1000
0100
0010
0001
1000
0100
0010
0001
0010
0100
1000
0100
,  // measure 94
0010
0100
1000
0100
0010
0100
0001
0100
0010
0100
0001
0100
1000
0010
1000
0010
,  // measure 95
0100
0001
0100
0001
1000
0001
1000
0001
1000
0001
1000
0001
1000
0100
1000
0000
,  // measure 96
0001
0000
0000
0010
0000
0000
0001
0000
0000
0100
0000
0000
0010
0000
0000
0100
0000
0000
0001
0000
0000
1000
0000
0000
0001
0000
0000
0000
0100
0000
0000
0000
0010
0000
0000
0000
0100
0000
0000
0000
0220
0000
0000
0000
0000
0000
0000
0000
,  // measure 97
0000
0000
0000
0000
,  // measure 98
0000
0000
0000
0000
,  // measure 99
0330
0000
0000
0000
;
