#TITLE:Can't Escape;
#SUBTITLE:;
#ARTIST:MIDNIGHT CVLT & The Brig;
#TITLETRANSLIT:;
#SUBTITLETRANSLIT:;
#ARTISTTRANSLIT:;
#GENRE:;
#CREDIT:;
#BANNER:banner.png;
#BACKGROUND:background.png;
#LYRICSPATH:;
#CDTITLE:;
#MUSIC:Cant Escape.ogg;
#OFFSET:1.775780;
#SAMPLESTART:60.586727;
#SAMPLELENGTH:15.118103;
#LASTBEATHINT:1.575822;
#SELECTABLE:YES;
#BPMS:0.000000=126.999992
;
#STOPS:
;
#BGCHANGES:;
#KEYSOUNDS:;
#ATTACKS:;

//---------------dance-single - ----------------
#NOTES:
     dance-single:
     :
     Hard:
     14:
     0.592792,0.716088,0.114358,0.579956,0.375746,508.000000,494.000000,14.000000,71.000000,0.000000,0.000000,0.592792,0.716088,0.114358,0.579956,0.375746,508.000000,494.000000,14.000000,71.000000,0.000000,0.000000:
0000
0000
0000
0000
,
0000
0000
0000
0000
,
0000
0000
0000
0000
,
0000
0000
0000
0000
,
0000
0000
0000
0000
,
0000
0000
0000
0000
,
0000
0000
0000
0000
,
0000
0000
0000
0000
,
0000
0000
0000
0000
,
0001
0000
0000
0000
0000
1000
0000
0000
0100
0000
0000
0000
0000
0000
0000
0000
0010
0000
0000
0000
0000
0000
0000
0000
0100
0000
0000
0000
0000
0000
0000
0000
1000
0000
0000
0000
0000
0001
0000
0000
0100
0000
0000
0000
0000
0000
0000
0000
0010
0000
0000
0000
0000
0000
0000
0000
1000
0000
0000
0000
0000
0000
0000
0000
,
0001
0000
0000
0000
0000
1000
0000
0000
0010
0000
0000
0000
0000
0000
0000
0000
0100
0000
0000
0000
0000
0000
0000
0000
0010
0000
0000
0000
0000
0000
0000
0000
1000
0000
0000
0000
0000
0001
0000
0000
0010
0000
0000
0000
0000
0000
0000
0000
0100
0000
0000
0000
0000
0000
0000
0000
1000
0000
0000
0000
0000
0000
0000
0000
,
0010
0000
0000
0000
0000
1000
0000
0000
0100
0000
0000
0000
0000
0000
0000
0000
0001
0000
0000
0000
0000
0000
0000
0000
0100
0000
0000
0000
0000
0000
0000
0000
0010
0000
0000
0000
0000
0001
0000
0000
0100
0000
0000
0000
0000
0000
0000
0000
1000
0000
0000
0000
0000
0000
0000
0000
0100
0000
0000
0000
0000
0000
0000
0000
,
0001
0000
0000
0000
0000
0010
0000
0000
0100
0000
0000
0000
0000
0000
0000
0000
1000
0000
0000
0000
0000
0000
0000
0000
0001
0000
0000
0000
0000
0000
0000
0000
1000
0000
0000
0000
0000
0100
0000
0000
0010
0000
0000
0000
0000
0000
0000
0000
0001
0000
0000
0000
0000
0000
0000
0000
1000
0000
0000
0000
0000
0000
0000
0000
,
0010
0000
0000
0000
0000
0100
0000
0000
0001
0000
0000
0000
0000
0000
0000
0000
1000
0000
0000
0000
0000
0000
0000
0000
0100
0000
0000
0000
0000
0000
0000
0000
0001
0000
0000
0000
0000
0100
0000
0000
1000
0000
0000
0000
0000
0000
0000
0000
0010
0000
0000
0000
0000
0000
0000
0000
0100
0000
0000
0000
0000
0000
0000
0000
,
1000
0000
0000
0000
0000
0100
0000
0000
0001
0000
0000
0000
0000
0000
0000
0000
0010
0000
0000
0000
0000
0000
0000
0000
0100
0000
0000
0000
0000
0000
0000
0000
0010
0000
0000
0000
0000
0100
0000
0000
1000
0000
0000
0000
0000
0000
0000
0000
0001
0000
0000
0000
0000
0000
0000
0000
1000
0000
0000
0000
0000
0000
0000
0000
,
0010
0000
0000
0000
0000
1000
0000
0000
0010
0000
0000
0000
0000
0000
0000
0000
0100
0000
0000
0000
0000
0000
0000
0000
0001
0000
0000
0000
0000
0000
0000
0000
0010
0000
0000
0000
0000
0001
0000
0000
0010
0000
0000
0000
0000
0000
0000
0000
0001
0000
0000
0000
0000
0000
0000
0000
1000
0000
0000
0000
0000
0000
0000
0000
,
0100
0000
0000
0000
0000
0010
0000
0000
0001
0000
0000
0000
0000
0000
0000
0000
0100
0000
0000
0000
0000
0010
0000
0000
1000
0000
0000
0000
0000
0000
0000
0000
0100
0000
0000
0000
0000
0010
0000
0000
0001
0000
0000
0000
0000
0000
0000
0000
1000
0000
0000
0000
0000
0010
0000
0000
0100
0000
0000
0000
0000
0000
0000
0000
,
0001
0020
0100
0000
0130
1000
0020
0000
,
0100
0000
0100
0000
1000
0000
1030
0001
,
0100
0000
0000
0010
0100
0000
0001
0000
2000
0000
0000
0000
0100
0000
0000
0000
,
3002
0000
0103
0000
0200
0000
0310
1000
,
0100
0000
0000
0010
0100
0000
1000
0000
0001
0000
0000
0000
1000
0000
0001
0000
,
0020
0000
0130
0010
0200
0000
1300
0100
,
0001
0000
0000
0100
1000
0000
0010
0000
0200
0000
0000
0000
0310
0000
1000
0000
,
0002
0000
0013
0100
2000
0000
3010
0100
,
0001
0100
1000
0100
0001
0100
0010
0000
,
1000
0100
0001
0100
1000
0100
0010
0000
,
0001
0010
0100
0010
0001
1000
0010
0000
,
1000
0010
0100
0010
1000
0010
0100
0001
,
1000
0100
0010
0100
1000
0100
0001
0100
,
1000
0000
0000
0010
0000
0000
0001
0000
0000
0010
0000
0000
0100
0000
0000
0010
0000
0000
1000
0000
0000
0001
1000
0001
,
1000
0100
1000
0100
0010
0001
0010
0001
0100
0010
1000
0100
0010
0001
0010
0100
,
1000
0000
0000
0000
0000
0000
1001
0002
,
1003
0000
0010
0000
0102
0000
0000
0000
0013
0100
2000
0000
3100
0010
0100
1000
,
0002
0000
0000
0000
1003
0010
0200
0000
0301
1000
0100
1000
0020
0000
1030
0001
,
0100
0000
0000
0010
0000
0000
1000
0000
1000
0100
0000
0000
0010
0000
0000
0001
0000
0000
0011
0000
0001
1000
0000
0000
,
0100
0000
0000
0010
0000
0000
0001
0000
0001
0100
0000
0000
0010
0000
0000
1000
0000
0000
1010
0000
1000
0001
0000
0000
,
0100
0000
0001
0000
2010
0000
0000
0000
3100
0010
0002
0000
0013
0100
1000
0010
,
0200
0000
0000
0000
0301
1000
0020
0000
1030
0100
0010
0001
2000
0000
3001
0010
,
0100
0000
0000
0010
0000
0000
0210
0000
0000
2300
0000
0000
3002
0000
0000
0013
0000
0000
0110
0000
0100
0010
0000
0000
,
0011
0000
0000
0000
0000
0000
0000
0000
0001
0000
0000
0000
0000
0000
0000
0000
1001
0000
0000
0000
0000
0000
0000
0000
1000
0000
0000
0000
0000
0000
0000
0000
0010
0000
0000
0000
0000
0000
0000
0000
0010
0000
0000
0000
0000
1000
0000
0000
0100
0000
0000
0000
0000
0010
0000
0000
0001
0000
0000
0000
0000
0000
0000
0000
,
0100
0000
0010
0000
2010
0000
0000
0000
3001
0100
2000
0000
3100
0001
0010
1000
,
0002
0000
0000
0000
0103
1000
0020
0000
0031
1000
0100
0001
0010
0100
0010
0100
,
1000
0000
0000
0001
0000
0000
0100
0000
0100
0010
0000
0000
1000
0000
0000
0100
0000
0000
0011
0000
0001
1000
0000
0000
,
0010
0000
0000
1000
0000
0000
0100
0000
0100
0010
0000
0000
0001
0000
0000
0100
0000
0000
1010
0000
1000
0001
0000
0000
,
0101
0000
0100
0000
0120
0000
0000
0030
1000
0010
0002
0000
0013
1000
0001
0010
,
2000
0000
0000
0000
3010
0001
0200
0000
1300
0001
0010
1000
0100
0010
0100
0010
,
0002
0023
0230
2300
3002
0023
0230
2300
,
3010
0100
0010
1000
0100
0010
0001
1000
,
0100
0000
0000
0000
0000
0010
0000
0000
0001
0000
0000
0000
0000
0000
0000
0000
1000
0000
0000
0000
0000
0000
0000
0000
0001
0000
0000
0000
0000
0010
0000
0000
0100
0000
0000
0000
0000
0000
0000
0000
1000
0000
0000
0000
0000
0000
0000
0000
0010
0000
0000
0000
0000
0000
0000
0000
1000
0000
0000
0000
0000
0000
0000
0000
,
0001
0000
0000
0000
0000
0010
0000
0000
0100
0000
0000
0000
0000
0000
0000
0000
1000
0000
0000
0000
0000
0000
0000
0000
0010
0000
0000
0000
0000
0100
0000
0000
0000
0000
0000
0000
0000
0100
0000
0000
0010
0000
0000
0000
0000
0000
0000
0000
1000
0000
0000
0000
0000
0000
0000
0000
0001
0000
0000
0000
0000
0000
0000
0000
,
0100
0000
0000
0000
0000
0010
0000
0000
1000
0000
0000
0000
0000
0000
0000
0000
0001
0000
0000
0000
0000
0000
0000
0000
1000
0000
0000
0000
0000
0010
0000
0000
0100
0000
0000
0000
0000
0000
0000
0000
0001
0000
0000
0000
0000
0000
0000
0000
0010
0000
0000
0000
0000
0000
0000
0000
0001
0000
0000
0000
0000
0000
0000
0000
,
1000
0000
0000
0000
0000
0010
0000
0000
0100
0000
0000
0000
0000
0000
0000
0000
0001
0000
0000
0000
0000
0000
0000
0000
0010
0000
0000
0000
0000
0100
0000
0000
0000
0000
0000
0000
0000
0100
0000
0000
0010
0000
0000
0000
0000
0000
0000
0000
0001
0000
0000
0000
0000
0000
0000
0000
1000
0000
0000
0000
0000
0000
0000
0000
,
0010
0000
0000
0000
0000
1000
0000
0000
0001
0000
0000
0000
0000
0000
0000
0000
0100
0000
0000
0000
0000
0000
0000
0000
1000
0000
0000
0000
0000
0100
0000
0000
0001
0000
0000
0000
0000
0000
0000
0000
0010
0000
0000
0000
0000
0000
0000
0000
0100
0000
0000
0000
0000
0000
0000
0000
0010
0000
0000
0000
0000
0000
0000
0000
,
0001
0000
0000
0000
0000
1000
0000
0000
0010
0000
0000
0000
0000
0000
0000
0000
0100
0000
0000
0000
0000
0000
0000
0000
0001
0000
0000
0000
0000
0010
0000
0000
0000
0000
0000
0000
0000
0010
0000
0000
0001
0000
0000
0000
0000
0000
0000
0000
1000
0000
0000
0000
0000
0000
0000
0000
0001
0000
0000
0000
0000
0000
0000
0000
,
0100
0000
0000
0000
0000
0001
0000
0000
1000
0000
0000
0000
0000
0000
0000
0000
0010
0000
0000
0000
0000
0000
0000
0000
0001
0000
0000
0000
0000
0010
0000
0000
1000
0000
0000
0000
0000
0000
0000
0000
0100
0000
0000
0000
0000
0000
0000
0000
0010
0000
0000
0000
0000
0000
0000
0000
0100
0000
0000
0000
0000
0000
0000
0000
,
1000
0000
0000
0000
0000
0001
0000
0000
0100
0000
0000
0000
0000
0000
0000
0000
0010
0000
0000
0000
0000
0000
0000
0000
1000
0000
0000
0000
0000
0100
0000
0000
0000
0000
0000
0000
0000
0100
0000
0000
1000
0000
0000
0000
0000
0000
0000
0000
0100
0000
0000
0000
0000
0000
0000
0000
0010
0000
0000
0000
0000
0000
0000
0000
,
0001
0001
1000
0000
2000
0000
3010
0000
,
0020
0130
0200
0301
,
0002
0023
0230
2300
3002
0023
0230
2300
,
3010
0100
0010
1000
0100
0010
0001
0100
,
0020
2030
3002
0203
0320
2030
3002
0203
,
0310
1000
0010
0100
0001
1000
0100
0010
,
0002
0023
0230
2300
3020
0230
0302
2003
,
3010
0000
0200
0300
0001
0000
2000
0000
3100
0000
0020
0000
0031
0000
0200
0300
;

//---------------dance-single - ----------------
#NOTES:
     dance-single:
     :
     Beginner:
     1:
     0.136529,0.210745,0.040842,0.000000,0.000000,117.000000,112.000000,5.000000,0.000000,0.000000,0.000000,0.136529,0.210745,0.040842,0.000000,0.000000,117.000000,112.000000,5.000000,0.000000,0.000000,0.000000:
0000
0000
0000
0000
,
0000
0000
0000
0000
,
0000
0000
0000
0000
,
0000
0000
0000
0000
,
0000
0000
0000
0000
,
0000
0000
0000
0000
,
0000
0000
0000
0000
,
0000
0000
0000
0000
,
0000
0000
0000
0000
,
1000
0000
0100
0000
,
1000
0000
0001
0000
,
0010
0000
0001
0000
,
1000
0000
0010
0000
,
1000
0000
0001
0000
,
0100
0000
0001
0000
,
0010
0000
0100
0000
,
0010
0000
0001
0000
,
1001
0000
0000
0000
,
1000
0000
1000
0000
,
0100
0000
0010
0000
,
0100
0000
0100
0000
,
1000
0000
0001
0000
,
0001
0000
0000
0000
,
0001
0000
1000
0000
,
1000
0000
0000
0000
,
0010
0000
1000
0000
,
0010
0000
1000
0000
,
0001
0000
0100
0000
,
0001
0000
0100
0000
,
0010
0000
1000
0000
,
0100
0000
0010
0000
,
0001
0000
0010
0010
,
0010
0000
0000
0000
,
1001
0000
1000
0000
,
0001
0000
0010
0000
,
0100
0100
0100
0000
,
0100
0100
0100
0000
,
1001
0000
1000
0000
,
0001
0000
1000
0000
,
0010
0010
0010
0000
,
0010
0010
0010
0000
,
0110
0000
0100
0000
,
0001
0000
1000
0000
,
0001
0001
0001
0000
,
1000
1000
1000
0000
,
0110
0000
0010
0000
,
0100
0000
1000
0000
,
0010
0000
0000
0000
,
0000
0000
0000
0000
,
0010
0000
1000
0000
,
0001
0000
1000
0000
,
0100
0000
0010
0000
,
0001
0000
1000
0000
,
0010
0000
1000
0000
,
0100
0000
0010
0000
,
0001
0000
1000
0000
,
0100
0000
1000
0000
,
0010
0000
1000
0000
,
1000
0000
1000
0000
,
0001
0001
0000
0000
,
0010
0000
0010
0000
,
0100
0100
0000
0000
,
1000
0000
1000
0000
,
0010
0010
0000
0000
,
1000
0000
0001
0000
;

//---------------dance-single - ----------------
#NOTES:
     dance-single:
     :
     Medium:
     8:
     0.343073,0.396678,0.155200,0.065347,0.000000,294.000000,275.000000,19.000000,8.000000,0.000000,0.000000,0.343073,0.396678,0.155200,0.065347,0.000000,294.000000,275.000000,19.000000,8.000000,0.000000,0.000000:
0000
0000
0000
0000
,
0000
0000
0000
0000
,
0000
0000
0000
0000
,
0000
0000
0000
0000
,
0000
0000
0000
0000
,
0000
0000
0000
0000
,
0000
0000
0000
0000
,
0000
0000
0000
0000
,
0000
0000
0000
0000
,
0001
1000
0001
0000
0010
0000
0001
0000
,
1000
0010
1000
0100
,
1000
0001
1000
0000
0010
0000
1000
0000
,
0100
1000
0001
0010
,
0001
0100
0010
0000
1000
0000
0010
0000
,
0100
0001
1000
0100
,
0010
0100
1000
0000
0010
0000
1000
0000
,
0001
0100
0010
1000
,
2000
0001
0001
3001
,
0020
0100
0100
0130
,
0100
0000
0010
0001
0010
0000
0200
0000
,
1300
2000
3001
0002
,
0103
0000
0010
1000
0010
0000
0100
0001
,
0100
0001
1000
0001
,
0010
0000
0100
1000
0100
0000
0010
0001
,
0010
0100
1000
0010
,
1000
0001
1000
0001
,
0100
0010
0100
0010
,
1000
0100
0001
0100
,
1000
0010
0001
0010
,
1000
0010
1000
0000
0001
0010
0001
0000
,
1000
0100
1000
0000
0001
0100
0001
0000
,
1000
0001
1000
0001
0100
0010
0100
0010
,
1000
0000
0000
1001
,
0010
0000
1010
0000
1000
0010
0100
0000
,
0010
0000
0100
0001
0010
0001
0010
0000
,
0100
1000
1000
1000
0010
0000
1000
0000
,
1000
0001
0001
0001
0010
0000
0100
0000
,
0010
0000
1001
0000
1000
0001
0100
0000
,
0001
0000
0010
0100
0010
0100
1000
0000
,
0010
0100
0100
0001
0010
0000
0100
0000
,
0010
0100
0100
1000
0010
0000
1000
0000
,
0001
0000
0110
0000
0100
0010
0100
0000
,
1001
0000
1000
0001
1000
0001
1000
0000
,
0100
0010
0010
0001
0100
0000
0010
0000
,
0100
0010
0010
1000
0100
0000
1100
0000
,
1000
0000
0011
0000
0010
0001
1000
0000
,
0100
0000
1000
0010
1000
0010
0100
0000
,
0001
1000
0100
0010
,
0001
0010
0100
0000
1000
0000
0100
0000
,
0010
0100
1000
0000
0010
0000
1010
0000
,
1000
0101
0100
0110
,
0010
0100
0001
0000
0010
0000
1100
0000
,
1000
0101
0001
1010
,
1000
0010
0100
0000
0010
0000
1001
0000
,
0100
0011
0010
1100
,
1000
0100
0010
0000
0010
0000
1001
0000
,
1000
0101
0001
1010
,
1000
0010
0100
0000
0020
0000
0130
0000
,
0200
0310
0020
0130
,
0010
0100
0001
1000
0100
0000
0010
0000
,
0001
0010
0100
1000
,
0100
1000
0010
0100
0001
0000
0010
0000
,
0100
0010
0001
0100
,
0010
1000
0001
0100
0010
0000
1000
0000
,
0100
0010
0001
1000
;

//---------------dance-single - ----------------
#NOTES:
     dance-single:
     :
     Easy:
     5:
     0.220547,0.290897,0.073516,0.220547,0.000000,189.000000,180.000000,9.000000,27.000000,0.000000,0.000000,0.220547,0.290897,0.073516,0.220547,0.000000,189.000000,180.000000,9.000000,27.000000,0.000000,0.000000:
// measure 0
0000
0000
0000
0000
,  // measure 1
0000
0000
0000
0000
,  // measure 2
0000
0000
0000
0000
,  // measure 3
0000
0000
0000
0000
,  // measure 4
0000
0000
0000
0000
,  // measure 5
0000
0000
0000
0000
,  // measure 6
0000
0000
0000
0000
,  // measure 7
0000
0000
0000
0000
,  // measure 8
0000
0000
0000
0000
,  // measure 9
1000
0100
0010
0001
,  // measure 10
1000
0100
0010
0000
,  // measure 11
0001
0100
0010
1000
,  // measure 12
0001
0100
0010
0000
,  // measure 13
1000
0010
0100
0010
,  // measure 14
1000
0010
0100
0000
,  // measure 15
0001
0010
0100
0010
,  // measure 16
0001
1000
0100
0000
,  // measure 17
2000
0000
0000
0000
0000
0000
0000
3002
,  // measure 18
0000
0000
0000
0000
0000
0000
0003
0010
,  // measure 19
0200
0000
0310
0002
,  // measure 20
1003
0000
2000
0000
0000
0000
3000
0010
,  // measure 21
0200
0000
0000
0000
0310
0000
0000
0010
,  // measure 22
2000
0000
3001
0000
,  // measure 23
0020
0000
0000
0000
0031
0000
0000
0001
,  // measure 24
0200
0000
0000
0000
0310
0000
0000
0010
,  // measure 25
1000
0001
1000
0000
,  // measure 26
0010
0100
0010
0000
,  // measure 27
0001
1000
0100
0000
,  // measure 28
0010
0001
1000
0000
,  // measure 29
0010
0100
0010
0100
,  // measure 30
0001
1000
0001
1000
,  // measure 31
0100
0010
0001
1000
,  // measure 32
0001
0000
0000
0000
,  // measure 33
0010
0000
0100
0000
0000
0010
0000
0000
,  // measure 34
0001
0000
0000
1000
0000
1000
0001
0000
,  // measure 35
0010
0001
0002
0003
,  // measure 36
0010
1000
2000
3000
,  // measure 37
0010
0000
1000
0000
0000
0001
0000
0000
,  // measure 38
0100
0000
0000
0001
0000
0001
1000
0000
,  // measure 39
0010
1000
2000
3000
,  // measure 40
0010
0001
1001
0000
,  // measure 41
0010
0000
0011
0000
0000
1001
0000
0000
,  // measure 42
1010
0000
0000
1001
0000
0000
0010
0000
,  // measure 43
0100
0000
0010
0010
0010
0000
0000
0000
,  // measure 44
0010
0000
0100
0100
0100
0000
0000
0000
,  // measure 45
1000
0000
1100
0000
0000
1001
0000
0000
,  // measure 46
0011
0000
0000
1001
0000
0000
1000
0000
,  // measure 47
0010
1000
0001
0000
,  // measure 48
0010
0001
1000
0000
,  // measure 49
0100
0010
0020
0130
,  // measure 50
0200
0310
0020
0031
,  // measure 51
1000
0001
2000
3001
,  // measure 52
0002
1003
2000
3010
,  // measure 53
0010
1000
0001
0100
,  // measure 54
1000
0100
0001
0100
,  // measure 55
0010
0010
1000
0010
,  // measure 56
0001
0010
1000
0100
,  // measure 57
0010
0010
0020
0000
,  // measure 58
0032
0000
2003
0000
,  // measure 59
3001
0010
0200
0000
,  // measure 60
0320
0000
0230
0000
,  // measure 61
1300
0010
0200
0000
,  // measure 62
0320
0000
0230
0000
,  // measure 63
0310
1000
0001
1000
,  // measure 64
0100
0010
0001
1000
;
