#VERSION:0.83;
#TITLE:CHAMELEON;
#SUBTITLE:;
#ARTIST:Ayako Saso;
#TITLETRANSLIT:;
#SUBTITLETRANSLIT:;
#ARTISTTRANSLIT:;
#GENRE:;
#ORIGIN:;
#CREDIT:;
#BANNER:chameleon-bn.png;
#BACKGROUND:chameleon-bg.png;
#PREVIEWVID:;
#JACKET:chameleon-jacket.png;
#CDIMAGE:;
#DISCIMAGE:;
#LYRICSPATH:;
#CDTITLE:cdtitle.png;
#MUSIC:chameleon.mp3;
#OFFSET:-0.076915;
#SAMPLESTART:0.076065;
#SAMPLELENGTH:13.000000;
#SELECTABLE:YES;
#DISPLAYBPM:90.000000:180.000000;
#BPMS:0.000=179.997,
192.000=90.000,
224.000=180.002;
#STOPS:;
#DELAYS:;
#WARPS:;
#TIMESIGNATURES:0.000=4=4;
#TICKCOUNTS:0.000=4;
#COMBOS:0.000=1;
#SPEEDS:0.000=1.000=0.000=0;
#SCROLLS:0.000=1.000;
#FAKES:;
#LABELS:0.000=Song Start;
#BGCHANGES:;
#KEYSOUNDS:;
#ATTACKS:
;

//---------------dance-single - ----------------
#NOTEDATA:;
#CHARTNAME:;
#STEPSTYPE:dance-single;
#DESCRIPTION:;
#CHARTSTYLE:;
#DIFFICULTY:Hard;
#METER:13;
#RADARVALUES:0.670763,1.029734,0.474122,0.229414,0.175884,614.000000,552.000000,62.000000,30.000000,0.000000,0.000000,0.000000,0.000000,0.000000,0.670763,1.029734,0.474122,0.229414,0.175884,614.000000,552.000000,62.000000,30.000000,0.000000,0.000000,0.000000,0.000000,0.000000;
#CREDIT:TonyAkita;
#NOTES:
// measure 0
0000
0000
0000
0000
,  // measure 1
0000
0000
0000
0000
,  // measure 2
0000
0000
0000
0000
,  // measure 3
0000
0000
0000
0000
,  // measure 4
2000
0000
0001
0001
0000
0010
3010
0000
,  // measure 5
0100
0001
1000
0100
0000
0001
0100
0000
,  // measure 6
2000
0000
0100
0100
0000
0010
3010
0000
,  // measure 7
1000
0010
0011
0000
0000
1000
1010
0000
,  // measure 8
1002
0000
1000
1000
0000
0100
0103
0000
,  // measure 9
0010
1000
0001
0010
0000
1000
0010
0000
,  // measure 10
0002
0000
0010
0010
0000
0100
0103
0000
,  // measure 11
0001
0100
1100
0000
0000
0001
0101
0000
,  // measure 12
2000
0000
0001
0001
0000
0100
3100
0000
,  // measure 13
0010
0001
1000
0010
0000
0100
0010
0000
,  // measure 14
2000
0000
0010
0010
0000
0001
3001
0000
,  // measure 15
0001
0000
0100
0000
1000
0000
0000
0000
1000
0000
0100
0000
0010
0100
0010
0100
,  // measure 16
0010
1000
0001
0100
0001
0010
0100
0000
,  // measure 17
1000
0100
0001
0100
1000
0001
0100
0000
,  // measure 18
0010
1000
0100
1000
0010
0100
0001
1000
,  // measure 19
0100
0000
0001
0000
0100
0000
1000
0000
0100
0000
0010
0000
0001
1000
0001
1000
,  // measure 20
0001
0100
0010
1000
0100
1000
0010
0000
,  // measure 21
0100
0001
0100
1000
0100
0001
1000
0000
,  // measure 22
0100
0010
0001
0100
0001
0010
0100
1000
,  // measure 23
0100
0000
0001
0000
0100
0000
1000
0000
0100
0000
0010
0000
0001
1000
0001
1000
,  // measure 24
0001
0000
1000
0001
0000
1000
0100
0000
,  // measure 25
0020
0001
0000
0130
0000
0100
1000
0000
,  // measure 26
1100
0000
1000
0001
0000
0100
0010
0000
,  // measure 27
0000
1010
1001
0000
0000
0011
1001
0000
,  // measure 28
1100
0000
0001
1000
0000
0001
0100
0000
,  // measure 29
0020
1000
0000
0130
0000
0100
0001
0000
,  // measure 30
1000
0100
0001
0100
1000
0010
0001
0010
,  // measure 31
1001
0000
0000
0000
1000
0000
0100
0000
0010
0000
0001
0000
1000
0001
1000
0001
,  // measure 32
1000
0100
0010
0200
0000
0001
0300
0000
,  // measure 33
0100
1000
0010
0001
0100
1000
0001
0000
,  // measure 34
1000
0010
0001
0010
0000
1010
0000
0012
,  // measure 35
0000
0000
1000
0000
0000
0000
1003
0000
0100
0000
0010
0000
0001
1000
0001
1000
,  // measure 36
0001
0100
0010
0200
0000
1000
0300
0000
,  // measure 37
0100
0001
0010
1000
0100
0001
1000
0000
,  // measure 38
0001
0010
1000
0010
0000
0011
0000
2010
,  // measure 39
0000
0000
0001
0000
0000
0000
3001
0000
0100
0000
0010
0000
1000
0001
1000
0001
,  // measure 40
0100
1000
0100
0002
0000
0010
0003
0000
,  // measure 41
0001
0010
1000
0010
0001
0100
0010
0000
,  // measure 42
1000
0100
0001
0010
0000
1010
0000
0012
,  // measure 43
0000
0000
1000
0000
0000
0000
1003
0000
0010
0000
0100
0000
0001
1000
0001
1000
,  // measure 44
0100
0001
0100
2000
0000
0010
3000
0000
,  // measure 45
1000
0010
0001
0010
1000
0100
0010
0000
,  // measure 46
0001
0100
1000
0010
0000
0011
0000
2010
,  // measure 47
0000
0001
0000
3001
0010
0100
1000
0000
,  // measure 48
1001
0000
0001
0100
0010
1000
0001
0000
0000
1000
0000
1000
0100
0010
0001
0000
,  // measure 49
0011
0000
1000
0010
0001
0010
1000
0000
1010
0000
0011
0000
1000
0100
0001
0100
,  // measure 50
1100
0000
0001
0100
0010
1000
0001
0000
0000
1000
0000
1000
0100
0010
0001
0000
,  // measure 51
0011
0000
0001
0100
1000
0100
0001
0000
0011
0000
1010
0000
0001
0010
1000
0010
,  // measure 52
0011
0000
1001
0000
1010
0000
1001
0000
0002
0000
1000
0000
1003
0100
1000
0100
,  // measure 53
1100
0000
1001
0000
0101
0000
1001
0000
2000
0000
0001
0000
3001
0010
0001
0010
,  // measure 54
0011
0000
1000
0000
0100
0000
1000
0000
0101
0000
1000
0000
0010
1000
0010
1000
,  // measure 55
1010
0000
0001
0000
1000
0000
0001
0000
0011
0000
1000
0000
0001
0010
0100
1000
,  // measure 56
0002
0000
1000
0013
,  // measure 57
0001
0000
0010
0000
0100
0000
2000
0000
0001
0000
0000
0001
0000
0000
0001
0000
,  // measure 58
3001
0000
0100
0001
0010
0000
0001
0000
,  // measure 59
0000
1000
1010
0000
0000
0001
0011
0000
,  // measure 60
2000
0000
0001
3010
,  // measure 61
1000
0000
0010
0000
0100
0000
0002
0000
1000
0000
0000
1000
0000
0000
1000
0000
,  // measure 62
1003
0000
0100
1000
0010
0000
0100
0000
,  // measure 63
0001
0000
0010
0000
0011
0000
0000
0000
1000
0000
0010
0000
0100
0010
0100
0010
,  // measure 64
0100
0001
1000
0010
1000
0100
0010
0000
,  // measure 65
0001
0010
1000
0010
0001
1000
0010
0000
,  // measure 66
0100
0001
0010
0100
1000
0010
0100
0000
,  // measure 67
0000
0101
1001
0000
0000
1100
1001
0000
,  // measure 68
0001
0100
0010
1000
0100
1000
0010
0000
,  // measure 69
0100
0001
0010
0001
0100
0010
1000
0001
,  // measure 70
0010
1000
0010
0001
0100
1000
0100
0001
,  // measure 71
0220
0000
0000
0330
,  // measure 72
1001
0000
1000
0100
0000
0001
0100
0000
,  // measure 73
1000
0100
0010
0001
0000
1000
0001
0000
,  // measure 74
1001
0000
0001
0100
0000
1000
0100
0000
,  // measure 75
0001
0010
0011
0000
0000
1001
0110
0000
,  // measure 76
1010
0000
1000
0010
0000
0001
0010
0000
,  // measure 77
1000
0010
0100
0001
0000
1000
0001
0000
,  // measure 78
0011
0000
0001
0010
0000
1000
0010
0000
,  // measure 79
0001
0100
0101
0000
0000
1001
0110
0000
,  // measure 80
2000
0010
3010
2000
0001
3001
1000
0010
,  // measure 81
0100
0001
1000
0100
0001
0100
1000
0000
,  // measure 82
0002
0010
0013
0002
1000
1003
0001
0010
,  // measure 83
0100
1000
1100
0000
0000
1001
0110
0000
,  // measure 84
0002
0100
0103
0002
1000
1003
0001
0100
,  // measure 85
0010
1000
0100
0001
0100
1000
0010
0100
,  // measure 86
0001
0000
0010
0000
0100
0000
1000
0000
0010
0100
0010
0100
0010
0000
0110
0000
;

//---------------dance-single - ----------------
#NOTEDATA:;
#CHARTNAME:;
#STEPSTYPE:dance-single;
#DESCRIPTION:;
#CHARTSTYLE:;
#DIFFICULTY:Medium;
#METER:8;
#RADARVALUES:0.466475,0.664344,0.282944,0.221767,0.045883,427.000000,390.000000,37.000000,29.000000,0.000000,0.000000,0.000000,0.000000,0.000000,0.466475,0.664344,0.282944,0.221767,0.045883,427.000000,390.000000,37.000000,29.000000,0.000000,0.000000,0.000000,0.000000,0.000000;
#CREDIT:TonyAkita;
#NOTES:
0000
0000
0000
0000
,
0000
0000
0000
0000
,
0000
0000
0000
0000
,
0000
0000
0000
0000
,
2000
0000
0000
0001
0000
0000
3001
0000
,
1000
0010
0100
0001
,
0002
0000
0000
1000
0000
0000
1003
0000
,
1000
0000
1010
0000
0000
0010
0100
0000
,
0002
0000
0000
0100
0000
0000
0103
0000
,
0001
0010
1000
0010
,
0002
0000
0000
1000
0000
0000
1003
0000
,
0001
0000
0011
0000
0000
0010
0100
0000
,
2000
0000
0000
0100
0000
0000
3100
0000
,
1000
0010
0001
0010
,
2000
0000
0000
0001
0000
0000
3001
0000
,
1000
0000
1010
0000
0010
0100
0010
0000
,
1001
0000
0001
0010
0000
0100
1000
0000
,
0000
0001
0000
0010
0000
0001
1000
0000
,
1001
0000
1000
0010
0000
0100
0001
0000
,
0101
1100
0101
1100
,
1001
0000
1000
0100
0000
0010
0001
0000
,
0000
1000
0000
0010
0000
1000
0001
0000
,
1001
0000
0001
0100
0000
0010
1000
0000
,
1010
0000
0011
0000
1010
0000
0010
0100
,
0010
1000
0100
0001
,
0100
0000
1000
0000
0001
1000
0001
0000
,
0100
1000
0100
0001
,
0000
1000
1000
0000
0000
0001
0001
0000
,
1001
1000
0100
0010
,
0001
0010
1000
0010
,
0011
1010
0011
1010
,
2002
0000
0000
3003
0000
0001
0001
0000
,
0001
0000
0010
0200
0000
1000
0300
0000
,
0100
0001
0100
1000
,
0001
0000
0100
0020
0000
1000
0000
0031
,
0000
0010
0000
1000
0100
0010
0001
0000
,
1000
0000
0010
0200
0000
0001
0300
0000
,
0100
1000
0100
0001
,
1000
0000
0100
0020
0000
0001
0000
1030
,
0000
0010
0000
0001
0010
0100
1000
0000
,
1001
0000
1000
0010
0000
0100
0010
0000
,
1000
0001
0010
0100
,
1000
0000
0001
0100
0000
0010
0100
0000
,
0001
0000
1000
0000
0100
0010
0100
0010
,
0110
0000
0001
0100
0000
0010
0100
0000
,
0001
0010
0100
1000
,
0001
0000
1000
0100
0000
0010
0100
0000
,
1000
0000
0001
0000
0100
0010
0100
0000
,
0110
0000
0000
0001
1000
0000
0001
0000
0000
0010
0000
0100
0000
1000
0001
0000
,
0001
0000
0010
0001
0010
0000
0100
0000
1000
0000
1000
0000
0001
0000
0001
0000
,
1001
0000
0000
1000
0010
0000
0100
0000
0000
0001
0000
0010
0000
0001
1000
0000
,
1000
0000
0010
1000
0010
0000
0100
0000
0001
0000
0001
0000
1000
0000
1000
0000
,
0100
0010
0100
0010
0002
0010
0010
0013
,
0001
0010
0100
1000
0200
1000
1000
1300
,
1000
0001
1000
0001
0100
0010
1000
0010
,
0100
0001
0010
0001
0100
0010
1000
0001
,
2000
0000
0010
3010
,
1001
0000
0000
0000
0000
0000
1000
0000
0001
0000
0000
0001
0000
0000
0001
0000
,
0002
0000
0010
0013
,
0000
0001
0100
0000
0000
1000
0100
0000
,
0002
0000
0100
0103
,
1001
0000
0000
0000
0000
0000
0001
0000
1000
0000
0000
1000
0000
0000
1000
0000
,
2000
0000
0100
3100
,
0000
1000
0010
0000
0000
0001
0010
0000
,
1010
0010
1000
0100
,
0001
0000
0100
0000
1000
0000
0001
1000
,
0001
0100
1000
0100
,
0000
0001
0001
0000
0000
1000
1000
0000
,
1001
0001
0100
0010
,
1000
0010
0001
0010
,
1010
0011
1010
0011
,
2002
0000
3003
0000
,
1010
0000
1000
0001
0000
1000
0001
0000
,
0100
0010
1000
0001
,
0011
0000
0001
1000
0000
0001
1000
0000
,
0010
0100
0010
0000
0100
0001
1000
0000
,
1001
0000
1000
0100
0000
1000
0100
0000
,
0010
0001
1000
0001
,
1001
0000
0001
0100
0000
0001
0100
0000
,
0010
1000
0010
0000
0100
0001
1000
0000
,
0002
0000
1003
0020
0000
0130
0002
0000
,
1003
0100
0010
0001
,
2000
0000
3001
0200
0000
0310
2000
0000
,
3001
1000
0001
0000
0010
0100
1000
0000
,
2000
0000
3010
0200
0000
0310
2000
0000
,
3001
0010
0100
1000
,
0001
0100
0010
1000
0001
1000
0100
0010
;

//---------------dance-single - ----------------
#NOTEDATA:;
#CHARTNAME:;
#STEPSTYPE:dance-single;
#DESCRIPTION:;
#CHARTSTYLE:;
#DIFFICULTY:Easy;
#METER:7;
#RADARVALUES:0.325549,0.564693,0.114707,0.084118,0.000000,298.000000,283.000000,15.000000,11.000000,0.000000,0.000000,0.000000,0.000000,0.000000,0.325549,0.564693,0.114707,0.084118,0.000000,298.000000,283.000000,15.000000,11.000000,0.000000,0.000000,0.000000,0.000000,0.000000;
#CREDIT:;
#NOTES:
0000
0000
0000
0000
,
0000
0000
0000
0000
,
0000
0000
0000
0000
,
0000
0000
0000
0000
,
1000
0000
0001
0000
,
0200
0000
0000
0300
,
0001
0000
1000
0000
,
0010
0000
0000
1000
,
1000
0000
0100
0000
,
0001
0000
0100
0000
,
1000
0000
0010
0000
,
0001
0000
0100
1000
,
0001
0000
0010
0000
,
1000
0000
0010
0000
,
0001
0000
1000
0000
,
0001
0010
0100
1000
,
0001
0100
0010
0100
,
0001
0000
1000
0000
0001
0000
1000
0100
,
0001
0100
0010
0100
,
1000
0001
1000
0001
,
1000
0100
0010
0100
,
1000
0000
0001
0000
1000
0000
0001
0100
,
1000
0100
0010
0100
,
0001
1000
0001
1000
,
0010
1000
0100
1000
,
0010
0100
0001
0000
,
1000
0100
0010
0100
,
1000
1000
1000
0000
0001
0001
0001
0000
,
0100
0001
0010
0001
,
0100
0010
1000
0001
,
0010
0100
0010
0100
,
1001
0000
0000
0000
,
2000
0000
3000
0010
,
0001
0000
0000
0010
,
1000
0000
0000
1000
,
0001
0100
1000
0100
,
0002
0000
0003
0100
,
1000
0000
0000
0100
,
0001
0000
0000
0001
,
0010
0100
0010
0100
,
0020
0000
0030
0001
,
0100
0000
0000
0001
,
0010
0000
0000
0001
,
1000
0010
0001
0010
,
2000
0000
3000
0100
,
1000
0000
0000
0010
,
1000
0000
0000
1000
,
0001
0010
0100
1000
,
1001
0000
0001
0000
1000
0100
0001
0000
,
0100
0000
0010
0000
0001
1000
0001
1000
,
1001
0000
1000
0000
0001
0100
1000
0000
,
0100
0000
0010
0000
1000
0001
1000
0001
,
0100
0100
0100
0100
0010
0100
0010
0100
,
0010
0010
0010
0010
1000
0001
1000
0001
,
1000
1000
0001
0001
0100
0100
0010
0010
,
1000
0001
1000
0001
1000
0100
0010
0001
,
2000
0000
0010
0000
,
3010
0000
0100
0001
,
0020
0000
0001
0000
,
0030
1001
0000
1010
,
0012
0000
0010
0000
,
0013
0000
0100
1000
,
0020
0000
1000
0000
,
1030
1000
0001
0001
,
0010
0001
0100
0001
,
0010
0100
1000
0000
,
0001
0100
0010
0100
,
0001
0001
0001
0000
1000
1000
1000
0000
,
0010
1000
0100
1000
,
0010
0100
0001
1000
,
0100
0010
0100
0010
,
0220
0000
0330
0000
,
0011
0000
0001
0000
,
1001
0000
0000
0000
,
1010
0000
1000
0000
,
1001
0000
0001
0001
,
0101
0000
0100
0000
,
1100
0000
0000
0000
,
1010
0000
0010
0000
,
0011
0000
1000
1000
,
0001
0100
1000
0100
,
0010
0000
0001
0000
0100
0000
1000
0100
,
0001
0100
1000
0100
,
0010
0000
0001
0000
1000
0000
0001
0001
,
0001
0010
1000
0010
,
0100
0000
0001
0000
0010
0000
1000
0010
,
0001
0000
0010
0000
0100
0100
0100
0100
;

//---------------dance-single - ----------------
#NOTEDATA:;
#CHARTNAME:;
#STEPSTYPE:dance-single;
#DESCRIPTION:;
#CHARTSTYLE:;
#DIFFICULTY:Beginner;
#METER:4;
#RADARVALUES:0.146388,0.265355,0.122354,0.107060,0.000000,134.000000,118.000000,16.000000,14.000000,0.000000,0.000000,0.000000,0.000000,0.000000,0.146388,0.265355,0.122354,0.107060,0.000000,134.000000,118.000000,16.000000,14.000000,0.000000,0.000000,0.000000,0.000000,0.000000;
#CREDIT:;
#NOTES:
0000
0000
0000
0000
,
0000
0000
0000
0000
,
0000
0000
0000
0000
,
0000
0000
0000
0000
,
1000
0000
1000
0000
,
0100
0000
0010
0000
,
0001
0000
0001
0000
,
1001
0000
1001
0000
,
1000
0000
0001
0000
,
0100
0000
0100
0000
,
0001
0000
1000
0000
,
0010
0000
0010
0000
,
1000
0000
0001
0000
,
0100
0000
0100
0000
,
0010
0000
0010
0000
,
1001
0000
1001
0000
,
0110
0000
0000
0000
,
0001
0000
0000
0000
,
0001
0000
0000
0000
,
1000
0000
0100
0000
,
0001
0000
0000
0000
,
0100
0000
0000
0000
,
0100
0000
0000
0000
,
0010
0000
0010
0000
,
1001
0000
0000
0000
,
1000
0000
0000
0000
,
1000
0000
0000
0000
,
0001
0000
0100
0000
,
1000
0000
0000
0000
,
0100
0000
0000
0000
,
0010
0010
0010
0010
,
0010
0000
0000
0000
,
2002
0000
0000
3003
,
0000
0000
0000
0000
,
2000
0000
0000
3000
,
0000
0000
0000
0000
,
0002
0000
0000
0003
,
0000
0000
0000
0000
,
2000
0000
0000
3000
,
0000
0000
0010
0000
,
2002
0000
0000
3003
,
0000
0000
0000
0000
,
0020
0000
0000
0030
,
0000
0000
0000
0000
,
0200
0000
0000
0300
,
0000
0000
0000
0000
,
0020
0000
0000
0030
,
0000
0000
0000
0000
,
1001
0000
0000
0000
,
0110
0000
0010
0010
,
0010
0000
0000
0000
,
1001
0000
0100
0100
,
0100
0000
1000
0000
,
0010
0000
1000
0000
,
0001
0000
0010
0000
,
0001
0000
1000
0000
,
2000
0000
0000
0000
,
3000
0000
1000
0000
,
0002
0000
0000
0000
,
0003
0000
0000
0000
,
0200
0000
0000
0000
,
0300
0000
0100
0000
,
0020
0000
0000
0000
,
0030
0000
0000
0000
,
1001
0000
0000
0000
,
1000
0000
0000
0000
,
1000
0000
0000
0000
,
0001
0000
0100
0000
,
1000
0000
0000
0000
,
0100
0000
0000
0000
,
0010
0010
0010
0010
,
0010
0000
0000
0000
,
1001
0000
0000
1000
,
1000
0000
0000
0010
,
0010
0000
0000
0001
,
0001
0000
0000
0000
,
1001
0000
0000
1000
,
1000
0000
0000
0100
,
0100
0000
0000
0001
,
0001
0000
0000
0000
,
1001
0000
1000
0000
,
0010
0000
1000
0000
,
1001
0000
0001
0000
,
0100
0000
0001
0000
,
1000
0000
0100
0000
,
0001
0000
0100
0000
,
1000
0000
0001
0001
;
