#TITLE:But I Go Back;
#SUBTITLE:;
#ARTIST:Mameyudoufu;
#TITLETRANSLIT:;
#SUBTITLETRANSLIT:;
#ARTISTTRANSLIT:;
#GENRE:;
#CREDIT:;
#MUSIC:But I Go Back.ogg;
#BANNER:But I Go Back.png;
#BACKGROUND:But I Go Back-bg.png;
#CDTITLE:;
#SAMPLESTART:29.096;
#SAMPLELENGTH:15.000;
#SELECTABLE:YES;
#OFFSET:1.827;
#BPMS:0.000=130.000;
#STOPS:;
#BGCHANGES:;
#FGCHANGES:;

//--------------- dance-single - Talkion ----------------
#NOTES:
     dance-single:
     Talkion:
     Beginner:
     2:
     0,0,0,0,0:
0000
0000
0000
0000
,
0000
0000
0000
0000
,
0000
0000
0000
0000
,
0000
0000
0000
0000
,
0000
0000
0000
0000
,
0001
0000
0000
0000
,
1000
0000
0000
0000
,
0001
0000
0000
0000
,
1000
1000
1000
0000
,
0100
0000
0000
0000
,
0100
0000
0100
0000
,
0010
0000
0000
0000
,
0010
0000
0010
0000
,
0001
0000
0000
0000
,
0001
0000
0001
0000
,
1000
0000
0000
0000
,
1000
0000
0001
0000
,
1000
0000
0000
0000
,
0010
0000
0100
0000
,
0010
0000
0000
0000
,
1000
0000
0001
0000
,
1000
0000
0000
0000
,
0100
0000
0010
0000
,
0100
0000
0000
0000
,
1000
0000
0001
0000
,
0100
0000
0000
0000
,
0000
0000
0000
0000
,
0000
0000
0000
0000
,
0000
0000
0000
0000
,
0001
0000
0000
0000
,
0001
0000
0000
0000
,
1000
0000
0000
0000
,
1000
0000
0000
0000
,
0100
0000
0000
0000
,
0100
0000
0000
0000
,
0010
0000
0000
0000
,
0010
0010
0010
0000
,
0001
0000
0000
0000
,
0001
0000
0000
0000
,
1000
0000
0000
0000
,
1000
0000
0000
0000
,
0001
0000
0000
0000
,
0100
0000
0000
0000
,
0010
0000
0000
0000
,
1000
0000
0000
0000
,
0001
0000
0000
0000
,
0010
0000
0000
0000
,
0100
0000
0000
0000
,
1000
1000
1000
0000
,
0001
0000
0001
0000
,
0100
0000
0100
0000
,
0010
0000
0010
0000
,
1000
0000
1000
0000
,
0001
0000
0001
0000
,
1000
0000
1000
0000
,
0100
0000
0100
0000
,
0010
0000
0000
0000
,
1001
0000
0000
0000
,
0000
0000
0000
0000
,
0001
0000
0001
0000
,
1000
0000
1000
0000
,
0010
0000
0000
0000
;

//--------------- dance-single - Talkion ----------------
#NOTES:
     dance-single:
     Talkion:
     Easy:
     7:
     0,0,0,0,0:
0000
0000
0000
0000
,
0000
0000
0000
0000
,
0000
0000
0000
0000
,
0000
0000
0000
0000
,
0000
0000
0000
0000
,
0001
0001
0010
0010
,
0100
0100
1000
1000
,
0001
0001
0100
0100
,
0010
0100
0110
1001
,
1000
0000
1100
0000
1000
0100
0010
0000
,
0001
0000
1000
0001
1000
0000
1001
0000
,
0001
0000
0101
0000
0001
0100
0010
0000
,
1000
0000
0001
0010
0100
0000
1100
0000
,
1000
0000
1001
0000
1000
0001
0100
0000
,
0010
0000
0110
0000
0100
0001
0010
0000
,
0001
0000
0000
0000
0000
0000
1001
0000
0000
0000
0000
0000
0001
0000
0000
1000
0000
0000
0010
0000
0000
0000
0000
0100
,
0000
0000
0000
0000
0000
0000
0110
0000
0000
0000
0000
0010
0000
0000
0000
1000
0000
0000
0001
0000
0000
0000
0000
0000
,
1000
0110
0001
0110
,
1000
0000
0000
0001
0000
0000
0100
0000
0000
0000
0000
0100
0000
0000
0000
0010
0000
0000
1000
0000
0000
0000
0000
0000
,
0001
0110
1000
0110
,
0001
0000
0000
1000
0000
0000
0100
0000
0000
0000
0000
0100
0000
0000
0000
0010
0000
0000
0001
0000
0000
0000
0000
0000
,
1000
0011
1000
0101
,
1000
0000
0000
0100
0000
0000
0010
0000
0000
0000
0000
0010
0000
0000
0000
0001
0000
0000
0100
0000
0000
0000
0000
0000
,
0010
0000
0000
0000
0000
0000
0101
0000
0000
0000
0000
0000
0010
0000
0000
0000
0000
0000
1000
0000
0000
0000
0000
0001
,
0000
0000
0000
0000
0000
0000
1000
0000
0000
0000
0000
0100
0000
0000
0000
0000
0000
0000
0010
0000
0000
0000
0000
0000
,
0001
0000
0000
0000
,
0000
0000
0000
0000
,
1000
0000
1000
0000
,
0001
0000
0001
0000
,
0100
0100
0100
0000
,
0010
0010
0010
0000
,
1000
1000
1000
0000
,
0001
0000
0000
0000
0000
0000
0001
0000
0000
0000
0000
0010
0000
0000
0000
0000
0000
0000
0000
0000
0000
0000
0000
0000
,
0001
1000
0001
0100
,
0010
1000
0001
1000
,
0100
0001
1000
0010
,
0001
1001
1000
1001
,
0001
1000
0001
0010
,
0100
1000
0001
0100
,
1000
0001
0010
1000
,
1001
0000
0000
0000
,
0001
0001
1000
1000
,
0100
0100
0001
0001
,
0100
0100
1000
1000
,
0010
0010
0100
0100
,
0001
0001
1000
1000
,
0010
0010
0001
0001
,
0010
0010
1000
1000
,
0001
1000
1001
0110
,
0001
0010
0100
0000
1000
0010
0100
0000
,
0001
0100
0010
0000
1000
0001
1000
0000
,
0001
1000
0100
0000
1000
0001
0100
0000
,
0010
1000
0100
0000
0010
0100
0010
0000
,
1000
0010
0100
0000
1000
0001
0100
0000
,
0001
1000
0100
0000
1000
0001
1000
0000
,
0001
0100
0010
0000
0001
0010
0100
0000
,
0001
0000
0000
0000
,
1000
0100
0001
0100
,
1000
0100
0001
0100
,
1000
0010
0100
0010
,
1000
0001
0010
0100
,
1000
0000
0000
0000
;

//--------------- dance-single - Talkion ----------------
#NOTES:
     dance-single:
     Talkion:
     Medium:
     10:
     0,0,0,0,0:
0000
0000
0000
0000
,
0000
0000
0000
0000
,
0000
0000
0000
0000
,
0000
0000
0000
0000
,
0000
0000
0000
0000
,
0001
0010
0100
0000
1000
0100
0010
0000
,
0001
1000
0001
0000
0100
0010
1000
0000
,
0100
1000
0001
0000
0100
1000
0001
0000
,
0101
0000
0110
0000
0010
0010
1000
1000
,
0001
0011
0010
1020
,
0031
0100
1000
0100
0001
0000
1001
0000
,
1000
0100
0010
0000
1000
0010
0001
0000
,
1000
0001
0100
0010
1000
0001
1000
1000
,
0001
0101
0100
1200
,
0301
0010
1000
0010
0001
0000
1001
0000
,
1000
0000
0000
0010
0000
0000
0100
0000
0000
0001
0000
0000
1000
0000
0000
0100
0000
0000
0010
0000
0000
0000
0000
0011
,
0000
0000
0000
0001
0000
0000
1000
0000
0000
0000
0000
1001
0000
0000
0000
0001
0000
0000
0100
0000
0000
0000
0000
0000
,
0010
1000
0100
0000
0010
0001
0100
0000
,
1000
0100
0001
1000
0010
0001
1000
0000
,
0100
0001
0010
0000
0100
1000
0010
0000
,
0001
0000
0000
0010
0000
0000
1000
0000
0000
0000
0000
1001
0000
0000
0000
0001
0000
0000
1000
0000
0000
1000
0000
0000
,
0001
0010
0100
0000
1000
0010
0100
0000
,
1000
0100
0001
1000
0010
0001
1000
0100
,
0001
0000
0000
0010
0000
0000
0100
0000
0000
0000
0000
0000
1000
0000
0000
0010
0000
0000
0100
0000
0000
0000
0000
0110
,
0000
0000
0000
0010
0000
0000
1000
0000
0000
0000
0000
1001
0000
0000
0000
0001
0000
0000
0010
0000
0000
0100
0000
0000
,
1000
0000
0000
0000
,
0000
0000
0000
0000
,
1000
1000
0001
0001
,
0100
0100
0010
0010
,
1000
0100
1000
0000
0001
0100
0001
0000
,
1000
0010
1000
0000
0001
0010
0001
0000
,
1000
0100
0010
0000
0001
0010
0100
0000
,
1000
0000
0000
0000
0000
0000
0001
0000
0000
0000
0000
0100
0000
0000
0000
0000
0000
0000
0000
0000
0000
0000
0000
0000
,
0010
0010
1000
0000
0100
0100
1000
0000
,
0001
0100
1000
0000
1000
0100
0001
0000
,
0010
0010
0001
0000
0100
0100
0001
0000
,
1100
0101
1100
1001
,
0001
0001
0010
0000
1000
1000
0010
0000
,
0001
0010
0100
0000
0001
0100
0010
0000
,
0001
0001
1000
0000
0010
0010
0100
0000
,
1001
0000
0000
0000
,
0001
0100
0010
0000
1000
0010
0100
0000
,
0001
1000
0100
0000
0001
0100
1000
0000
,
0010
1000
0001
0000
0010
0001
1000
0000
,
0010
0100
0001
0000
1000
0100
0001
0000
,
0100
1000
0010
0000
0100
0001
0010
0000
,
1000
0010
0001
0000
1000
0010
0100
0000
,
0010
1000
0100
0000
0010
0001
0100
0000
,
0110
0000
1010
0000
1000
1000
0001
0001
,
0010
0100
1000
0001
0010
1000
0001
0100
,
1000
0010
0100
0001
0100
0010
1000
0000
,
0001
0010
0100
1000
0001
0100
1000
0001
,
1000
0100
0001
0010
0100
1000
0001
0001
,
0100
0010
1000
0001
0100
1000
0001
0010
,
1000
0100
0010
0001
0010
0100
1000
0000
,
0001
0100
0010
0001
1000
0100
0010
1000
,
0001
0000
0000
0000
0000
0000
0001
0001
,
1000
0000
0100
0000
1000
0100
0010
0000
,
0001
0000
0100
0000
0001
0100
0010
0000
,
0001
0000
0010
0000
0001
0010
1000
0000
,
0100
0000
1000
0000
0100
1000
0010
0000
,
0110
0000
0000
0000
;

//--------------- dance-single - Talkion ----------------
#NOTES:
     dance-single:
     Talkion:
     Hard:
     13:
     0,0,0,0,0:
0000
0000
0000
0000
,
0000
0000
0000
0000
,
0000
0000
0000
0000
,
0000
0000
0000
0000
,
0000
0000
0000
0000
,
0001
0000
0000
0010
0000
0000
0100
0000
0000
1000
0000
0000
0001
0000
0100
0000
0000
0200
0000
0000
0000
1300
0000
0000
,
0001
0000
0000
0001
0000
0000
0010
0000
0000
0000
0000
1010
0000
0000
0000
1000
0000
0000
0001
0000
0000
0010
0000
0000
,
0100
0000
0000
0010
0000
0000
0001
0000
0000
0100
0000
0000
0010
0000
1000
0000
0000
2000
0000
0000
0000
3001
0000
0000
,
0011
0000
0110
0000
1100
0101
0010
0010
,
1000
0000
0000
0001
0000
0020
0000
0000
1030
0000
0000
0000
0001
0000
0020
0000
0000
1030
0000
0000
0000
0001
0100
0001
,
0100
0000
0000
0001
0000
0000
1000
0000
0100
0010
0000
0100
0010
0000
0000
0001
0000
0000
1000
0000
0000
0001
0000
0000
,
0100
0000
0000
1000
0000
0000
0001
0000
0000
0010
0000
0100
0000
0000
0100
0010
0000
0000
2000
0000
0000
3001
0000
0000
,
0010
0000
0000
0100
0000
0000
1000
0000
0001
0100
0000
0001
0100
0000
0000
0010
0000
0000
1000
0000
0000
1000
0000
0000
,
0001
0000
0000
1000
0000
0200
0000
0000
0301
0000
0000
0000
1000
0000
0200
0000
0000
0301
0000
0000
0000
1000
0010
1000
,
0010
0000
0000
1000
0000
0000
0001
0000
0010
0100
0000
0010
0100
0000
0000
1000
0000
0000
0001
0000
0000
1000
0000
0000
,
0010
0000
0000
0001
0000
0000
1000
0000
0000
0100
0000
0010
0000
0000
0010
0100
0000
0000
0010
0000
0000
0000
0000
1001
,
0000
0000
0000
0001
0000
0000
0010
0000
0100
0010
0000
0100
0000
0000
0000
1000
0000
0000
1001
0000
0000
0101
0000
0000
,
0100
0000
0000
0010
0000
1000
0000
0000
0100
1000
0000
0000
0010
0000
0000
0100
0000
0001
0000
0000
0010
0001
0000
0000
,
0100
0000
0000
0010
0000
0000
0100
0000
0010
0000
0000
0110
0000
0000
0000
0010
0000
0000
1000
0000
0000
0100
0000
0000
,
0010
0000
0000
0001
0000
1000
0000
0000
0100
1000
0000
0000
0010
0000
0000
1000
0000
0001
0000
0000
0100
0001
0000
0000
,
0010
0000
0100
0000
0000
0100
0000
0000
1000
0001
0000
0200
0000
0000
0000
0310
0000
0000
0110
0000
0000
0100
0000
0000
,
0001
0000
0000
1000
0000
0100
0000
0000
0001
0100
0000
0000
1000
0000
0000
0001
0000
0100
0000
0000
1000
0100
0000
0000
,
0001
0000
0000
1000
0000
0000
0001
0000
0100
0000
0000
0101
0000
0000
0000
0001
0000
0000
0010
0000
0000
0100
0000
0000
,
1000
0000
0000
0001
0000
0010
0000
0000
1000
0010
0000
0000
0001
0000
0000
1000
0000
0010
0000
0000
0010
0100
0000
0002
,
0000
0000
0000
1003
0000
0000
0001
0000
0010
0000
0000
1010
0000
0000
0000
1000
0000
0000
0010
0000
0000
0001
0000
0000
,
1001
0000
0000
0000
,
0000
0000
0000
0000
,
0001
0001
0100
0000
1000
1000
0100
0000
,
0001
0000
0000
0100
0000
0000
0010
0000
0000
0000
0000
1010
0000
0000
0000
1000
0000
0000
1100
0000
0000
0000
0000
0000
,
0100
0100
0001
0000
0100
0100
1000
0000
,
0100
0000
0000
0010
0000
0000
0001
0000
0000
0000
0000
1001
0000
0000
0000
1000
0000
0000
1010
0000
0000
0000
0000
0000
,
0010
0010
0001
0000
0010
0010
1000
0000
,
0100
0000
0000
0010
0000
0000
0001
0000
0000
0000
0000
1001
0000
0000
0000
0000
0000
0000
0000
0000
0000
0000
0000
0000
,
1000
0000
0000
0010
0000
0000
0001
0000
0000
0000
0000
0110
0000
0000
0000
1000
0000
0000
0001
0000
0000
0000
0000
0000
,
1000
0000
0000
0100
0000
0000
0001
0000
0000
0000
0000
0110
0000
0000
0000
1000
0000
0000
0001
0000
0000
0000
0000
0000
,
1000
0010
0001
1000
0001
0010
1000
0100
,
0110
0001
0110
1000
0110
0001
1001
0000
,
0001
0000
0000
0100
0000
0000
1000
0000
0000
0000
0000
0110
0000
0000
0000
0001
0000
0000
1000
0000
0000
0000
0000
0000
,
0001
0000
0000
0010
0000
0000
1000
0000
0000
0000
0000
0110
0000
0000
0000
0001
0000
0000
1000
0000
0000
0000
0000
0000
,
0001
0100
1000
0001
1000
0100
0001
0010
,
0100
0000
0000
0000
,
1000
0000
0000
0010
0000
0000
0100
0000
0000
0001
0000
0000
1000
0000
0100
0000
0000
0200
0000
0000
0000
0301
0000
0000
,
1000
0000
0000
1000
0000
0000
0010
0000
0000
0000
0000
0011
0000
0000
0000
0001
0000
0000
1000
0000
0000
0010
0000
0000
,
0100
0000
0000
0010
0000
0000
1000
0000
0000
0100
0000
0000
0010
0000
0001
0000
0000
0002
0000
0000
0000
1003
0000
0000
,
0010
0100
0010
0001
0010
1000
0100
0010
,
0001
0000
0000
0010
0000
0000
0100
0000
0000
1000
0000
0000
0010
0000
0001
0000
0000
0002
0000
0000
0000
1003
0000
0000
,
0100
0000
0000
0100
0000
0000
0001
0000
0000
0000
0000
0011
0000
0000
0000
0010
0000
0000
0100
0000
0000
1000
0000
0000
,
0001
0000
0000
1000
0000
0000
0010
0000
0000
0100
0000
0000
0001
0000
1000
0000
0000
2000
0000
0000
0000
3100
0000
0000
,
0101
0000
1100
0000
1010
0011
0100
0100
,
1000
0000
0001
0100
0000
0000
0010
0000
0000
1000
0000
0000
0001
0000
0010
0000
0000
0020
0000
0000
0000
0130
0000
0000
,
1000
0000
0000
1000
0000
0000
0001
0000
0100
0010
0000
1000
0000
0000
0000
0001
0000
0000
0011
0000
0000
0010
0000
0000
,
0001
0000
1000
0010
0000
0000
0100
0000
0000
0001
0000
0000
1000
0000
0100
0000
0000
0200
0000
0000
0000
0301
0000
0000
,
0100
0000
0010
0000
0000
0100
0000
0000
0010
0000
0000
0001
0000
0000
1000
0010
0000
0000
0100
0000
0000
0100
0000
0000
,
0001
0000
1000
0100
0000
0000
0001
0000
0000
0100
0000
0000
1000
0000
0001
0000
0000
0002
0000
0000
0000
0103
0000
0000
,
0010
0000
0000
0010
0000
0000
0001
0000
0010
0100
0000
0002
0000
0000
0000
1003
0000
0000
0100
0000
0000
0100
0000
0000
,
1000
0000
0001
0010
0000
0000
1000
0000
0000
0010
0000
0000
0001
0000
1000
0000
0000
2000
0000
0000
0000
3010
0000
0000
,
0100
0000
0000
0000
0000
0000
0100
0100
,
0001
0000
0011
0000
0010
0100
1000
0000
,
1000
0010
0001
0010
1000
0010
0100
0000
,
0001
0000
1001
0000
1000
0100
0010
0000
,
0010
0001
0100
0010
1000
0100
0010
0001
,
1001
0000
0000
0000
;

//--------------- dance-single - Talkion ----------------
#NOTES:
     dance-single:
     Talkion:
     Challenge:
     15:
     0,0,0,0,0:
0000
0000
0000
0000
,
0000
0000
0000
0000
,
0000
0000
0000
0000
,
0000
0000
0000
0000
,
0000
0000
0000
0000
,
0010
0000
1000
0001
0000
0000
0010
0000
0000
0100
0000
0000
1000
0000
0001
0000
0000
0002
0000
0000
0000
0103
0000
0000
,
0010
0000
0000
0010
0000
0000
1000
0000
0001
0010
0000
0200
0000
0000
0000
0310
0000
0000
0011
0000
0000
0101
0000
0000
,
0100
0000
0001
1000
0000
0000
0100
0000
0000
0010
0000
0000
0001
0000
0100
0000
0000
0200
0000
0000
0000
1300
0000
0000
,
1100
0000
0101
0000
0110
1010
1001
0110
,
0001
0000
0000
1000
0000
0010
0000
0000
M011
0000
0000
0000
0001
0000
0100
0000
0000
110M
0000
0000
0000
1000
0001
1000
,
0001
0000
0000
0010
0000
0000
0100
0000
1000
0001
0000
1000
0001
0000
0100
0010
0000
1000
0001
0000
0000
0010
0000
0000
,
1000
0000
0000
0010
0000
0000
0011
0000
0000
0001
0000
0100
0000
0000
0100
0010
0000
1000
0020
0000
0000
0130
0000
0000
,
0001
0000
0000
1000
0000
0000
0100
0000
0010
0001
0000
0010
0001
0000
0000
1000
0000
0000
1010
0000
0000
0011
0000
0000
,
0010
0000
0000
0001
0000
0100
0000
0000
110M
0000
0000
0000
1000
0000
0010
0000
0000
M011
0000
0000
0000
0001
1000
0001
,
1000
0000
0000
0100
0000
0000
0010
0000
0001
1000
0000
0001
1000
0000
0010
0100
0000
0001
1000
0000
0000
0100
0000
0000
,
0001
0000
0000
0100
0000
0000
1100
0000
0000
1000
0000
0001
0000
0000
0001
0100
0000
0010
1000
0000
0001
1000
0000
0200
,
0000
0000
0000
0310
0000
0000
0001
0000
1000
0010
0000
0002
0000
0000
0013
1000
0000
0000
1001
0000
0000
0011
0000
0000
,
0020
0000
0000
0130
0000
1000
0000
0000
0001
0100
0000
0000
0020
0000
0000
0130
0000
0001
0000
0000
1000
0100
0000
0010
,
0001
0000
0000
1000
0000
0000
0001
0000
0100
0000
0000
0110
0000
0000
0000
1010
0000
0000
1001
0000
0000
1100
0000
0000
,
0200
0000
0000
0310
0000
0001
0000
0000
1000
0010
0000
0000
0200
0000
0000
0301
0000
1000
0000
0000
0001
0010
0000
0010
,
1000
0000
0010
0000
0000
0002
0000
0000
1003
0010
0000
0200
0000
0000
0000
0301
0000
0000
0101
0000
0000
1100
0000
0000
,
2000
0000
0000
3100
0000
0010
0000
0000
0001
1000
0000
0000
0002
0000
0000
0103
0000
0010
0000
0000
1000
0001
0000
0010
,
0100
0000
0000
0010
0000
0000
0001
0000
1000
0000
0000
1001
0000
0000
0000
1010
0000
0000
0110
0000
0000
0101
0000
0000
,
0002
0000
0000
0013
0000
0100
0000
0000
1000
0001
0000
0000
2000
0000
0000
3010
0000
0001
0000
0000
0010
1000
0000
0200
,
0000
0000
0000
0310
0001
0010
0001
0000
1000
0000
0000
1020
0000
0000
0000
0130
0000
0000
0101
0000
0000
1100
0000
0000
,
1001
0000
0000
0000
,
0000
0000
0000
0000
,
0001
0010
0100
0000
1000
0010
0100
0000
,
0001
0000
0000
1000
0000
0000
0001
0000
0000
0000
0000
0011
0000
0000
0000
0010
0000
0000
0110
0000
0000
0000
0000
0000
,
1000
0010
0001
0000
1000
0100
0001
0000
,
1000
0000
0000
0100
0000
0000
0010
0000
0000
0000
0000
0011
0000
0000
0000
0001
0000
0000
1001
0000
0000
0000
0000
0000
,
0001
0100
1000
0000
0001
0010
1000
0000
,
0100
0000
0000
0010
0000
0000
0001
0000
0000
0000
0000
0101
0000
0000
0000
0000
0000
0000
0000
0000
0000
0000
0000
0000
,
0100
0000
0000
0010
0000
0000
0010
0000
1000
0001
0000
0020
0000
0000
0000
0130
0000
0000
1000
0000
0001
0100
0000
0010
,
1000
0000
0000
0001
0000
1000
0100
0000
0010
0000
0000
0002
0000
0000
0000
1003
0000
0000
1010
0000
0000
0000
0000
0000
,
0010
0000
0000
0100
0000
0000
0001
0000
0000
1000
0000
0000
0100
0000
1000
0001
0000
0100
0000
0000
0010
0000
0000
1000
,
0001
0010
1100
0010
0101
1000
1010
0000
,
0010
0000
0000
0100
0000
0000
0100
0000
0001
1000
0000
0200
0000
0000
0000
0310
0000
0000
0001
0000
1000
0010
0000
0100
,
0001
0000
0000
1000
0000
0001
0010
0000
0100
0000
0000
2000
0000
0000
0000
3001
0000
0000
0101
0000
0000
0000
0000
0000
,
0100
0000
0000
1000
0000
0000
0001
0000
0000
0010
0000
0000
1000
0000
0001
0010
0000
0100
0000
0000
0010
0000
0000
0001
,
1000
0000
0000
0000
,
0001
0000
1000
0010
0000
0000
0100
0000
0000
0001
0000
0000
1000
0000
0100
0000
0000
0200
0000
0000
0000
0310
0000
0000
,
0001
0000
0000
0001
0000
0000
0100
0000
0010
1000
0000
0002
0000
0000
0000
0013
0000
0000
0011
0000
0000
1001
0000
0000
,
1000
0000
0001
0100
0000
0000
0010
0000
0000
1000
0000
0000
0001
0000
0010
0000
0000
0020
0000
0000
0000
0130
0000
0000
,
1000
0000
0001
0000
0000
0100
0000
0000
0010
0000
0000
1000
0000
0000
0001
1000
0000
0100
1000
0000
0000
0001
0000
0000
,
0100
0000
0010
1000
0000
0000
0001
0000
0000
0010
0000
0000
0100
0000
1000
0000
0000
2000
0000
0000
0000
3010
0000
0000
,
0001
0000
0000
0001
0000
0000
0010
0000
1000
0001
0000
0020
0000
0000
0000
0031
0000
0000
1001
0000
0000
1010
0000
0000
,
0010
0000
0100
0001
0000
0000
1000
0000
0000
0100
0000
0000
0010
0000
0001
0000
0000
0002
0000
0000
0000
0103
0000
0000
,
0110
0000
1010
0000
1001
0011
0110
1100
,
1000
0000
0001
0100
0000
0000
1000
0000
0000
0100
0000
0001
1000
0000
0100
0000
0000
M101
0000
0000
0001
0010
0000
0100
,
1000
0000
0000
1000
0000
0000
0001
0000
0100
0010
0000
1000
0000
0000
0001
0010
0000
0010
0100
0000
0100
1000
0000
0000
,
0001
0000
1000
0100
0000
0000
0001
0000
0000
0100
0000
1000
0001
0000
0100
0000
0000
110M
0000
0000
1000
0010
0000
0100
,
0001
0000
1000
0000
0000
1100
0000
0000
0101
0000
0000
1001
0000
0000
0001
1000
0000
0100
0010
0000
0000
0010
0000
0000
,
0001
0000
1000
0010
0000
0000
0001
0000
0000
0010
0000
1000
0001
0000
0010
0000
0000
101M
0000
0000
1000
0001
0000
0010
,
0100
0000
0000
0100
0000
0000
0001
0000
0100
1000
0000
0001
0000
0000
1000
0010
0000
0010
0100
0000
0100
0001
0000
0000
,
1000
0000
0001
0010
0000
0000
1000
0000
0000
0010
0000
0001
1000
0000
0010
0000
0000
M011
0000
0000
0001
0010
0000
0100
,
1000
0000
0000
0000
0000
0000
1001
1001
,
1020
0000
0031
0000
1000
0100
0001
0000
,
1000
0000
0000
0100
0000
0000
0001
0000
0000
0000
0000
0101
0000
0000
0000
0100
0000
0000
1001
0000
0000
0000
0000
0000
,
0201
0000
1300
0000
0001
0010
1000
0000
,
0001
0000
0000
0010
0000
0000
1000
0000
0000
0000
0000
1010
0000
0000
0000
0010
0000
0000
0001
0000
0000
1000
0000
0000
,
1001
0000
0000
0000
;

//--------------- dance-double - Talkion ----------------
#NOTES:
     dance-double:
     Talkion:
     Edit:
     15:
     0,0,0,0,0:
00000000
00000000
00000000
00000000
,
00000000
00000000
00000000
00000000
,
00000000
00000000
00000000
00000000
,
00000000
00000000
00000000
00000000
,
00000000
00000000
00000000
00000000
,
10000000
00000000
00000000
01000000
00000000
00000000
00100000
00000000
00000000
00001000
00000000
00000000
00010000
00000000
00001000
00000000
00000000
00001000
00000000
00000000
00000000
00000100
00000000
00000000
,
00000001
00000000
00000000
00000001
00000000
00000000
00001000
00000000
00000100
00010000
00000000
00002000
00000000
00000000
00000000
00103000
00000000
00000000
00010000
00000000
00000000
01000000
00000000
00000000
,
00100000
00000000
00000000
01000000
00000000
00000000
00001000
00000000
00000000
00010000
00000000
00000000
00000100
00000000
00001000
00000000
00000000
00001000
00000000
00000000
00000000
00000001
00000000
00000000
,
00000101
00000000
00010100
00000000
01010000
01100000
10100000
10010000
,
00010000
00000000
00000000
00100000
00000000
00001000
00000000
00000000
00M01100
00000000
00000000
00000000
00000100
00000000
00010000
00000000
00000000
00110M00
00000000
00000000
00000000
00100000
01000000
00100000
,
01000000
00000000
00000000
10000000
00000000
00000000
00010000
00000000
01000000
00100000
00000000
01000000
00100000
00000000
10000000
00010000
00000000
00100000
00001000
00000000
00000000
00010000
00000000
00000000
,
00001000
00000000
00000000
00000010
00000000
00000000
00000001
00000000
00000000
00001000
00000000
00000010
00000000
00000000
00000010
00000100
00000000
00000010
00000200
00000000
00000000
00001300
00000000
00000000
,
00010000
00000000
00000000
01000000
00000000
00000000
10000000
00000000
00010000
00100000
00000000
00010000
00100000
00000000
00000000
00001000
00000000
00000000
00001010
00000000
00000000
00000011
00000000
00000000
,
00000010
00000000
00000000
00000100
00000000
00001000
00000000
00000000
00101M00
00000000
00000000
00000000
00100000
00000000
00010000
00000000
00000000
00M10100
00000000
00000000
00000000
00000100
00000010
00000100
,
00000010
00000000
00000000
00000001
00000000
00000000
00001000
00000000
00000100
00010000
00000000
00000100
00010000
00000000
00001000
00100000
00000000
00010000
01000000
00000000
00000000
00100000
00000000
00000000
,
01000000
00000000
00000000
00001000
00000000
00000000
00000100
00000000
00000000
00000001
00000000
00001000
00000000
00000000
00001000
00000100
00000000
00010000
00001000
00000000
00100000
00010000
00000000
02000000
,
00000000
00000000
00000000
03001000
00000000
00000000
00010000
00000000
00000100
00001000
00000000
00000020
00000000
00000000
00000130
00000001
00000000
00000000
00001001
00000000
00000000
00001100
00000000
00000000
,
00000200
00000000
00000000
00010300
00000000
01000000
00000000
00000000
00010000
00001000
00000000
00000000
02000000
00000000
00000000
03010000
00000000
00001000
00000000
00000000
00000100
00001000
00000000
00000010
,
00000100
00000000
00000000
00000001
00000000
00000000
00001000
00000000
00000100
00000000
00000000
00010100
00000000
00000000
00000000
00010000
00000000
00000000
01000000
00000000
00000000
10000000
00000000
00000000
,
00200000
00000000
00000000
00310000
00000000
00001000
00000000
00000000
00000010
00001000
00000000
00000000
00000020
00000000
00000000
00001030
00000000
00010000
00000000
00000000
00100000
01000000
00000000
01000000
,
00100000
00000000
10000000
00000000
00000000
00020000
00000000
00000000
00130000
00001000
00000000
00011000
00000000
00000000
00000000
00001000
00000000
00000000
00001010
00000000
00000000
00000011
00000000
00000000
,
00000002
00000000
00000000
00000103
00000000
00001000
00000000
00000000
01000000
00010000
00000000
00000000
20000000
00000000
00000000
31000000
00000000
00010000
00000000
00000000
00000100
00001000
00000000
00000001
,
00000100
00000000
00000000
00000010
00000000
00000000
00010000
00000000
00001000
00000000
00000000
00101000
00000000
00000000
00000000
00100000
00000000
00000000
01000000
00000000
00000000
10000000
00000000
00000000
,
00020000
00000000
00000000
00031000
00000000
00000100
00000000
00000000
00000010
00010000
00000000
00000000
00002000
00000000
00000000
00013000
00000000
01000000
00000000
00000000
00100000
01000000
00000000
00020000
,
00000000
00000000
00000000
10030000
00100000
10000000
00100000
00000000
01000000
00000000
00000000
01010000
00000000
00000000
00000000
00101000
00000000
00000000
00011000
00000000
00000000
00001010
00000000
00000000
,
00000110
00000000
00000000
00000000
,
00000000
00000000
00000000
00000000
,
00000001
00000010
00001000
00000000
00000010
00001000
00010000
00000000
,
00001000
00000000
00000000
00010000
00000000
00000000
01000000
00000000
00000000
00000000
00000000
01100000
00000000
00000000
00000000
00100000
00000000
00000000
10010000
00000000
00000000
00000000
00000000
00000000
,
10000000
00100000
00010000
00000000
00001000
00000010
00000001
00000000
,
00001000
00000000
00000000
00000001
00000000
00000000
00000100
00000000
00000000
00000000
00000000
00000110
00000000
00000000
00000000
00000010
00000000
00000000
00010010
00000000
00000000
00000000
00000000
00000000
,
00010000
00001000
00000010
00000000
00010000
00001000
00000100
00000000
,
00010000
00000000
00000000
01000000
00000000
00000000
10000000
00000000
00000000
00000000
00000000
10010000
00000000
00000000
00000000
00000000
00000000
00000000
00000000
00000000
00000000
00000000
00000000
00000000
,
10000000
00000000
00000000
00100000
00000000
00000000
00100000
00000000
01000000
00001000
00000000
00020000
00000000
00000000
00000000
00031000
00000000
00000000
00000010
00000000
00000100
00000010
00000000
00000001
,
00001000
00000000
00000000
00000100
00000000
00010000
00000010
00000000
00001000
00000000
00000000
00000200
00000000
00000000
00000000
00010300
00000000
00000000
00011000
00000000
00000000
00000000
00000000
00000000
,
00001000
00000000
00000000
00010000
00000000
00000000
01000000
00000000
00000000
10000000
00000000
00000000
00100000
00000000
01000000
00010000
00000000
00100000
00000000
00000000
00001000
00000000
00000000
00010000
,
00000100
00000010
00001001
00000100
00001001
00000010
00011000
00000000
,
00001000
00000000
00000000
00010000
00000000
00000000
00010000
00000000
00000100
00001000
00000000
00000002
00000000
00000000
00000000
00000103
00000000
00000000
00000010
00000000
00001000
00000010
00000000
00010000
,
00001000
00000000
00000000
00100000
00000000
00010000
01000000
00000000
00001000
00000000
00000000
00200000
00000000
00000000
00000000
00310000
00000000
00000000
10010000
00000000
00000000
00000000
00000000
00000000
,
10000000
00000000
00000000
00100000
00000000
00000000
00001000
00000000
00000000
00000010
00000000
00000000
00000100
00000000
00000010
00000100
00000000
00000001
00000000
00000000
00001000
00000000
00000000
00000100
,
00010000
00000000
00000000
00000000
,
00001000
00000000
00000000
00010000
00000000
00000000
01000000
00000000
00000000
10000000
00000000
00000000
00010000
00000000
00100000
00000000
00000000
00200000
00000000
00000000
00000000
00301000
00000000
00000000
,
00000010
00000000
00000000
00000010
00000000
00000000
00000001
00000000
00001000
00000100
00000000
00020000
00000000
00000000
00000000
01030000
00000000
00000000
00100000
00000000
00000000
00001000
00000000
00000000
,
00010000
00000000
00000000
00001000
00000000
00000000
00000100
00000000
00000000
00000001
00000000
00000000
00001000
00000000
00000010
00000000
00000000
00000020
00000000
00000000
00000000
00000130
00000000
00000000
,
00001000
00000000
00010000
00000000
00000000
01000000
00000000
00000000
10000000
00000000
00000000
00200000
00000000
00000000
00000000
01300000
00000000
00000000
01010000
00000000
00000000
10010000
00000000
00000000
,
10000000
00000000
00000000
01000000
00000000
00000000
00100000
00000000
00000000
00001000
00000000
00000000
00010000
00000000
00001000
00000000
00000000
00001000
00000000
00000000
00000000
00000100
00000000
00000000
,
00000001
00000000
00000000
00000001
00000000
00000000
00001000
00000000
00000100
00010000
00000000
00002000
00000000
00000000
00000000
00103000
00000000
00000000
00010000
00000000
00000000
01000000
00000000
00000000
,
00100000
00000000
00000000
01000000
00000000
00000000
00001000
00000000
00000000
00010000
00000000
00000000
00000100
00000000
00001000
00000000
00000000
00001000
00000000
00000000
00000000
00000001
00000000
00000000
,
00000101
00000000
00010100
00000000
01010000
01100000
10100000
10010000
,
00010000
00000000
00100000
00001000
00000000
00000000
00000010
00000000
00000000
00000001
00000000
00001000
00000100
00000000
00010000
00000000
00000000
01010M00
00000000
00000000
01000000
00100000
00000000
10000000
,
00010000
00000000
00000000
00010000
00000000
00000000
00100000
00000000
00001000
00010000
00000000
00000100
00000000
00000000
00000100
00001000
00000000
00001000
00000001
00000000
00000001
00000100
00000000
00000000
,
00001000
00000000
00010000
00000100
00000000
00000000
00010000
00000000
00000000
01000000
00000000
10000000
00010000
00000000
00100000
00000000
00000000
101M0000
00000000
00000000
10000000
00100000
00000000
01000000
,
00010000
00000000
00100000
00000000
00000000
00101000
00000000
00000000
00011000
00000000
00000000
00010100
00000000
00000000
00000100
00000010
00000000
00000001
00001000
00000000
00000000
00001000
00000000
00000000
,
00000010
00000000
00001000
00010000
00000000
00000000
00100000
00000000
00000000
00010000
00000000
00001000
00000010
00000000
00000100
00000000
00000000
000101M0
00000000
00000000
00010000
00001000
00000000
00100000
,
00010000
00000000
00000000
00010000
00000000
00000000
10000000
00000000
00100000
01000000
00000000
00010000
00000000
00000000
00010000
00100000
00000000
00100000
00001000
00000000
00001000
00010000
00000000
00000000
,
00001000
00000000
00010000
01000000
00000000
00000000
00010000
00000000
00000000
01000000
00000000
00010000
00001000
00000000
00100000
00000000
00000000
1010M000
00000000
00000000
10000000
00100000
00000000
00010000
,
00001000
00000000
00000000
00000000
00000000
00000000
00010000
00010000
,
00001000
00000010
00000001
00000000
00001000
00010000
01000000
00000000
,
00001000
00000000
00000000
00000100
00000000
00000000
00000001
00000000
00000000
00000000
00000000
00001001
00000000
00000000
00000000
00001000
00000000
00000000
00010000
00000000
00000000
10000000
00000000
00000000
,
01000000
00010000
00001000
00000000
00000001
00001000
00010000
00000000
,
01000000
00000000
00000000
10000000
00000000
00000000
00100000
00000000
00000000
00000000
00000000
01100000
00000000
00000000
00000000
01000000
00000000
00000000
00001000
00000000
00000000
00010000
00000000
00000000
,
00011000
00000000
00000000
00000000
;
