#TITLE:BurningMan;
#SUBTITLE:;
#ARTIST:Zpinkpong;
#TITLETRANSLIT:;
#SUBTITLETRANSLIT:;
#ARTISTTRANSLIT:;
#GENRE:;
#CREDIT:;
#BANNER:banner.png;
#BACKGROUND:background.png;
#LYRICSPATH:;
#CDTITLE:;
#MUSIC:BurningMan.ogg;
#OFFSET:-0.069000;
#SAMPLESTART:36.772884;
#SAMPLELENGTH:11.294117;
#SELECTABLE:YES;
#BPMS:0.000000=85.000000
,20.000000=170.000000
,164.000000=85.000000
,173.000000=170.000000
;
#STOPS:172.000000=0.706000,
277.666656=1.059000,
284.000000=0.353000,
291.000000=0.353000,
298.000000=0.353000
;
#BGCHANGES:;
#KEYSOUNDS:;
#ATTACKS:;

//---------------dance-single - ----------------
#NOTES:
     dance-single:
     :
     Hard:
     15:
     0.666573,0.906329,0.238874,0.095550,1.059010,586.000000,556.000000,30.000000,12.000000,0.000000,0.000000,0.666573,0.906329,0.238874,0.095550,1.059010,586.000000,556.000000,30.000000,12.000000,0.000000,0.000000:
0000
0000
0000
0000
,
0000
0000
0000
0000
,
1000
0000
0000
0010
0000
0000
0000
0000
,
0100
0000
0000
0010
0000
0000
0000
0000
,
2000
0000
0000
3000
,
0001
0010
0100
0010
,
0001
0001
2000
3002
,
0013
0001
0100
0010
,
0100
0100
0020
2030
,
3100
1000
0001
0010
,
0100
0100
0020
0032
,
1003
0010
0100
0001
,
1000
0001
1000
0001
1000
0001
1000
0001
1000
0001
1000
0001
,
1000
0100
0010
0100
1000
0010
0100
0000
0010
0100
0001
1000
,
0001
0010
0100
0010
0001
0100
0010
0000
0000
0000
0000
0000
,
0100
0001
0010
0001
1000
0010
1000
0000
0010
0100
0001
1000
,
0100
1000
0001
0100
0001
1000
0001
0000
0000
0000
0000
0000
,
1000
0010
0100
0010
1000
0100
0010
0000
0100
0010
0001
1000
,
0001
0100
0001
0010
0001
0100
0010
0000
0000
0000
0000
0000
,
0010
1000
0001
0010
0001
1000
0010
0100
0010
0100
0001
1000
,
0100
1000
0001
0100
0001
1000
0100
0000
0000
0000
0000
0000
,
1000
0010
1000
0010
0100
0010
0100
0001
0100
0001
0010
0001
,
0010
0100
0010
0100
1000
0100
1000
0001
1000
0001
0100
0001
,
0010
0100
0010
0100
1000
0100
1000
0001
0100
0001
0100
0010
,
0100
0001
0100
0010
1000
0010
1000
0001
1000
0010
0100
0001
,
1000
0001
0010
0001
1000
0010
1000
0001
0010
0001
1000
0010
,
1000
0001
0010
0001
1000
0010
1000
0001
0010
0001
1000
0100
,
1000
0000
0000
0000
0100
0000
0010
0001
0010
0001
0010
0001
0020
0000
0000
0030
0000
0000
0020
0000
0000
0030
0000
0000
,
0100
0010
0001
1000
0100
0010
0001
0010
0100
0010
0001
1000
,
0100
1000
0010
0100
0010
1000
0010
0100
0010
1000
0010
0100
,
0001
0010
0100
0010
0001
1000
0010
0100
0010
1000
0001
0010
,
0100
0010
0001
0010
0100
0010
0001
0100
0010
0100
0001
0010
,
0001
1000
0001
0100
0010
1000
0001
0010
0100
0010
0001
1000
,
0010
1010
1000
0011
,
0100
1001
0010
1010
,
1000
1100
0100
0011
,
0100
1001
0100
0110
,
1000
0101
0001
0110
,
1000
1001
0010
1010
,
1000
0011
0100
1001
,
0001
0100
0001
1000
0010
1000
0001
1000
0010
0100
0001
1000
,
0100
0000
0000
1000
0000
0000
0000
0000
,
0010
0000
0000
0200
0000
0000
0000
0000
,
0301
0000
1001
0000
0001
0100
0010
1000
,
1100
0000
0100
0010
0100
1000
1100
1000
,
0001
0000
0101
0000
0001
0100
0010
1000
,
1100
0000
0100
0010
0100
1000
0000
1001
,
0000
0000
0110
0000
0100
0001
0010
0100
,
0110
0000
0100
0010
0001
1000
1010
0010
,
0100
0001
0011
0000
0010
0001
0100
0001
,
1001
0000
1000
0001
0010
0100
0000
1001
,
0000
0000
0000
1010
0000
0000
1000
0100
0010
0001
0000
0000
,
0010
0001
0100
0010
0000
0000
0100
0010
1000
0001
0000
0000
,
1000
0001
0100
0001
0000
0000
0010
0001
1000
0100
0000
0000
,
1000
0010
0100
0001
0000
0000
1000
0010
1000
0100
0000
0000
,
0010
0001
0100
0010
1000
0010
0100
0001
0010
0100
1000
0100
,
0010
0000
0000
0000
0001
0000
0000
0000
0100
0000
0000
0000
0010
0000
0000
0100
0000
0000
0010
0000
0000
0100
0000
0000
0010
0000
0000
0100
0000
0000
0010
0000
0000
0100
0000
0000
0010
0000
0000
0100
0000
0000
0010
0000
0000
0100
0000
0000
,
0010
0100
0010
0100
0010
0000
1000
0000
0001
0000
0010
0000
0000
0000
0100
0000
,
0010
0001
0010
0000
0001
0000
0000
1000
0000
0000
0010
0000
0100
0000
1001
0000
,
0000
0000
1000
0100
1000
0010
0000
0100
,
0010
0000
0000
1000
0000
0000
0010
0000
0000
0000
0000
0000
0100
0000
0000
0000
0000
0000
0000
0000
0000
0001
0000
0000
0000
0000
0000
0000
0000
0000
0010
0000
0000
0000
0000
0000
0001
0000
0000
0000
0000
0000
0000
0000
1000
0000
0000
0000
,
0000
0000
0000
0000
0100
0000
0000
0000
0000
0000
0000
0000
0010
0000
0000
0001
0000
0000
0000
0000
0000
0100
0000
0000
0000
0000
0000
0010
0000
0000
0000
0000
0000
1000
0000
0000
0000
0000
0000
0001
0000
0000
0000
0000
0000
0010
0000
0000
,
0000
0100
0000
0010
0000
0001
0000
1000
0000
0010
0000
0100
0000
0010
0000
1000
,
0000
0000
0000
0000
0001
1000
0000
0100
0000
0010
0000
0100
0000
1000
0000
0001
,
0000
0100
0000
0010
0000
0100
0000
0001
0000
1000
0000
0100
0000
0010
0000
0100
,
0000
0000
0000
0010
0000
0000
0000
0000
0000
0001
0000
0000
1000
0000
0000
0000
0000
0000
0000
0000
0000
0000
0000
0000
0001
0000
0000
0000
0001
0000
0000
0000
0100
0000
0000
0000
0010
0000
0000
0000
0000
0000
0000
0000
0000
0000
0000
0000
,
0010
0000
0000
0100
0000
0000
0010
0010
1000
0001
0000
0000
,
0001
0000
0000
1000
0000
0000
0100
0100
0010
0001
0000
0000
,
0001
0000
0000
1000
0000
0000
0100
0100
1000
0010
0000
0000
,
0010
0000
0000
1000
0001
1001
0001
0100
0010
1000
0100
0010
,
0100
0000
0010
0100
1000
0010
0100
0001
0010
0100
0010
0001
,
1000
0000
0000
0001
0010
0100
0010
0001
1000
0010
0000
0100
,
0010
1000
0001
1000
0100
0010
0100
1000
0001
1000
0000
0000
,
0010
1000
0010
0001
0010
1000
0100
0001
0100
0010
0001
1000
,
0001
0100
0010
1000
0001
0100
0010
0000
0000
2002
0000
0000
,
0000
0000
0000
0000
,
0000
0000
0000
0000
,
0000
0000
0000
0000
,
0000
0000
3003
0000
;

//---------------dance-single - ----------------
#NOTES:
     dance-single:
     :
     Medium:
     11:
     0.464099,0.684475,0.414049,0.055737,0.282668,408.000000,356.000000,52.000000,7.000000,0.000000,0.000000,0.464099,0.684475,0.414049,0.055737,0.282668,408.000000,356.000000,52.000000,7.000000,0.000000,0.000000:
0000
0000
0000
0000
,
0000
0000
0000
0000
,
1000
0000
0000
0100
0000
0000
0000
0000
,
1000
0000
0000
0001
0000
0000
0000
0000
,
0200
0000
0000
0300
,
0010
1000
0010
0100
,
0001
0001
1001
0110
,
1000
0010
0100
0010
,
1000
0001
0011
0110
,
0100
1000
0010
0100
,
0010
1000
1001
1010
,
0001
0100
0010
1000
,
0001
0010
0100
1000
,
0001
0100
0110
0010
,
1000
0010
1001
0000
,
1100
0100
0011
0100
,
0001
0100
1001
0000
,
0101
0001
1100
0010
,
1000
0001
1001
0000
,
0011
0001
0100
0010
,
1000
0100
0020
0030
,
0100
1000
0010
0100
,
0001
0000
1000
0010
0000
0100
0001
0000
0010
0100
0000
1000
,
0001
0010
0001
0100
,
0010
0000
1000
0010
0000
0100
0001
0000
0010
0100
0000
0010
,
0001
0001
1000
1000
,
0010
0010
0100
0100
,
0010
0000
0000
0200
0000
0000
0302
0000
0003
0002
0000
0003
,
2000
0000
0000
0000
,
3100
1000
0010
0100
,
0001
0000
1000
0010
0000
0100
0001
0000
0010
0100
0000
0010
,
0001
0010
0100
0010
,
0001
0000
1000
0010
0000
0100
0001
0000
0010
0100
0000
1000
,
0100
1100
1000
1001
,
0001
0101
0100
0110
,
0010
1010
1000
1001
,
0001
0011
0001
1001
,
0001
0101
0100
0110
,
0010
1010
1000
1100
,
0100
0110
0010
0011
,
0001
1001
0001
1001
,
1010
0000
0000
0100
0000
0000
0000
0000
,
0001
0000
0000
0020
0000
0000
0000
0000
,
0030
0000
1100
0000
1000
0010
0100
0000
,
1001
0000
0100
0000
0001
0000
1001
0001
,
0010
0000
0101
0000
0010
0001
0100
0000
,
0110
0000
0100
0001
1000
0100
0000
1001
,
0000
0000
1010
0000
1000
0001
0010
0000
,
0110
0000
0010
0000
0001
0000
1100
0100
,
0010
0000
1001
0000
0001
0100
0010
0000
,
1001
0000
0001
0010
0100
0010
0000
1001
,
0000
0000
0000
0001
0000
0000
1000
0010
1000
0010
0000
0000
,
0100
0001
0100
0001
0000
0000
0010
0001
0010
0001
0000
0000
,
1000
0100
1000
0100
0000
0000
1000
0001
1000
0001
0000
0000
,
0100
0010
0100
0010
0000
0000
1000
0010
1000
0010
0000
0000
,
0100
0001
0100
0001
0000
0000
0010
0000
0000
0100
0000
0000
,
1000
0000
0000
0001
0000
0100
0000
0010
0000
1000
0000
0100
,
0000
0000
0010
0000
0000
0000
0001
0000
0000
0010
0000
0000
0001
0000
0000
1000
0000
0000
0000
0000
0000
0100
0000
0000
,
1000
0000
0010
0000
0100
0000
0000
0010
0000
0000
1000
0000
0001
0000
1001
0000
,
0000
0000
0100
0010
0001
1000
0000
0001
,
0100
0000
0000
0001
0000
0000
0010
0000
0000
0000
0100
0000
0000
0000
0010
0000
0000
0000
0001
0000
0000
0000
1000
0000
,
0000
0010
0000
1001
0000
0000
1000
0000
0000
0010
0000
0000
,
0101
0000
0001
0000
0010
0000
0100
1001
,
0000
0011
0010
0100
,
1100
0000
0100
0000
1000
0000
0010
0100
,
0001
0000
0000
1000
0000
0000
1001
0000
0000
0000
0000
0000
0001
0000
0100
0000
0010
0000
0100
0000
0000
0000
0000
0000
,
0010
0000
0000
1000
0000
0000
0100
0010
0001
0010
0000
0000
,
0001
0000
0000
1000
0000
0000
0001
0100
0010
0100
0000
0000
,
0010
0000
0000
1000
0000
0000
0100
0010
0001
0010
0000
0000
,
0001
0000
0000
1000
0001
0100
0010
0000
0000
1000
0000
0000
,
0010
0000
0000
0100
0000
0000
0010
1000
0100
0010
0001
0010
,
0100
0010
0001
0100
,
0010
0000
0000
1000
0001
0010
0100
0010
0001
1000
0000
0000
,
0001
0100
0001
1000
0010
1000
0001
1000
0001
0010
0001
0010
,
0100
1000
0100
0010
0001
0010
0100
0000
0000
1001
0000
0000
;

//---------------dance-single - ----------------
#NOTES:
     dance-single:
     :
     Easy:
     7:
     0.344662,0.535676,0.326462,0.111475,0.000000,303.000000,262.000000,41.000000,14.000000,0.000000,0.000000,0.344662,0.535676,0.326462,0.111475,0.000000,303.000000,262.000000,41.000000,14.000000,0.000000,0.000000:
0000
0000
0000
0000
,
0000
0000
0000
0000
,
1000
0000
0000
0001
0000
0000
0000
0000
,
0010
0000
0000
0001
0000
0000
0000
0000
,
0100
0000
0000
0000
,
0010
1000
0010
0100
,
0002
0000
1000
1003
,
0001
0010
0100
0010
,
0002
0000
0100
0103
,
0010
1000
0100
0010
,
0200
0000
0010
0310
,
0100
0010
0001
1000
,
0001
0100
0010
1000
,
0001
1000
0010
1000
,
0001
0010
1001
0000
,
0001
1000
0100
1000
,
0010
0100
1001
0000
,
0001
0010
0001
1000
,
0100
0010
1001
0000
,
0010
0100
1000
0001
,
0100
0010
1000
0000
,
0001
0100
1000
0100
,
0001
0010
1000
0010
,
0001
0100
1000
0100
,
0001
0010
1000
0010
,
0001
0001
1000
1000
,
0010
0010
0100
0100
,
0001
1000
0002
2003
,
3020
0000
0000
0000
,
0130
0001
0010
0100
,
0010
0001
1000
0100
,
0010
0100
1000
0010
,
0100
0010
1000
0001
,
1000
1000
0001
0001
,
0100
0100
0010
0010
,
1000
1000
0010
0010
,
0100
0100
0001
0001
,
1000
0100
0001
0100
,
1000
0100
0001
0100
,
1000
0010
0001
0010
,
1000
0010
0001
0010
,
1000
0000
0000
0100
0000
0000
0000
0000
,
1000
0000
0000
0001
0000
0000
0000
0000
,
0000
1001
0001
0100
,
0110
0000
0010
0000
1000
0000
0001
1000
,
0001
1001
0001
0100
,
1010
0000
0010
0000
0100
0010
0000
1001
,
0000
0011
0010
0100
,
1100
0000
0100
0000
1000
0000
0010
1000
,
0010
1010
0010
0100
,
1001
0000
0001
0000
0010
0000
0000
1001
,
0000
0000
1001
0000
,
1100
0000
0011
0000
,
0101
0000
1001
0000
,
1010
0000
0011
0000
,
1001
1010
0101
1010
,
0101
1100
0110
0011
,
0110
0100
0010
0001
,
0100
0000
0010
0000
1000
0000
0001
1001
,
0000
1000
0010
0100
,
0010
0000
1000
0000
0001
0000
0010
0110
,
0000
0100
0010
0001
,
0100
1000
0100
0010
,
0000
1000
0010
0001
,
0010
0100
0010
1000
,
0001
1000
0100
0020
,
0230
1300
0100
0020
,
0032
0103
0010
2000
,
3002
1003
0001
0200
,
0302
0013
0100
0010
,
0001
0100
0010
1000
,
1001
0001
1000
0010
,
1000
0100
0010
1001
,
0101
1010
1100
0011
,
0110
1001
0110
1001
;

//---------------dance-single - ----------------
#NOTES:
     dance-single:
     :
     Beginner:
     4:
     0.151287,0.267838,0.071662,0.031850,0.000000,133.000000,124.000000,9.000000,4.000000,0.000000,0.000000,0.151287,0.267838,0.071662,0.031850,0.000000,133.000000,124.000000,9.000000,4.000000,0.000000,0.000000:
// measure 0
0000
0000
0000
0000
,  // measure 1
0000
0000
0000
0000
,  // measure 2
1000
0000
0000
0000
,  // measure 3
0001
0000
0000
0000
,  // measure 4
0110
0000
0000
0000
,  // measure 5
1000
0000
0001
0000
,  // measure 6
1000
0000
0000
0000
,  // measure 7
0010
0000
0100
0000
,  // measure 8
0010
0000
0000
0000
,  // measure 9
1000
0000
0100
0000
,  // measure 10
1000
0000
0000
0000
,  // measure 11
0001
0000
0100
0000
,  // measure 12
0001
0000
0000
0000
,  // measure 13
1000
0000
0000
0000
,  // measure 14
0010
0000
0000
0000
,  // measure 15
1000
0000
0000
0000
,  // measure 16
0001
0000
0000
0000
,  // measure 17
0100
0000
0000
0000
,  // measure 18
0010
0000
0000
0000
,  // measure 19
1000
0000
0001
0000
,  // measure 20
0010
0000
0000
0000
,  // measure 21
0100
0000
0100
0000
,  // measure 22
0100
0000
0010
0000
,  // measure 23
0001
0000
0001
0000
,  // measure 24
0001
0000
1000
0000
,  // measure 25
0010
0000
0010
0000
,  // measure 26
1000
0000
1000
0000
,  // measure 27
0001
0000
1000
1000
,  // measure 28
1000
0000
0000
0000
,  // measure 29
0010
0000
0000
0000
,  // measure 30
0100
0000
0001
0000
,  // measure 31
1000
0000
0000
0000
,  // measure 32
0100
0000
1000
0000
,  // measure 33
0010
0000
0100
0000
,  // measure 34
0001
0000
1000
0000
,  // measure 35
0100
0000
1000
0000
,  // measure 36
0010
0000
0100
0000
,  // measure 37
0010
0000
0100
0000
,  // measure 38
0001
0000
1000
0000
,  // measure 39
0100
0000
1000
0000
,  // measure 40
0001
0000
1000
0000
,  // measure 41
0110
0000
0000
0000
,  // measure 42
1001
0000
0000
0000
,  // measure 43
0000
0010
0000
0000
,  // measure 44
0100
0000
0000
0001
,  // measure 45
0000
1000
0000
0000
,  // measure 46
0100
0000
0000
1001
,  // measure 47
0000
0001
0000
0000
,  // measure 48
1000
0000
0000
0010
,  // measure 49
0000
1000
0000
0000
,  // measure 50
0100
0000
0000
0110
,  // measure 51
0000
0100
0000
0010
,  // measure 52
0000
0001
0000
1000
,  // measure 53
0000
0010
0000
0100
,  // measure 54
0000
0010
0000
1000
,  // measure 55
0000
0001
0000
1000
,  // measure 56
0000
0010
0100
0001
,  // measure 57
1000
0001
0000
0000
,  // measure 58
1000
1000
0000
0000
,  // measure 59
0000
0010
0010
0000
,  // measure 60
0100
0100
0000
0010
,  // measure 61
0000
1000
0000
0000
,  // measure 62
0001
0000
0000
0100
,  // measure 63
0010
1000
0000
0000
,  // measure 64
0001
0000
0000
0010
,  // measure 65
0000
0002
0000
0000
,  // measure 66
0003
2000
0000
0000
,  // measure 67
3000
0020
0000
0000
,  // measure 68
0030
0200
0000
0000
,  // measure 69
0300
1001
0001
0000
,  // measure 70
1000
0000
0010
0000
,  // measure 71
1001
0100
0000
0010
,  // measure 72
0000
1000
0000
0110
,  // measure 73
1000
0000
0001
0000
,  // measure 74
0100
0100
0100
1001
;
