#TITLE:Brain system;
#SUBTITLE:;
#ARTIST:Ryo Arue;
#TITLETRANSLIT:;
#SUBTITLETRANSLIT:;
#ARTISTTRANSLIT:;
#GENRE:;
#CREDIT:;
#MUSIC:Brain system.mp3;
#BANNER:Brain system.png;
#BACKGROUND:Brain system-bg.png;
#CDTITLE:vonafroa-logo.png;
#SAMPLESTART:79.505;
#SAMPLELENGTH:14.982;
#SELECTABLE:YES;
#OFFSET:1.630;
#BPMS:0.000=144.979;
#STOPS:;
#LASTBEATHINT:1.522280;
#BGCHANGES:;
#FGCHANGES:;

//--------------- dance-single - ----------------
#NOTES:
     dance-single:
     :
     Challenge:
     15:
     0.77842,0.989548,0.059973,0.077108,1.010966,636,629,7,9,0,0,0.77842,0.989548,0.059973,0.077108,1.010966,636,629,7,9,0,0:
0000
0000
0000
0000
,
0000
0000
0000
0000
,
0000
0000
0000
0000
,
0000
0000
0000
0000
,
0000
0000
0000
0000
,
1000
0000
0000
0000
0001
0000
0000
0000
0010
0000
0000
0010
0000
0000
0010
0000
,
0001
0000
0100
0000
0001
0000
0100
0000
0010
0000
0000
0010
0000
0000
0010
0000
,
1000
0000
0000
0000
0001
0000
0000
0000
0100
0000
0000
0100
0000
0000
0100
0000
,
0001
0000
0010
0000
0001
0000
0010
0000
0100
0000
0000
0100
0000
0000
0100
0000
,
1000
0010
1000
0010
0100
0010
0100
0010
0100
0001
0100
0001
0010
0001
0010
0001
,
0010
0010
0001
0001
0100
0100
0110
0000
,
0010
1000
0010
1000
0100
1000
0100
1000
0100
0010
0100
0010
0001
0010
0001
0010
,
0001
0001
0100
0100
0010
0010
0110
0000
,
1000
0010
0100
0001
0010
0100
1000
0010
,
0001
0010
0100
0001
0010
0100
1000
0001
,
1000
1000
0100
0100
0010
0010
0001
0001
,
0110
0000
1000
0001
0100
0010
1000
0010
0100
0000
0110
0000
1001
0000
0000
0000
,
1000
0010
0100
0001
0010
0100
1000
0010
,
0100
0000
0001
0000
0010
0000
0100
0000
1000
0000
0000
0010
0000
0000
0100
0000
,
0000
0000
0001
1000
0000
1000
0001
0000
0001
0100
0000
0100
0001
1000
0010
0100
,
0001
0000
0001
0000
1000
0000
1000
0000
0100
0000
0000
0010
0000
0000
0100
0000
,
0000
0010
0100
0010
0000
0010
0001
0000
0002
0000
0000
0100
0000
0000
0013
0000
,
0100
0000
1000
0000
0010
0000
0100
0000
0010
0000
0000
1000
0000
0000
0100
0000
,
0000
0000
0010
0001
0000
0001
0100
0000
0100
0001
0000
0001
0010
0001
0010
0001
,
0100
0010
1000
0000
,
0001
0010
0100
0010
0001
0100
1000
0100
,
0001
0000
1000
0000
0100
0000
0010
0000
0001
0000
0000
0001
0000
0000
0001
0000
,
0000
0000
1000
0010
0000
0010
0100
0000
0100
0001
0000
0001
0010
0001
1000
0010
,
0100
0001
0010
0000
,
0100
1000
0010
1000
0000
1000
0010
0000
0100
0000
0000
0001
0000
0000
0001
0000
,
0000
0000
0100
0001
0000
0001
0010
0000
0100
0000
0000
1000
0000
0000
0010
0000
,
0000
0000
1000
0001
0000
0001
0100
0000
0100
0010
0000
0010
1000
0001
0010
0100
,
1000
0001
1000
0000
,
1001
0000
0000
0000
0010
0100
0001
0010
0100
1000
0010
0100
0001
1000
0010
0000
,
0100
0001
0010
0001
1000
0010
1000
0001
0100
0000
0010
0000
0100
0000
0001
0000
,
0010
0001
0100
0010
1000
0100
0010
0000
0001
1000
0010
0100
0001
0010
0100
0000
,
1000
0010
0100
0001
0010
0100
1000
0000
0001
0010
0100
0010
0001
1000
0010
0000
,
0100
0010
0100
0001
0010
0100
0010
0001
0100
0001
0010
0100
0000
0100
0010
0000
,
0001
0010
0100
1000
0000
1000
0100
0000
0010
0001
0100
0010
0000
0010
0100
0000
,
0001
0100
0010
0100
0000
0100
0010
0000
1000
0001
0100
0010
0000
0010
0100
0000
,
0100
0001
0010
0100
1000
0001
0100
0010
0100
0001
0010
0100
0010
0001
0100
0010
,
1000
0000
0000
0000
0010
0000
0000
0000
0100
0000
0000
0001
0000
0000
0100
0000
,
0010
0000
1000
0000
0100
0000
0010
0000
0001
0000
0000
0001
0000
0000
0001
0000
,
0100
0000
0000
0000
0100
0000
0000
0000
0010
0000
0000
1000
0000
0000
0010
0000
,
0100
0000
0001
0000
0010
0000
0100
0000
1000
0000
0000
1000
0000
0000
1000
0000
,
0001
0010
0100
0010
0001
1000
0010
0100
0001
1000
0010
1000
0100
0001
0100
0010
,
0001
0100
0010
0100
0001
1000
0100
0010
0001
1000
0100
1000
0010
0001
0010
0100
,
0001
0000
1000
0001
0000
0001
1000
0000
0010
0100
0000
0100
0010
0000
0010
0100
,
0001
0010
0001
0100
0000
0010
1000
0010
0100
0000
0001
0000
1001
0000
0000
0000
,
1000
0000
0001
0000
0100
0001
0010
0100
1000
0000
0010
0100
0000
0001
1000
0000
,
0100
0000
0010
0001
0010
0100
1000
0100
0010
0000
0001
0100
0000
0010
1000
0000
,
0001
0000
1000
0010
0000
0010
1000
0000
1000
0100
0000
0100
1000
0000
0010
0100
,
0001
0000
1000
0100
0000
0100
1000
0000
0001
0010
0100
1000
0000
1000
0100
0010
,
0002
0000
0003
0000
0100
0001
0010
0100
1000
0000
0010
0100
0000
0001
1000
0000
,
0100
0000
0010
0001
0010
0100
1000
0100
0010
0000
0001
0100
0000
0010
1000
0000
,
0001
0000
1000
0010
0000
0010
1000
0000
1000
0100
0000
0100
1000
0000
0010
0100
,
0001
0000
1000
0100
0000
0100
1000
0000
0001
0010
0100
1000
0000
1000
0100
0010
,
0002
0000
0003
0000
0001
1000
0010
0100
0001
0000
0010
0100
0000
1000
0001
0000
,
0100
0000
0010
1000
0010
0100
0001
0100
0010
0000
1000
0100
0000
0010
0001
0000
,
1000
0000
0001
0010
0000
0010
0001
0000
0001
0100
0000
0100
0001
0000
0010
0100
,
1000
0000
0001
0100
0000
0100
0001
0000
1000
0010
0100
0001
0000
0001
0100
0010
,
2000
0000
3000
0000
0100
1000
0010
0100
0001
0000
0010
0100
0000
1000
0001
0000
,
0100
0000
0010
1000
0010
0100
0001
0100
0010
0000
1000
0100
0000
0010
0001
0000
,
1000
0000
0001
0010
0000
0010
0001
0000
0001
0100
0000
0100
0001
0000
0010
0100
,
0020
0000
0000
0032
0000
0000
1003
0000
0020
0000
0000
2030
0000
0000
3001
0000
,
1000
0010
1000
0010
0000
0100
0001
0010
0001
0000
0000
0001
0000
0000
0100
0000
,
1000
0000
0100
0000
0001
0000
0010
0000
0100
0000
0000
0100
0000
0000
0010
0000
,
0000
0000
0001
0100
0000
0100
0001
0010
0100
1000
0000
1000
0010
1000
0100
0010
,
0001
1000
0010
0100
0001
0100
0010
1000
0001
1000
0010
0100
1000
0100
0001
0010
,
0200
0000
0000
0000
,
0300
0000
0000
0000
;
