#TITLE:Beyond the Geostationary Orbit Level;
#SUBTITLE:;
#ARTIST:かめりあ;
#TITLETRANSLIT:;
#SUBTITLETRANSLIT:;
#ARTISTTRANSLIT:;
#GENRE:;
#CREDIT:;
#MUSIC:Beyond the Geostationary Orbit Level.ogg;
#BANNER:Beyond the Geostationary Orbit Level.png;
#BACKGROUND:Beyond the Geostationary Orbit Level-bg.png;
#CDTITLE:;
#SAMPLESTART:98.057;
#SAMPLELENGTH:15.000;
#SELECTABLE:YES;
#OFFSET:1.372;
#BPMS:0.000=175.000
,164.000=87.500
,194.000=175.000
,358.000=87.500
;
#STOPS:;
#BGCHANGES:;
#FGCHANGES:;

//--------------- dance-single - Talkion ----------------
#NOTES:
     dance-single:
     Talkion:
     Beginner:
     9:
     0,0,0,0,0:
0000
0000
0000
0000
,
0000
0000
0000
0000
,
0000
0000
0000
0000
,
0000
0000
0000
0000
,
0000
0000
0000
0000
,
0000
0000
0000
0000
,
0000
0000
0000
0000
,
0000
0000
0000
0000
,
0000
0000
0000
0000
,
0000
0000
0000
0000
,
0001
0001
1000
1000
,
0001
0001
1000
1000
,
0010
0010
0100
0100
,
0010
0010
0100
0100
,
0001
0100
1000
0100
,
0001
0100
1000
0100
,
0001
1000
0001
1000
0001
1000
0001
0000
,
0010
0010
0100
0100
,
1000
0001
0100
0001
,
1000
0001
0100
0002
,
0003
0001
1000
0010
,
1000
0001
1000
0020
,
0130
0001
0010
0001
,
0100
0001
0010
0002
,
0003
0001
0010
0100
,
2000
0000
0000
3000
,
1001
0001
0100
0020
,
0030
0010
1000
0001
,
0100
0100
0010
0020
,
1030
0000
0010
0000
0000
0100
0110
0000
,
0001
0000
0010
0000
0000
0100
0110
0000
,
2000
0000
3000
1000
0002
0000
0003
0001
,
1000
0000
0000
0000
,
1001
0000
0001
0000
0000
0100
0001
0000
,
1000
0000
0001
0000
0000
0010
0001
0000
,
2000
0000
3010
0000
0000
0100
0010
0000
,
0001
0000
0010
0000
0000
0100
0020
0000
,
1030
0000
0001
0000
1000
0100
1000
0000
,
0001
0000
1000
0000
0001
0100
0001
0000
,
2000
0000
0000
0000
,
0000
0000
0000
0000
,
3100
0000
0010
0001
,
1000
0000
0010
1000
,
0001
0000
0000
1000
0100
0000
0000
1000
,
0100
0000
0000
0000
1000
0010
0100
0001
,
1000
0000
0100
1000
,
0001
0000
0100
0001
,
1000
0000
0000
0001
0010
0000
0000
0001
,
0020
0000
0030
0000
,
0000
0000
1001
1001
,
0000
0000
0000
0020
0000
0030
0000
0200
,
0000
0300
0000
0000
1001
0000
1001
0000
,
0000
0000
0000
0200
0000
0000
0000
0300
,
0000
0000
0100
0000
0000
0100
0000
0000
1002
0000
0000
0000
0000
0000
0000
0000
,
0013
0210
0000
1300
,
2002
3003
2001
0000
,
3010
0000
0100
0010
0000
0000
0000
0000
,
0000
0000
1000
1000
,
0001
0001
1000
1000
,
0002
0013
0001
0001
,
1000
1000
0001
0001
,
0200
0000
0310
0000
1000
0001
1000
0000
,
0001
1000
0001
0000
1000
0001
1000
0000
,
0001
1000
0001
0000
1000
0010
0100
0001
,
1000
0010
0100
0000
0010
0000
0010
0000
,
0100
0100
0001
1001
,
1000
1001
0001
0010
,
0100
0010
0100
0000
1000
0000
1001
0000
,
0001
1001
1000
0010
,
0100
0001
0010
0110
,
0100
0110
0010
0001
,
1000
0001
1000
0000
0010
0000
0110
0000
,
0100
0110
0002
0000
,
2003
3200
0310
1001
,
0100
1001
0001
1000
,
0010
1000
0010
0000
0100
0000
1001
0000
,
0010
1001
0001
0010
,
0200
2300
3001
0100
,
1000
0100
0001
0100
,
0010
0100
0001
0000
2000
0000
0000
0000
,
0000
0000
3100
0000
,
0000
1000
0001
0001
,
0100
0100
1000
1000
,
0020
0031
1000
1000
,
0010
0010
0100
0100
,
0002
0000
1003
0000
0001
1000
0001
0000
,
1000
0001
1000
0000
0001
1000
0001
0000
,
1000
0001
1000
0000
0001
0010
0100
1000
,
0010
0100
0001
1000
0000
0000
0000
0000
,
0000
0000
0001
0000
,
0010
0100
1000
0000
,
0010
0000
0100
0000
0001
0000
0000
0010
,
0001
0000
0000
0010
0001
0000
0000
0000
;

//--------------- dance-single - Talkion ----------------
#NOTES:
     dance-single:
     Talkion:
     Easy:
     13:
     0,0,0,0,0:
0000
0000
0000
0000
,
0000
0000
0000
0000
,
1001
0000
0000
0000
,
0000
0000
0000
0000
,
0000
0000
0000
0000
,
0000
0000
0000
0110
,
1001
0000
0000
0000
,
0000
0000
0000
0000
,
0000
0000
0000
0000
,
0001
0001
0020
0000
1030
1000
0020
0000
,
0031
0101
0100
1100
,
1000
1010
0010
0011
,
0001
0101
0100
1100
,
1000
0000
1010
0000
0010
0000
0011
0001
,
1000
0100
1000
0001
1000
0100
0020
0000
,
0031
0010
0001
1000
0001
0010
0200
0000
,
1300
0001
1000
0001
1000
0001
1000
0001
,
0100
0000
0100
0000
0010
0100
1001
0000
,
0011
0000
0000
0000
0001
0000
0000
0010
0001
0000
1000
0000
0001
0000
0000
0100
,
0001
0000
1000
0000
0001
0000
0000
0010
0100
0000
0010
0000
1000
0000
0010
0000
,
0002
0000
0000
0000
1003
0000
0000
0010
1000
0000
0001
0000
1000
0000
0000
0100
,
1000
0000
0001
0000
1000
0000
0000
0010
0100
0000
0010
0000
2000
0000
0000
0000
,
3001
0000
0000
0000
0010
0000
0000
0100
0010
0000
1000
0000
0010
0000
0000
0100
,
0010
0000
0001
0000
0010
0000
0000
0100
1000
0000
0001
0000
0001
0000
0100
0000
,
0010
0000
0000
0000
0010
0100
0000
0010
0100
0000
0001
0000
1000
0000
0100
0000
,
0010
0010
0001
0002
,
0103
0000
0000
0000
0010
0000
0000
0100
0010
0000
0001
0000
0010
0000
2000
0000
,
0000
3001
1000
0100
0010
0001
1001
0000
,
1010
0011
0101
1100
,
2000
0000
0000
0000
3010
0000
0000
0011
0000
0000
0001
0000
1001
0000
0000
0000
,
0002
0000
0000
0000
0013
0000
0000
1010
0000
0000
1000
0000
1001
0000
0000
0000
,
0002
0000
0000
0000
0000
0013
0001
0000
2000
0000
0000
0000
0000
3010
1000
0000
,
0001
0001
0010
0020
,
0130
0000
0000
0000
1000
0000
0000
0110
0000
0000
0001
0000
1000
0000
0000
0000
,
0100
0000
0010
0000
0001
0000
0000
1000
0000
0000
0010
0000
0100
0000
0010
0000
,
2000
0000
0000
0000
3001
0000
0000
0110
0000
0000
1000
0000
0001
0000
0000
0000
,
0010
0000
0100
0000
1000
0000
0000
0001
0000
0000
0100
0000
0020
0000
0000
0000
,
1030
0000
0001
0010
0100
1000
0100
0010
,
0001
0000
1000
0010
0100
0001
0100
0010
,
2000
0000
0000
0000
3001
1000
0000
0001
1000
0000
0100
0000
0010
0000
0001
0000
,
0100
0010
0001
0010
1000
0010
0200
0000
,
0301
0000
0010
0001
,
1000
0000
0010
2000
,
3001
0000
0000
1000
0100
0000
0000
0001
,
0100
0000
0000
0000
1000
0100
0010
0001
,
1000
0010
0100
0001
0000
1000
0001
0020
0000
0000
0000
0000
0130
0000
0010
0000
,
0001
1000
0010
0100
0000
0001
1000
0200
0000
0000
0000
0000
0310
0000
0100
0000
,
1000
0001
0100
0010
0000
1000
0001
0000
0100
0010
1000
0001
0000
0010
0100
0000
,
1000
0100
0010
0002
0000
0000
0000
0000
0000
0000
0000
0000
0000
0000
0000
0000
,
0000
0103
1010
2020
,
0000
0000
3030
2002
0000
0000
3003
0202
,
0000
0303
0011
0022
,
0000
0000
0033
2002
0000
0000
0000
0000
,
3003
0000
1000
0000
0000
0100
0000
0000
0120
0000
0000
0000
0000
0000
0000
0000
,
1000
0032
0000
0100
,
2003
0000
3020
0000
,
0130
0000
0001
1001
0000
0000
0000
0000
,
0000
0000
0000
0000
1000
0100
0010
0100
,
1000
0100
0010
0000
0001
0100
0010
0100
,
0001
0100
0020
0000
1030
0010
0001
0010
,
1000
0010
0001
0000
0010
1000
0100
1000
,
0020
0000
0130
0000
0001
1000
0001
1000
,
0001
1000
0001
1000
0100
0010
0001
0100
,
0010
1000
0100
0010
0001
1000
0010
0001
,
1000
0100
0002
0000
0013
0000
0010
0000
,
0100
0000
0010
0000
1001
0000
0000
0000
0001
0000
0000
0020
0000
1030
0000
0000
,
0001
0000
0000
0200
0000
1300
0000
0000
0001
0000
0000
0200
0000
0310
0000
0000
,
1000
0000
0100
0000
0010
0000
0001
0000
1000
0000
0000
0020
0000
0031
0000
0000
,
0010
0000
0000
2000
0000
3100
0000
0000
0010
0000
0000
0002
0000
0103
0000
0000
,
0110
0000
0000
0000
1001
0000
0000
0000
1000
0000
0000
0200
0000
0301
0000
0000
,
1000
0000
0000
0020
0000
0031
0000
0000
1000
0000
0000
0020
0000
0130
0000
0000
,
0001
0000
0010
0000
0100
0000
1000
0000
0010
0000
0000
0002
0000
1003
0000
0000
,
0100
0000
0000
0002
0000
1003
0000
0000
0100
0000
0000
0110
0000
1001
0000
0000
,
0001
0000
0100
0000
0010
0000
1000
0000
0001
0000
0010
0001
0000
2000
0000
0000
,
3010
0000
1000
0001
0000
0020
0000
0000
0130
0000
0001
0100
0000
2000
0000
0000
,
3001
0000
1000
0000
0010
0000
0100
0000
0001
0000
1000
0100
0000
0002
0000
0000
,
0103
0000
1000
0001
0000
0200
0000
0000
0310
0000
1000
0001
1000
0000
0010
0000
,
1000
0000
0000
0000
0100
0000
0000
0000
0010
0000
0000
0000
0001
0000
0000
0000
0010
0000
0000
0000
0100
0000
0000
0000
1000
0000
0000
0000
0000
0000
0001
0000
0000
0000
0000
0000
1000
0000
0000
0010
0000
0000
0000
0000
0000
0000
0000
0000
,
0001
0000
0010
0000
1000
0010
0000
0000
1000
0000
0001
0000
1000
0100
0000
0000
,
0001
0000
0100
0000
1000
0100
0000
0000
0020
0000
0000
0031
0000
0200
0000
0000
,
0320
0000
0000
1030
0000
0200
0000
0000
0310
0000
0000
0001
0000
1000
0000
0000
,
0001
0100
0010
1000
0001
0010
0100
0010
,
0001
0010
0100
0010
0001
0010
1000
0010
,
0001
0010
0200
0000
1300
0010
0100
0010
,
1000
0010
0100
0010
0001
0010
0100
0010
,
2000
0000
3001
0000
1000
0001
1000
0001
,
1000
0001
1000
0001
0010
0100
1000
0010
,
0100
0001
0010
0100
1000
0001
0100
1000
,
0001
0010
1000
1002
0000
0000
0023
0000
,
0100
0000
0130
0000
2000
0000
0000
0000
3001
0100
0010
1000
0000
0001
1000
0200
,
0000
0000
0000
0000
0310
0000
0100
0000
1000
0001
0100
0010
0000
1000
0001
0020
,
0000
0000
0000
0000
0130
0000
0010
0000
0001
1000
0010
0100
0000
0001
1000
0000
,
0010
0100
0001
1000
0000
0100
0010
0000
0001
0010
0100
2000
0000
0000
0000
0000
,
0000
0000
0000
3000
;

//--------------- dance-single - Talkion ----------------
#NOTES:
     dance-single:
     Talkion:
     Medium:
     15:
     0,0,0,0,0:
0000
0000
0000
0000
,
0000
0000
0000
0000
,
1001
0000
0000
0000
,
0000
0000
0000
0000
,
0000
0000
0000
0000
,
0000
0000
0000
0110
,
1001
0000
0000
0000
,
0000
0000
0000
0000
,
0000
0000
0000
0000
,
0001
0001
0100
0010
0010
0100
0002
0000
,
1003
0100
1100
0000
0001
0100
0101
0000
,
1000
0010
1010
0000
0001
0010
0011
0000
,
1000
0010
0110
0000
0001
0010
0110
0000
,
1000
0000
0001
0000
1001
0000
0000
0000
0001
0000
0010
0000
0100
0000
1000
0001
,
1000
0010
0100
0010
1000
0010
0100
0010
,
1000
0001
0010
1000
0010
0001
0010
0100
,
1000
0001
1000
0001
1000
0001
1000
0001
1000
0001
1000
0001
0200
0000
0000
0000
,
0310
0001
0010
1000
0100
0010
0011
0000
,
1001
0000
0000
0000
0101
0000
0000
0100
0010
0000
1000
0000
0010
0100
0000
0001
,
0100
0000
0010
0000
1000
0001
0000
0100
0001
0000
1000
0000
0100
1000
0001
0000
,
0100
0000
0000
0000
0110
0000
0000
0010
0100
0000
0001
0000
1000
0100
0000
0010
,
0001
0000
1000
0000
0010
0100
0001
0000
0100
0010
1000
0000
0002
0000
0000
0000
,
0013
0000
0000
0000
0011
0000
0000
0001
0100
0000
0010
0000
1000
0100
0000
1000
,
0010
0000
0100
0000
0001
0010
0000
0001
0100
0000
0010
0000
0010
0000
0010
0000
,
1000
0000
0000
0000
1000
0001
0000
1000
0001
0010
0100
0000
1000
0000
0001
0000
,
0200
0000
1000
0000
0001
0301
0200
0000
,
0310
0000
0000
0000
1000
0001
0000
0010
0001
0000
0010
0001
1000
0001
0200
0000
,
0000
0000
0310
0000
1000
0000
0001
0000
1000
0001
0010
0100
1000
0000
0001
0000
,
0101
0000
0100
0000
0110
0000
0000
0000
0010
1000
0001
0000
0020
0000
0000
0000
,
0130
0000
0000
0000
1010
0000
0000
0011
0000
0000
0001
0000
1001
0000
0000
0000
,
0100
0000
0000
0000
0011
0000
0000
1010
0000
0000
1000
0000
1001
0000
0000
0000
,
0002
0000
0000
0000
0003
0010
0001
0100
0020
0000
0000
0000
0030
0100
0001
0010
,
0200
0000
1000
0000
0001
0301
0200
0000
,
1300
0000
0000
0000
0001
0000
0200
0010
0300
0000
0100
0000
1000
0000
0200
0000
,
0301
0000
1000
0000
0001
0000
0010
0000
0100
0010
0000
0100
0010
0000
0001
0000
,
1000
0000
0000
0000
0001
0000
0200
0010
0300
0000
0100
0000
1000
0000
0200
0000
,
0301
0000
1000
0000
0100
0000
0010
0000
0001
1000
0000
0010
2000
0000
0000
0000
,
3001
0000
0000
0000
0010
0000
0001
1000
0001
0000
0100
0010
0100
0000
0010
0000
,
1000
0000
0001
0000
1000
0000
0100
0010
0100
0000
0010
0001
0010
0000
0001
0000
,
2000
0000
0000
0000
3010
0100
0000
0002
1000
0000
1000
0000
1003
0000
0100
2000
,
0001
0000
0001
0000
3001
0000
0100
0010
1000
0001
0100
0010
2000
0000
0000
0000
,
3002
0000
0013
0100
,
1000
0000
0010
0200
,
0301
0000
0000
1000
0100
0000
0000
0001
,
0100
0000
0000
0000
1000
0001
0100
0010
,
1000
0001
0010
0100
0000
1000
0100
0020
0000
0000
0000
0000
0031
0000
1000
0000
,
0010
0100
0001
1000
0000
0100
0010
0002
0000
0000
0000
0000
1003
0000
0001
0000
,
0100
0010
1000
0001
0000
0010
0100
0000
0001
0100
1000
0001
0000
1000
0010
0000
,
0001
0010
1000
0002
0000
0000
0000
0000
0000
0000
0000
0000
1000
0000
0000
0000
,
0000
0000
0000
0000
0013
0001
1000
0010
0100
0000
0000
0000
0101
0000
0001
0000
,
0010
0100
1000
2002
0000
0000
3003
1020
,
0000
0000
0000
0000
0130
0010
1000
0001
0010
0000
0000
0000
0011
0000
0001
0000
,
1000
0010
0100
0210
0000
0302
0000
0023
,
0000
0000
0130
0000
0000
1100
0000
0000
1002
0000
0000
0000
0100
0000
0100
0000
,
0103
0001
2002
0000
0000
3003
1200
0000
,
0001
0000
0000
0000
0310
0100
1000
0001
0200
0000
0000
0000
0000
0000
0000
0000
,
0310
1000
0001
0011
0000
0000
0000
0000
,
0000
0000
0000
0000
0010
0001
0010
1000
,
0010
0001
0010
1000
0010
0001
0100
0010
,
1000
0001
1000
0001
0020
0000
0000
0000
0130
0000
1000
0000
0100
0000
0001
0000
,
0100
1000
0100
0001
0100
1000
0010
0100
,
0002
0000
0000
0000
1003
0000
0000
0000
0001
0010
0001
0000
0010
0001
0010
0000
,
0001
0010
0001
0000
0010
0001
0100
0000
0010
1000
0010
0000
1000
0010
1000
0000
,
0010
1000
0010
0000
1000
0010
0100
0000
0001
1000
0001
1000
0001
1000
0001
1000
,
0001
0010
0100
1000
0002
0000
0000
0000
0103
0000
1000
0000
0100
0000
0001
0000
,
0010
0000
0100
0000
1100
0000
0000
0000
0001
0000
0100
0010
0000
1010
0000
0000
,
1000
0000
0100
1000
0000
1001
0000
0000
0001
0000
0010
0001
0000
0101
0000
0000
,
0100
0000
0010
0000
1000
0001
0100
0000
0010
0000
1000
0001
0000
0011
0000
0000
,
0010
0000
0001
1000
0000
1010
0000
0000
0010
0000
0100
0001
0000
1000
0100
0000
,
0110
0000
0000
0000
0011
0000
0001
1000
0010
0000
0100
0010
0000
1010
0000
0000
,
1000
0000
0100
1000
0000
1001
0000
0000
0001
0000
0010
0001
0000
0101
0000
0000
,
0100
0000
0010
1000
0000
0001
1000
0000
0100
0000
0001
0100
0000
1100
0000
0000
,
1000
0000
0010
0001
0000
0011
0000
0000
0010
0000
0000
0110
0000
1001
0000
0000
,
0001
0000
0010
0001
0100
0000
0010
1000
0100
0000
1000
0010
0000
0100
0010
0000
,
0001
0000
0010
0100
0000
0010
1000
0000
0001
0000
1000
0100
0000
0010
0001
0000
,
1000
0000
0001
0100
0000
0010
1000
0000
0001
0000
0010
1000
0000
0010
0100
0000
,
0010
0000
0001
1000
0000
0010
0100
0000
0001
0000
1000
0100
0010
0000
0001
0100
,
0010
0000
0000
0000
1000
0000
0000
0000
0001
0000
0000
0000
1000
0000
0000
0000
0100
0000
0000
0000
0010
0000
0000
0000
0001
0000
0000
0000
0000
0000
1000
0000
0000
0000
0000
0000
0010
0000
0000
0100
0000
0000
0010
0000
0000
0000
0000
0000
,
0001
0000
1000
0000
0100
0001
0100
0001
1000
0000
0001
0000
0010
0100
0010
0000
,
1000
0000
0001
0000
0100
1000
0100
1000
0002
0000
0000
0100
0000
0010
0000
0000
,
2003
0000
0000
0100
0000
0010
0000
0000
3001
0000
0000
0010
0000
0100
0000
0000
,
1000
0000
0001
0000
1000
0010
0100
0001
1000
0000
0100
0000
0001
0000
0100
0000
,
1000
0100
0001
1000
0010
0001
0100
0010
,
1000
0001
1000
0001
0020
0000
0000
0000
0031
0000
0010
0000
1000
0000
0010
0000
,
0001
0010
1000
0001
0100
1000
0010
0100
,
0002
0000
0000
0000
1003
0000
0000
0000
0001
0010
0100
0000
1000
0010
0100
0000
,
0001
0010
0100
0000
1000
0010
0100
0000
0010
1000
0100
0000
0010
0001
0100
0000
,
0010
1000
0100
0000
0010
0001
0100
0000
0010
1000
0100
0010
0001
0100
0010
1000
,
0001
0010
0100
2100
0000
0000
3002
0000
,
0100
0000
0103
0000
0020
0000
0000
0000
1030
0010
0100
0001
0000
1000
0100
0020
,
0000
0000
0000
0000
0031
0000
1000
0000
0010
0100
0001
1000
0000
0100
1000
0002
,
0000
0000
0000
0000
0013
0000
0100
0000
1000
0001
0100
0010
0000
0001
0010
0000
,
1000
0001
0010
0100
0000
0001
0100
0000
1000
0010
0100
0002
0000
0000
0000
0000
,
0003
0000
0000
0000
;

//--------------- dance-single - Talkion ----------------
#NOTES:
     dance-single:
     Talkion:
     Hard:
     18:
     0,0,0,0,0:
0000
0000
0000
0000
,
0000
0000
0000
0000
,
1001
0000
0000
0000
,
0000
0000
0000
0000
,
0000
0000
0000
0000
,
0000
0000
0000
0110
,
1001
0000
0000
0000
,
0000
0000
0000
0000
,
0000
0000
0000
0000
,
1000
0000
1000
0000
0001
0000
1000
0000
0010
0100
0001
0100
0010
0000
0000
0000
,
1000
0000
0000
0100
1000
0000
0001
0000
1000
0000
0000
0010
1000
0000
0001
0000
,
0010
0000
0000
0100
0010
0000
1000
0000
0010
0000
0000
0100
0010
0000
0001
0000
,
1000
0000
0000
0001
0100
0000
0001
0000
1000
0000
0000
0001
0010
0000
0001
0000
,
0100
0000
0000
0010
0100
0000
1000
0000
0100
0000
0000
0010
0100
0000
0001
1000
,
0001
0100
0020
0001
0230
1000
0320
0001
,
2030
0100
3002
0100
2003
0100
3020
0100
,
1030
0001
1000
0001
1000
0001
0010
0100
1000
0010
0100
0001
0010
0100
0010
0001
,
0100
0000
0010
1000
0100
0000
0010
0001
0100
0000
0001
0000
1001
0000
0000
0000
,
1100
0000
0000
0000
1000
0100
0000
1000
0001
0010
0001
1000
0001
0100
0000
0001
,
0100
0000
0010
0000
0100
1000
0000
0100
0001
0100
0010
0100
0001
1000
0100
0000
,
2000
0000
0000
0000
3001
0010
0000
0001
1000
0100
1000
0001
1000
0010
0000
0100
,
0001
0000
1000
0000
0100
0010
0000
0100
0010
0001
1000
0000
0020
0000
0000
0000
,
0130
0000
0000
0000
0001
1000
0000
0100
1000
0001
1000
0010
1000
0100
0000
1000
,
0100
0000
0001
0000
0100
0010
0000
0001
1000
0010
0100
0001
1000
0010
0100
0000
,
0001
0000
0000
0000
0001
0001
0000
0010
0001
0100
0010
1000
0001
0000
1000
0000
,
0100
0000
0010
0000
0002
0000
0000
0000
1003
0000
0001
0000
0100
0010
0100
0010
,
1000
0000
0000
0000
0001
0010
0000
0001
1000
0100
0001
0100
0010
0001
2000
0000
,
0000
0000
3001
0000
0100
1000
0100
0001
0100
0010
1000
0001
0010
0100
1000
0000
,
1001
0000
0010
0000
0101
0000
0000
0000
0001
1000
0001
0000
0020
0000
0000
0000
,
0130
0000
0000
0000
1100
0000
0000
0101
0000
0000
1001
0000
0001
0010
0000
0000
,
0110
0000
0000
0000
0011
0000
0000
1010
0000
0000
1001
0000
1000
0010
0000
0000
,
0210
0000
0000
0000
0300
1000
0001
0010
2000
0000
0000
0000
3000
0001
1000
0010
,
0001
0010
0200
0310
1000
0001
0002
0000
,
1003
0000
0000
0000
1001
0000
0001
0202
0303
0000
0100
0000
0010
1000
0100
0000
,
1000
0000
0001
0000
0101
0000
0100
0010
0000
1000
0010
0100
0001
0000
1000
0000
,
0200
0000
0000
0000
0310
0000
0001
0022
0033
0000
0010
0000
0001
0100
0010
0000
,
1000
0000
0001
0000
0011
0000
0010
0100
0000
1000
0100
0010
0002
0000
0000
0000
,
1003
0000
0010
0000
0100
0010
0100
0000
1000
0100
0001
0100
1000
0100
0010
1000
,
0001
0000
1000
0000
0001
0010
0001
0000
0010
1000
0010
0001
0010
0100
1000
0001
,
0200
0000
0000
0000
0310
0100
0000
0010
1000
0100
0010
0001
0000
0010
0001
1000
,
0010
0100
0010
0100
0001
1000
0001
1000
0100
0010
0001
0100
0020
0000
0000
0000
,
2030
0000
3100
0010
,
0001
0000
0100
0020
,
1030
0000
0000
0001
0010
0000
0000
1000
,
0010
0000
0000
0000
0001
0100
0010
1000
,
0001
0010
0100
1000
0000
0001
1000
0010
0100
0000
0000
0000
0100
0000
0001
0000
,
1000
0001
0010
0100
0000
1000
0100
0010
0001
0000
0000
0000
0001
0000
0100
0000
,
0010
1000
0001
0010
0000
1000
0010
0000
0100
1000
0001
0100
0000
1000
0100
0000
,
0010
1000
0100
0020
0000
0000
0000
0000
0000
0000
0000
0000
0100
0000
0000
0000
,
0000
0000
0000
0000
0031
0010
0100
1000
0020
0000
0030
0000
1010
0000
1000
0000
,
0001
0010
0100
2200
0000
0000
3300
1002
,
0000
0000
0000
0000
0103
0001
1000
0010
0200
0000
0300
0000
0101
0000
0001
0000
,
1000
0100
0010
0012
0000
0203
0000
0320
,
0000
0000
1030
0000
0000
1100
0000
0000
0120
0000
0000
0000
0001
0000
0001
0000
,
0031
1000
2020
0000
0000
3030
0210
0000
,
1000
0000
0000
0000
0301
0100
0010
1000
0002
0000
0000
0000
0000
0000
0000
0000
,
0013
0000
0100
0000
1000
0000
1010
0000
0000
0010
0100
0010
0100
0010
0100
0010
,
0100
0001
1000
0100
0020
0000
0000
0000
0031
0010
0001
0000
0010
0100
0010
0000
,
0100
1000
0100
0000
1000
0001
1000
0000
0001
0100
0010
0000
1000
0100
0010
0000
,
0001
1000
0100
1000
0020
0000
0000
0000
0130
0010
0100
0000
0001
0100
0001
0000
,
1000
0100
1000
0000
0100
0010
0100
0000
0010
0001
0100
0000
0010
1000
0100
0000
,
2000
0000
0000
0000
3001
0000
0000
0000
0100
0001
0100
0001
0100
0010
0100
0010
,
1000
0010
1000
0010
1000
0001
1000
0100
0010
0001
0100
0010
1000
0100
0010
0001
,
0100
0010
1000
0010
0100
0001
1000
0100
0001
0100
1000
0001
1000
0010
0001
0010
,
1000
0001
0010
0100
2000
0000
0000
0000
3001
0000
0100
0001
0010
0000
0100
1000
,
0010
0000
1000
0000
1001
0000
0000
0000
0001
0000
0010
0001
1000
0001
0000
0100
,
0010
0000
0001
0010
0100
0010
0000
1000
0001
0000
1000
0100
0010
0001
0000
0100
,
0010
0000
1000
0000
0001
1000
0100
0000
1000
0000
0100
1000
0001
1000
0000
0010
,
0100
0000
1000
0100
0010
0100
0000
0001
1000
0000
0001
0010
0100
1000
0000
0010
,
0200
0000
0000
0000
0310
0000
0010
0100
0001
0000
1000
0100
1000
0010
0000
0100
,
0001
0000
0010
0001
0100
0001
0000
1000
0100
0000
0001
0100
0010
0001
0000
1000
,
0010
0000
0100
0010
1000
0010
0100
0000
0001
0000
1000
0100
0001
0100
0000
0010
,
0001
0000
1000
0010
0001
0010
0000
0100
0001
0000
0000
0101
0000
1010
0000
0000
,
1001
0000
0000
0000
0000
0000
0001
0000
1000
0000
0001
0000
1000
0000
0000
0000
0000
0000
0100
0000
0010
0000
0100
0000
0010
0000
0000
0000
0000
0000
0001
0000
0000
0010
0000
0000
0100
0000
0000
0010
0000
0000
0000
0000
0000
1000
0000
0000
,
0001
0000
0000
0000
0000
0000
0100
0000
0000
1000
0000
0000
0100
0000
0000
0010
0000
0000
0000
0000
0000
0001
0000
0000
0100
0000
0000
0000
0000
0000
0010
0000
0000
1000
0000
0000
0100
0000
0000
0010
0000
0000
0001
0000
1000
0000
0001
0000
,
1000
0000
0010
0000
0100
0010
0000
1000
0001
0000
1000
0010
0100
0010
0000
0001
,
1000
0000
0000
0000
0000
0000
0100
0000
0000
0001
0000
0000
0100
0000
0000
0010
0000
0000
0000
0000
0000
1000
0000
0000
0100
0000
0000
0000
0000
0000
0010
0000
0100
0000
0010
0000
0100
0000
0000
0000
0000
0000
1000
0000
0001
0000
1000
0000
,
0001
0000
0000
0000
0100
0000
0000
0000
0010
0000
0000
0000
1000
0000
0000
0000
0100
0000
0000
0000
0010
0000
0000
0000
0001
0000
0000
0000
0000
0000
1000
0000
0000
0000
0000
0000
0010
0000
0000
0100
0000
0000
0010
0000
0000
0000
0000
0000
,
1000
0000
0001
0000
0010
1000
0010
0001
0010
0000
0100
0000
1000
0001
1000
0000
,
0010
0000
0100
0000
1000
0100
0001
0100
2000
0000
0000
3002
0000
0023
0000
0000
,
2030
0000
0000
3002
0000
0023
0000
0000
0130
0000
0000
1000
0000
0001
1000
0000
,
0010
0000
0100
0000
0001
0100
0010
1000
0001
1000
0000
0100
1000
0100
0000
0010
,
0100
0010
0000
0001
0010
0001
0000
0100
0010
1000
0000
0100
0010
0001
0000
0100
,
1000
0100
0001
0010
0200
0000
0000
0000
1300
0100
0000
1000
0001
1000
0000
0010
,
0100
0010
0000
0100
0001
0100
0000
0001
0010
1000
0000
0001
0100
1000
0000
0010
,
0200
0000
0000
0000
0301
0000
0000
0000
1000
0001
1000
0001
0010
0100
0010
0100
,
1000
0001
1000
0001
0100
0010
1000
0001
1000
0010
0100
0001
0010
0100
1000
0010
,
0100
0001
0010
0100
1000
0001
1000
0010
0100
1000
0001
0010
0100
0001
1000
0001
,
0020
0000
0130
0010
0001
0000
2001
0000
0000
0000
0000
0000
0010
0000
0000
0000
,
0100
0000
3100
0000
0020
0000
0000
0000
0031
1000
0010
0100
0000
0001
1000
0100
,
0010
0000
0000
0000
0010
0000
0100
0000
1000
0001
0100
0010
0000
1000
0001
0010
,
0100
0000
0000
0000
0100
0000
1000
0000
0001
0100
1000
0001
0000
1000
0100
0000
,
0001
0010
1000
0001
0000
1000
0010
0000
0001
0100
0010
2000
0000
0000
0000
0000
,
3000
0000
0000
0000
;

//--------------- dance-single - Talkion ----------------
#NOTES:
     dance-single:
     Talkion:
     Challenge:
     19:
     0,0,0,0,0:
0000
0000
0000
0000
,
0000
0000
0000
0000
,
1001
0000
0000
0000
,
0000
0000
0000
0000
,
0000
0000
0000
0000
,
0000
0000
0000
0110
,
1001
0000
0000
0000
,
0000
0000
0000
0000
,
0000
0000
0000
0000
,
0001
0000
0001
0000
1000
0000
0001
0000
0100
0010
1000
0010
0100
0000
0000
0000
,
0001
0000
0010
0001
0100
0000
0010
0000
0100
0000
0010
1000
0100
0000
0001
0000
,
0100
0000
1000
0100
0010
0000
0001
0000
0100
0000
1000
0100
0010
0000
1000
0000
,
0001
0000
0100
0001
0010
0000
0100
0000
0010
0000
0100
1000
0010
0000
0001
0000
,
0010
0000
1000
0010
0100
0000
0001
0000
0010
0000
1000
0010
0001
1000
0001
0100
,
0010
1000
1200
1300
2001
3010
1020
0130
,
0001
0010
0021
0031
1002
0103
0201
0310
,
1000
0010
0100
0010
1000
0010
0100
0010
1000
0010
0001
0010
0100
0010
1000
0100
,
0010
0000
1000
0010
0001
0100
0010
1000
0001
0000
1000
0100
0010
0001
1000
0000
,
1001
0000
0000
0000
0001
0100
0000
0010
0100
1000
0100
0001
0100
0010
0000
1000
,
0010
0100
0010
1000
0100
0010
0000
0100
1000
0001
1000
0010
0001
0010
0100
0000
,
0010
0000
0000
0000
0010
1000
0000
0100
1000
0100
0001
0100
0010
0001
0000
0010
,
1000
0000
0001
0000
1000
0010
0000
0001
1000
0100
0001
0000
0201
0000
0000
0000
,
1300
0000
0000
0000
1000
0010
0000
0100
0010
0001
0010
1000
0010
0100
0000
0001
,
0100
0010
0100
0001
0010
0100
0000
0010
0001
1000
0001
0100
1000
0100
0010
0000
,
0100
0000
0000
0000
0000
0000
0000
0000
0100
0010
0100
0000
0000
0000
0010
0000
1000
0000
0001
0000
0010
0000
0100
0000
1000
0000
0000
0000
0001
0000
0000
0000
,
2000
0000
3010
1000
0100
0000
2000
0000
3010
1000
0100
0000
0001
0100
1000
0100
,
0010
0000
0000
0000
0010
0001
0000
0100
0001
0010
1000
0010
0001
0010
0200
0000
,
0000
0000
1300
0000
0100
0001
0100
1000
0100
0001
1000
0010
0001
0100
0010
0000
,
0110
0000
1100
0000
0101
0000
0000
0001
1000
0010
0100
0001
0020
0000
0000
0000
,
0130
0000
0000
0000
1100
0000
0000
0101
0000
0000
100M
0100
0001
0010
0100
1000
,
0001
0000
0000
0000
0011
0000
0000
1010
0000
0000
M001
0010
1000
0100
0010
0001
,
2000
0000
0000
0000
3000
0010
0100
1000
0002
0000
0000
0000
0003
0010
0100
0001
,
1000
0000
0000
0000
0000
0000
0100
0000
0000
0010
0000
0000
0001
0000
0000
0000
0000
0000
1000
0000
0000
0000
0000
0000
0001
0000
0000
0010
0000
0000
0200
0000
0000
0000
0000
0000
1300
0000
0001
0000
1000
0000
0001
0000
1000
0000
0001
0000
,
0100
0000
0000
0000
0101
0000
0001
2200
3300
0000
1000
0000
0001
0010
1000
0010
,
0100
0000
1000
0000
1001
0000
0001
0100
0000
0010
1000
0100
0010
0000
0001
0000
,
2000
0000
0000
0000
3001
0000
1000
0202
0303
0000
0001
0000
1000
0010
0001
0010
,
0100
0000
0001
0000
1001
0000
1000
0100
0000
0001
0100
0010
0002
0000
0000
0000
,
0103
0000
0010
0000
1000
0010
0100
0001
0010
0100
1000
0001
0100
1000
0100
0010
,
0001
0000
0010
0000
1000
0100
0010
0001
0100
0010
1000
0001
0010
1000
0010
0100
,
0002
0000
0000
0000
0103
0010
0000
0100
1000
0001
0100
0010
0000
1000
0001
0010
,
0100
0000
0000
1000
0000
0000
0100
0000
0000
0010
0000
0000
0001
0000
0000
0100
0000
0000
0010
0000
0000
1000
0000
0000
0001
0000
0000
1000
0000
0000
0100
0000
0000
0010
0000
0000
0001
0000
1000
0000
0001
0000
1000
0000
0001
0000
1000
0000
,
0020
0000
0130
0001
,
1000
0000
0100
0020
,
0031
0000
0000
1000
0010
0000
0000
0001
,
0010
0000
0000
0000
1000
0100
0010
0001
,
1000
0010
0100
0001
0000
1000
0001
0010
0100
0000
0000
0000
0100
0000
0010
0000
,
0001
1000
0010
0100
0000
0001
0100
0010
1000
0000
0000
0000
1000
0000
0100
0000
,
0010
0001
1000
0010
0000
0001
0010
0000
0100
0001
1000
0100
0000
0001
0100
0000
,
0010
0001
0100
0020
0000
0000
0000
0000
0000
0000
0000
0000
0M00
0000
0000
0000
,
0000
0000
0000
0000
0031
0010
1000
0100
0020
0000
0030
0000
0011
0000
0001
0000
,
0100
0010
1000
2002
0000
0000
3003
0021
,
0000
0000
0000
0000
1030
0010
0001
0100
0020
0000
0030
0000
1010
0000
1000
0000
,
0001
0010
0100
2100
0000
3010
0100
0102
,
0000
0000
0013
0000
0000
0110
0000
0000
2001
0000
0000
0000
0010
0000
0010
0000
,
3010
0100
0202
0000
0000
0303
0021
0000
,
1000
0000
0000
0000
0130
0010
0001
0100
2000
0000
0000
0000
0000
0000
0000
0000
,
3100
0000
0001
0000
0010
0000
0011
0000
0000
0001
1000
0001
1000
0001
1000
0001
,
1000
0010
0100
0001
2000
0000
0000
0000
3001
1000
0100
1000
0001
0100
0010
0100
,
0001
1000
0100
1000
0001
0100
0010
1000
0001
0010
1000
0010
0001
1000
0010
1000
,
0001
0000
0100
0000
0001
0000
0100
0000
0001
0000
0100
0000
0002
0000
0000
0000
0000
0000
0000
0000
0000
0000
0000
0000
1003
0000
0000
0001
0000
0000
0010
0000
0000
0001
0000
0000
1000
0000
0000
0010
0000
0000
0100
0000
0000
0010
0000
0000
,
1000
0001
0010
0001
1000
0010
0100
0001
1000
0100
0001
0100
1000
0001
0100
0001
,
1000
0000
0010
0000
1000
0000
0010
0000
1000
0000
0010
0000
2000
0000
0000
0000
0000
0000
0000
0000
0000
0000
0000
0000
3001
0000
0010
0000
0001
0000
0010
0000
0000
0001
0000
0000
1000
0000
0010
0000
1000
0000
0010
0000
0000
1000
0000
0000
,
0001
0000
0100
0000
0001
0000
0100
0000
0000
0001
0000
0000
1000
0000
0100
0000
1000
0000
0100
0000
0000
1000
0000
0000
0001
0000
1000
0000
0001
0000
1000
0000
0000
0010
0000
0000
0100
0000
0001
0000
0100
0000
0001
0000
0000
0010
0000
0000
,
0100
0000
1000
0000
0100
0000
1000
0000
0000
0010
0000
0000
0100
0000
0010
0000
0100
0000
0010
0000
0000
1000
0000
0000
0001
0000
0000
0010
0000
0000
1000
0000
0000
0001
0000
0000
0100
0000
0000
1000
0000
0000
0001
0000
0000
0010
0000
0000
,
1000
0001
0100
1000
0002
0000
0000
0000
0103
0000
1000
0100
0010
0000
1000
0100
,
0010
0000
0001
0000
1001
0000
0000
0000
1000
0000
0001
0100
0001
0010
0000
001M
,
1000
0000
0100
1000
0001
0100
0000
010M
1000
0000
0001
0010
1000
0001
0000
0100
,
0010
0000
0100
0000
1000
0001
0100
0000
0010
0000
1000
0100
1000
0010
0000
M010
,
0001
0000
0100
0001
1000
0100
0000
M100
0001
0000
1000
0100
0001
0100
0000
1000
,
0002
0000
0000
0000
0103
0000
0100
0001
0010
0000
0001
1000
0001
0010
0000
001M
,
1000
0000
0100
0001
0100
0010
0000
0M10
1000
0000
0001
0100
1000
0001
0000
0010
,
0100
0000
1000
0100
0001
0010
1000
0000
0010
0000
0001
1000
0001
0100
0000
010M
,
1000
0000
0010
0001
0010
0100
0000
01M0
1000
0000
0000
1100
0000
0011
0000
0000
,
1001
0000
0000
0000
0000
0000
0001
0000
1000
0000
0001
0000
1000
0000
0000
0000
0000
0000
0010
0000
0100
0000
0010
0000
0100
0000
0000
0000
0000
0000
0001
0000
0000
1000
0000
0000
0100
0000
0000
0001
0000
0000
MMM0
0000
0000
0001
0000
0000
,
0100
0000
0000
0000
0000
0000
0001
0000
0000
1000
0000
0000
0010
0000
0000
0001
0000
0000
MMM0
0000
0000
0001
0000
0000
0010
0000
0000
0000
0000
0000
0001
0000
0000
1000
0000
0000
0100
0000
0000
0010
0000
0000
0001
0000
1000
0000
0001
0000
,
1000
0000
0010
0000
0001
0010
0000
1000
0010
0000
1000
0001
0010
1000
0MMM
1000
,
0010
0000
0000
0000
0000
0000
0100
0000
0000
0001
0000
0000
0010
0000
0000
0000
0000
0000
0010
0000
0000
0001
0000
0000
0100
0000
0000
0000
0000
0000
0010
0000
1000
0000
0010
0000
1000
0000
0000
0000
0000
0000
0001
0000
1000
0000
0001
0000
,
1000
0000
0000
0000
0100
0000
0000
0000
1100
0000
0000
0000
0001
0000
0000
0000
0100
0000
0000
0000
0101
0000
0000
0000
1000
0000
0000
0000
0000
0000
0100
0000
0000
0000
0000
0000
0010
0000
0000
0100
0000
0000
0010
0000
0000
0000
0000
0000
,
1000
0000
0001
0100
1000
0010
0100
0001
1000
0000
0010
0000
0100
0010
0100
0000
,
1000
0000
0001
0010
1000
0100
0010
0001
2000
0000
0000
3020
0000
0230
0000
0000
,
0302
0000
0000
0023
0000
0230
0000
0000
1300
0000
0000
0010
0000
0100
0010
0000
,
1000
0000
0001
0000
1000
0100
0010
0001
1000
0010
1000
0001
0010
0001
1000
0010
,
1000
0001
0010
1000
0001
1000
0010
0001
1000
0010
0100
0001
0010
0100
1000
0001
,
1000
0000
0010
0000
1000
0000
0010
0000
1000
0000
0010
0000
2000
0000
0000
0000
0000
0000
0000
0000
0000
0000
0000
0000
3001
0000
0000
0100
0000
0000
0001
0000
0000
1000
0000
0000
0100
0000
0000
1000
0000
0000
0001
0000
0000
0100
0000
0000
,
0001
1000
0100
0001
1000
0001
0100
1000
0001
0100
0010
1000
0100
0010
0001
0100
,
2000
0000
0000
0000
0000
0000
3100
0000
0000
0010
0000
0000
0100
0000
0000
0010
0000
0000
0000
0000
0000
0000
0000
0000
1000
0000
0001
0000
1000
0000
0001
0000
0000
0010
0000
0000
0100
0000
1000
0000
0100
0000
1000
0000
0000
0010
0000
0000
,
0100
0000
0001
0000
0100
0000
0001
0000
0000
0010
0000
0000
0100
0000
1000
0000
0100
0000
1000
0000
0000
0001
0000
0000
0100
0000
0010
0000
0100
0000
0010
0000
0000
0001
0000
0000
0010
0000
0100
0000
0010
0000
0100
0000
0000
0001
0000
0000
,
1000
0000
0100
0000
1000
0000
0100
0000
0000
0010
0000
0000
1000
0000
0010
0000
1000
0000
0010
0000
0000
0100
0000
0000
1000
0000
0000
0001
0000
0000
0100
0000
0000
0010
0000
0000
0001
0000
0000
1000
0000
0000
0100
0000
0000
0010
0000
0000
,
2000
0000
3001
1000
0100
0000
0120
0000
0000
0000
0000
0000
1000
0000
0000
0000
,
0031
0000
0000
0000
0000
0000
1000
0000
0000
0000
0000
0000
0010
0000
0100
0000
0010
0000
0100
0000
0010
0000
0100
0000
0001
0000
0000
1000
0000
0000
0100
0000
0000
0010
0000
0000
0000
0000
0000
0001
0000
0000
1000
0000
0000
0010
0000
0000
,
0100
0000
0000
0000
0100
0000
0010
0000
1000
0001
0010
0100
0000
1000
0001
0100
,
0010
0000
0000
0000
0010
0000
1000
0000
0001
0010
1000
0001
0000
1000
0010
0000
,
0001
0100
1000
0001
0000
1000
0100
0000
0001
0010
0100
2000
0000
0000
0000
0000
,
3000
0000
0000
0000
;

//--------------- dance-double - Talkion ----------------
#NOTES:
     dance-double:
     Talkion:
     Edit:
     19:
     0,0,0,0,0:
00000000
00000000
00000000
00000000
,
00000000
00000000
00000000
00000000
,
00011000
00000000
00000000
00000000
,
00000000
00000000
00000000
00000000
,
00000000
00000000
00000000
00000000
,
00000000
00000000
00000000
00101000
,
00011000
00000000
00000000
00000000
,
00000000
00000000
00000000
00000000
,
00000000
00000000
00000000
00000000
,
00001000
00000000
00001000
00000000
00000010
00000000
00000001
00000000
00001000
00000001
00000100
00000001
00001000
00000000
00000000
00000000
,
00000001
00000000
00000010
00001000
00010000
00000000
00001000
00000000
00010000
00000000
00100000
10000000
01000000
00000000
10000000
00000000
,
00010000
00000000
01000000
00010000
00001000
00000000
00000100
00000000
00000010
00000000
00000100
00001000
00000010
00000000
00000001
00000000
,
00000010
00000000
00001000
00000100
00000010
00000000
00001000
00000000
00010000
00000000
01000000
00100000
00010000
00000000
10000000
00000000
,
00100000
00000000
00010000
00001000
00100000
00000000
00001000
00000000
00000010
00000000
00000001
00001000
00000010
00001000
00000001
00000010
,
00000100
00001000
00002100
00003001
00002001
00003010
00002010
00013000
,
00120000
10030000
10020000
01030000
01020000
00031000
00001200
00000310
,
00000001
00000010
00000100
00000010
00000001
00000010
00000100
00000010
00000001
00000010
00001000
00010000
01000000
10000000
00010000
01000000
,
00100000
00000000
00010000
00100000
10000000
01000000
00100000
00010000
01000000
00000000
00001000
00010000
00000100
00001000
00000001
00000000
,
00001001
00000000
00000000
00000000
00000001
00000100
00000000
00000010
00000100
00000010
00001000
00000100
00010000
00001000
00000000
00100000
,
01000000
10000000
00010000
00000000
10000000
00100000
00000000
00010000
00001000
00010000
00000100
00001000
00000010
00000100
00000001
00000000
,
00001000
00000000
00000000
00000000
00000100
00000010
00000000
00000100
00010000
00001000
00100000
00010000
01000000
00100000
00000000
10000000
,
00010000
00000000
00001000
00000000
00000100
00000010
00000000
00001000
00000001
00000100
00001000
00000000
00001002
00000000
00000000
00000000
,
00000103
00000000
00000000
00000000
00000001
00000010
00000000
00000100
00000010
00000100
00001000
00000010
00010000
00001000
00000000
01000000
,
00100000
10000000
00010000
00000000
10000000
01000000
00000000
00010000
00001000
00010000
00000010
00001000
00000100
00000010
00000001
00000000
,
00000100
00000000
00000000
00000000
00000000
00000000
00000000
00000000
00001000
00010000
00001000
00000000
00000000
00000000
00010000
00000000
00001000
00000000
00100000
00000000
00010000
00000000
10000000
00000000
00100000
00000000
00000000
00000000
01000000
00000000
00000000
00000000
,
00200000
00000000
00310000
00001000
00000100
00000000
00020000
00000000
00030100
00001000
00010000
00000000
00001000
00010000
01000000
10000000
,
00100000
00000000
00000000
00000000
00100000
01000000
00000000
00010000
10000000
01000000
00100000
00010000
00001000
00000100
00000020
00000000
,
00000000
00000000
00000031
00000000
00001000
00000001
00000100
00000010
00001000
00010000
01000000
00100000
10000000
00010000
01000000
00000000
,
01100000
00000000
01001000
00000000
00011000
00000000
00000000
00010000
00000100
00001000
00000001
00000100
00000020
00000000
00000000
00000000
,
00001030
00000000
00000000
00000000
00001010
00000000
00000000
0000M011
00000000
00000000
0000100M
00000010
00000100
00010000
00001000
00100000
,
00010000
00000000
00000000
00000000
01010000
00000000
00000000
110M0000
00000000
00000000
M0010000
01000000
00100000
00001000
00010000
00000100
,
00002000
00000000
00000000
00000000
00003000
00000001
00000100
00001000
00020000
00000000
00000000
00000000
00030000
00001000
00010000
01000000
,
10000000
00000000
00100000
01000000
00010000
00000000
00001000
00000000
00000010
00000100
00000002
00000000
00001003
00000001
00000010
00000100
,
00010000
00000000
00000000
00000000
00011000
00000000
00001000
02020000
03030000
00000000
00001000
00000000
01000000
00001000
00010000
01000000
,
00100000
00000000
00001000
00000000
00000010
00000000
00000001
00001000
00000000
00000010
00010000
00000100
00001000
00000000
00000010
00000000
,
00000200
00000000
00000000
00000000
00001300
00000000
00010000
00002020
00003030
00000000
00010000
00000000
00000010
00010000
00001000
00000010
,
00000100
00000000
00010000
00000000
01000000
00000000
10000000
00010000
00000000
01000000
00001000
00010000
00000200
00000000
00000000
00000000
,
00000310
00000000
00000100
00000000
00000010
00000001
00000100
00000000
00000001
00000100
00000010
00001000
00010000
01000000
10000000
01000000
,
00100000
00000000
01000000
00000000
00100000
10000000
01000000
00000000
10000000
01000000
00100000
00010000
00001000
00000100
00000001
00000100
,
00000020
00000000
00000000
00000000
00000031
00000010
00000000
00001000
00010000
00000010
00000100
00001000
00000000
00010000
00000010
00001000
,
00000100
00000000
00000000
00010000
00000000
00000000
00001000
00000000
00000000
00100000
00000000
00000000
00010000
00000000
00000000
01000000
00000000
00000000
00100000
00000000
00000000
10000000
00000000
00000000
01000000
00000000
00000000
00100000
00000000
00000000
00010000
00000000
00000000
10000000
00000000
00000000
00100000
00000000
01000000
00000000
00100000
00000000
01000000
00000000
00100000
00000000
01000000
00000000
,
00020000
00000000
00031000
00000100
,
00000010
00000000
00010000
02000000
,
03100000
00000000
00000000
00010000
00001000
00000000
00000000
00000001
,
00001000
00000000
00000000
00000000
00010000
01000000
10000000
00100000
,
00010000
00001000
00000100
00000001
00000000
00001000
00010000
01000000
00100000
00000000
00000000
00000000
00100000
00000000
01000000
00000000
,
00001000
00010000
01000000
10000000
00000000
00010000
00001000
00000100
00000010
00000000
00000000
00000000
00000010
00000000
00000001
00000000
,
00001000
00000010
00000001
00001000
00000000
00010000
00001000
00000000
00010000
01000000
10000000
00010000
00000000
00001000
00010000
00000000
,
10000000
01000000
00100000
00002000
00000000
00000000
00000000
00000000
00000000
00000000
00000000
00000000
000M0000
00000000
00000000
00000000
,
00000000
00000000
00000000
00000000
00003010
00001000
00010000
00000100
00000020
00000000
00000030
00000000
00000011
00000000
00000001
00000000
,
00000010
00001000
00100000
02200000
00000000
00000000
03300000
00201000
,
00000000
00000000
00000000
00000000
01300000
00010000
00001000
00100000
02000000
00000000
03000000
00000000
11000000
00000000
10000000
00000000
,
00100000
00010000
00000100
00000120
00000000
00000031
00000100
00002100
,
00000000
00000000
00013000
00000000
00000000
00110000
00000000
00000000
01200000
00000000
00000000
00000000
10000000
00000000
10000000
00000000
,
10300000
00010000
00220000
00000000
00000000
00330000
00010020
00000000
,
00000001
00000000
00000000
00000000
00001030
00000010
00000001
00000100
00000020
00000000
00000030
00000000
00001010
00000000
00001000
00000000
,
00010000
00000000
00100000
00000000
01000000
00000000
01100000
00000000
00000000
10000000
00010000
10000000
00010000
10000000
00010000
10000000
,
00010000
01000000
00001000
00010000
00000200
00000000
00000000
00000000
00001300
00000010
00010000
00000100
00001000
00000010
00010000
00000100
,
00001000
00000001
00000100
00000010
00001000
00000001
00000100
00000010
00001000
00010000
01000000
10000000
01000000
00010000
01000000
00100000
,
10000000
00000000
00010000
00000000
10000000
00000000
00010000
00000000
10000000
00000000
00010000
00000000
00200000
00000000
00000000
00000000
00000000
00000000
00000000
00000000
00000000
00000000
00000000
00000000
00301000
00000000
00000000
00100000
00000000
00000000
00010000
00000000
00000000
01000000
00000000
00000000
00001000
00000000
00000000
00100000
00000000
00000000
00010000
00000000
00000000
01000000
00000000
00000000
,
00100000
10000000
01000000
00100000
00010000
01000000
00001000
00010000
00000100
00000010
00001000
00010000
00000100
00000010
00001000
00010000
,
00000020
00000000
00000000
00000000
00000130
00000000
00000000
00000000
00000001
00000100
00001000
00010000
00100000
10000000
00010000
10000000
,
00100000
00010000
00001000
00000100
00000001
00001000
00000010
00000100
00000001
00000010
00001000
00010000
01000000
10000000
00010000
10000000
,
01000000
00010000
00001000
00000010
00000001
00001000
00000100
00000010
00000001
00001000
00000010
00001000
00000001
00000100
00001000
00010000
,
01000000
10000000
00010000
01000000
00200000
00000000
00000000
00000000
01300000
00000000
00001000
00010000
01000000
00000000
00001000
00010000
,
01000000
00000000
00100000
00000000
10100000
00000000
00000000
00000000
10000000
00000000
00010000
01000000
00001000
00010000
00000000
0001M000
,
00100000
00000000
00001000
00000010
00000100
00001000
00000000
00001M00
00010000
00000000
00000100
00000010
00000001
00001000
00000000
00000010
,
00000100
00000000
00001000
00000000
00010000
00000100
00001000
00000000
00000001
00000000
00001000
00000010
00010000
00001000
00000000
000M1000
,
00000100
00000000
00010000
01000000
00100000
00010000
00000000
00M10000
00001000
00000000
00100000
00010000
01000000
00100000
00000000
10000000
,
00020000
00000000
00000000
00000000
00031000
00000000
00001000
00000100
00000010
00000000
00000001
00001000
00000100
00010000
00000000
00010M00
,
01000000
00000000
00010000
01000000
00001000
00010000
00000000
0001M000
00100000
00000000
01000000
10000000
00100000
01000000
00000000
00001000
,
00010000
00000000
01000000
00000000
00010000
00001000
00100000
00000000
00010000
00000000
10000000
00010000
00100000
00001000
00000000
00M01000
,
00000010
00000000
00000001
00000010
00001000
00000100
00000000
0000M100
00000001
00000000
00000000
00000101
00000000
00001100
00000000
00000000
,
00011000
00000000
00000000
00000000
00000000
00000000
00010000
00000000
00001000
00000000
00010000
00000000
00001000
00000000
00000000
00000000
00000000
00000000
01000000
00000000
00100000
00000000
01000000
00000000
00100000
00000000
00000000
00000000
00000000
00000000
10000000
00000000
00000000
00100000
00000000
00000000
00010000
00000000
00000000
00001000
00000000
00000000
00000000
00000000
00000000
000M1000
00000000
00000000
,
00000100
00000000
00000000
00000000
00000000
00000000
00000001
00000000
00000000
00000100
00000000
00000000
00001000
00000000
00000000
00000010
00000000
00000000
00000000
00000000
00000000
0000M010
00000000
00000000
00000100
00000000
00000000
00000000
00000000
00000000
00010000
00000000
00000000
01000000
00000000
00000000
10000000
00000000
00000000
00010000
00000000
00000000
01000000
00000000
00100000
00000000
01000000
00000000
,
00100000
00000000
00010000
00000000
00001000
00000010
00000000
00000100
00001000
00000000
00000001
00000100
00001000
00010000
00000000
0001M000
,
00100000
00000000
00000000
00000000
00000000
00000000
10000000
00000000
00000000
00100000
00000000
00000000
00010000
00000000
00000000
00000000
00000000
00000000
00010000
00000000
00000000
00100000
00000000
00000000
10000000
00000000
00000000
00000000
00000000
00000000
00100000
00000000
01000000
00000000
00100000
00000000
01000000
00000000
00000000
00000000
00000000
00000000
00010000
00000000
00001000
00000000
00010000
00000000
,
00001000
00000000
00000000
00000000
00000100
00000000
00000000
00000000
00000001
00000000
00000000
00000000
00001000
00000000
00000000
00000000
00000100
00000000
00000000
00000000
00000001
00000000
00000000
00000000
00001000
00000000
00000000
00000000
00000000
00000000
00010000
00000000
00000000
00000000
00000000
00000000
00001000
00000000
00000000
00010000
00000000
00000000
00001000
00000000
00000000
00000000
00000000
00000000
,
00100000
00000000
00001000
00010000
00100000
01000000
10000000
01000000
00010000
00000000
00001000
00000000
00000100
00001000
00000100
00000000
,
00000001
00000000
00001000
00000010
00000001
00000010
00000100
00001000
00020000
00000000
00000000
01000000
00000000
00100000
00000000
00000000
,
00032000
00000000
00000000
00000100
00000000
00000010
00000000
00000000
00013000
00000000
00000000
01000000
00000000
00100000
01000000
00000000
,
00010000
00000000
10000000
00000000
00010000
00100000
00001000
00010000
00000100
00001000
00000010
00010000
00000100
00001000
00000010
00010000
,
00001000
00100000
00010000
01000000
00100000
10000000
00010000
10000000
01000000
00100000
00010000
00001000
00000100
00000001
00000100
00000010
,
00000001
00000000
00001000
00000000
00000001
00000000
00001000
00000000
00000001
00000000
00001000
00000000
00000020
00000000
00000000
00000000
00000000
00000000
00000000
00000000
00000000
00000000
00000000
00000000
00000130
00000000
00000000
00000010
00000000
00000000
00010000
00000000
00000000
00000100
00000000
00000000
00001000
00000000
00000000
00000010
00000000
00000000
00010000
00000000
00000000
00000100
00000000
00000000
,
00001000
00000010
00000100
00000001
00001000
00000100
00000010
00001000
00010000
01000000
00100000
00010000
10000000
00100000
01000000
00010000
,
20000000
00000000
00000000
00000000
30010000
00000000
00000000
00000000
10000000
01000000
00010000
00001000
00000100
00000001
00001000
00000001
,
00000010
00001000
00010000
00100000
10000000
00010000
00100000
00010000
10000000
00100000
00010000
00001000
00000010
00000001
00001000
00000001
,
00000100
00001000
00010000
01000000
10000000
00010000
00100000
00010000
10000000
00100000
00010000
00000010
00000100
00000010
00001000
00000100
,
00000020
00000000
00000031
00001000
00000010
00000000
00000120
00000000
00000000
00000000
00000000
00000000
00000001
00000000
00000000
00000000
,
00010030
00000000
00000000
00000000
00000000
00000000
00001000
00000000
00000000
00000000
00000000
00000000
00100000
00000000
01000000
00000000
00100000
00000000
01000000
00000000
00100000
00000000
01000000
00000000
10000000
00000000
00000000
00010000
00000000
00000000
01000000
00000000
00000000
00100000
00000000
00000000
00000000
00000000
00000000
00001000
00000000
00000000
00000100
00000000
00000000
00000010
00000000
00000000
,
00000001
00000000
00000000
00000000
00000001
00000000
00000010
00000000
00000001
00001000
00000010
00000100
00000000
00010000
00100000
01000000
,
10000000
00000000
00000000
00000000
10000000
00000000
01000000
00000000
10000000
00100000
00010000
00001000
00000000
00000001
00001000
00000000
,
00010000
01000000
10000000
00010000
00000000
00001000
00010000
00000000
10000000
01000000
00100000
00020000
00000000
00000000
00000000
00000000
,
00030000
00000000
00000000
00000000
;
