#TITLE:悪性ロリィタマキャヴェリズム;
#SUBTITLE:;
#ARTIST:かいりきベア;
#TITLETRANSLIT:Akusei lolita Machiavellism;
#SUBTITLETRANSLIT:;
#ARTISTTRANSLIT:Kairiki bear;
#GENRE:;
#CREDIT:PenTA_;
#MUSIC:Akusei lolita Machiavellism.ogg;
#BANNER:Akusei lolita Machiavellism.png;
#BACKGROUND:;
#CDTITLE:;
#SAMPLESTART:37.715;
#SAMPLELENGTH:15.000;
#SELECTABLE:YES;
#OFFSET:-0.001;
#BPMS:0.000=280.000;
#STOPS:;
#BGCHANGES:;
#FGCHANGES:;

//--------------- dance-single - ----------------
#NOTES:
     dance-single:
     :
     Hard:
     17:
     0.978012,0.979482,0.463329,0.431375,0,857,799,58,54,0,0,0.978012,0.979482,0.463329,0.431375,0,857,799,58,54,0,0:
0000
0000
0000
0000
,
0000
0000
0000
0000
,
0000
0000
0000
0000
,
0000
0000
0000
0000
,
0000
0000
0000
0000
,
0000
0000
0000
0000
,
0000
0000
0000
0000
,
1000
0001
0100
0001
1000
0001
0100
0010
,
0000
1000
0100
0010
0001
1000
0001
0100
,
0000
0010
0100
0010
1000
0001
0010
0100
,
0000
1000
0001
0010
0001
1000
0100
0010
,
0000
0001
0100
0010
1000
0001
1000
0100
,
0000
0010
0001
1000
0001
1000
0100
0010
,
0000
0001
1000
0001
0100
1000
0100
0001
,
0000
0010
0100
1000
0001
1000
0100
0010
,
0000
0001
0010
1000
0010
0001
1000
0020
,
0200
0000
0000
0000
,
0000
0000
0000
0330
,
0110
0000
1001
0000
2100
0000
0000
3001
,
0000
0100
0001
0010
0001
0200
0000
0000
,
0310
0000
1010
0000
0101
0000
0001
0020
,
0000
1000
0001
0130
,
1001
0000
1010
0000
0210
0000
0000
0301
,
0000
1000
0100
1000
0020
0000
0000
0130
,
0000
0001
1000
0001
1000
0001
1000
0010
,
0100
0001
1000
0010
0100
0001
1000
0200
,
0000
0310
0001
0010
0100
0010
0001
2000
,
0000
3010
0100
0001
0100
0010
0100
0002
,
0000
0013
0100
1000
0001
1000
0100
0020
,
0000
0031
1000
0001
0100
0010
1000
0020
,
0000
0130
0001
1000
0001
0100
1000
0200
,
0000
0310
1000
0001
1000
0100
1000
0002
,
0000
0013
1000
0010
0100
1000
0001
0200
,
0000
0310
1000
0001
0100
0010
1000
0001
,
0100
0110
0000
1010
,
0000
1100
0000
0011
,
0000
0101
0000
1010
,
1000
0000
0100
0000
0100
0020
0000
0000
,
0031
0101
0000
0110
,
0000
1100
0000
1001
,
0000
0110
0000
1001
,
0001
0010
0100
1000
0001
0020
0000
0130
,
0000
1000
0001
1000
0001
0000
0100
0010
,
1000
0000
1100
0000
0001
0100
0000
0000
,
0010
1000
0001
1000
0010
0000
0100
0001
,
0000
0010
0001
1000
0100
1000
0001
0000
,
0010
0100
1000
0001
1000
0000
0100
0010
,
0000
0001
0100
0001
1000
0010
0100
0000
,
0001
1000
0001
0100
0010
0000
0110
0000
,
1000
0000
1000
0200
0000
0000
0310
0000
,
0002
2003
3020
0130
,
0002
0023
0230
0000
,
0310
0001
0010
0001
1000
0000
0010
1000
,
0000
0001
0100
1000
0100
0001
0010
0000
,
0100
1000
0100
1000
0001
0000
0010
0100
,
0000
1000
0010
0001
0010
1000
0001
0000
,
0100
0010
1000
0001
0100
0000
0001
1000
,
0002
0000
0000
0010
0000
0000
1000
0000
,
0103
0010
1000
0010
1000
0001
0100
0001
,
0100
0010
1000
0100
0020
0000
0000
0000
,
0130
0000
1000
0000
0001
0000
1000
0100
,
1000
0000
0010
0100
0000
1000
0100
0001
,
0010
0100
0010
0100
0010
0000
0000
0000
,
1100
0000
0000
0011
0000
0000
0101
0000
,
0110
0000
0000
1001
0000
0000
0110
0000
,
0000
2000
0002
3003
,
0001
0100
0001
0100
1000
0100
0010
1000
,
0001
0010
0001
0010
1000
0010
0001
1000
,
0100
0010
0001
1000
0100
0010
0000
0110
,
0000
1001
0000
1000
0020
0000
0030
0000
,
0110
0000
1001
0000
1020
0000
0000
0130
,
0000
0001
1000
0001
0010
0200
0000
0000
,
1300
0000
0011
0000
0101
0000
1000
0020
,
0000
0000
0130
0000
0001
1000
0001
1000
,
0010
0000
0101
0000
0021
0000
0000
0130
,
0000
1000
0001
1000
0002
0000
0000
0103
,
0000
0010
1000
0001
1000
0001
0100
0010
,
1000
0100
0010
0001
1000
0100
0010
0002
,
0000
0013
0100
1000
0100
0010
0001
2000
,
0000
3010
0100
0001
0010
0001
1000
0020
,
0000
0130
0001
1000
0001
0010
0100
0020
,
0000
0031
1000
0100
0010
0001
1000
0200
,
0000
1300
0001
0010
0001
1000
0010
0200
,
0000
0310
1000
0001
0100
1000
0100
0002
,
0000
0013
0100
0001
0100
1000
0001
0020
,
0000
0130
1000
0001
1000
0001
0100
0020
,
0000
0130
1000
0100
0001
1000
0010
0200
,
0000
0301
0010
1000
0010
0001
1000
0002
,
0000
0103
1000
0001
0010
1000
0010
0200
,
0000
0301
0010
0100
1000
0001
0010
0200
,
0000
1300
0001
0100
1000
0100
0010
2000
,
0000
3001
0100
0001
0010
0100
0010
0002
,
0000
1003
0100
0001
1000
0010
0100
0020
,
0000
0031
1000
0001
0100
0010
1000
0001
,
0200
0000
0010
0000
0010
0310
0000
1001
,
0000
0001
0100
0010
1000
0001
1000
0010
,
0000
0100
0001
1000
0001
0000
0010
0100
,
1000
0000
1010
0000
0100
0001
0000
0000
,
0010
0001
1000
0001
0010
0000
0100
1000
,
0000
0010
1000
0001
0100
0001
1000
0000
,
0010
0100
0001
1000
0001
0000
0100
0010
,
0000
1000
0100
1000
0001
0010
0100
0000
,
1000
0001
1000
0100
0010
0000
0110
0000
,
0001
0000
0001
0200
0000
0000
0310
0000
,
2000
3002
0023
0130
,
2000
3020
0230
0000
,
0310
1000
0010
1000
0001
0000
0010
0001
,
0000
1000
0100
0001
0100
1000
0010
0000
,
0100
0001
0100
0001
1000
0000
0010
0100
,
0000
0001
0010
1000
0010
0001
1000
0000
,
0100
0010
0100
0010
0001
0000
1000
0010
,
0200
0000
0000
1000
0000
0000
0001
0000
,
0310
0100
0010
0100
0001
1000
0010
0100
,
0001
0100
0001
1000
0020
0000
0000
0000
,
0130
0000
0001
0000
1000
0000
0001
0100
,
0001
0000
0010
0100
0000
0001
0100
1000
,
0010
0100
0010
0100
0010
0000
0000
0000
,
0101
0000
0000
1010
0000
0000
1100
0000
,
0010
0000
0001
0000
1000
0000
0001
0100
,
0010
0000
1000
0100
0000
0001
0100
1000
,
0010
0100
0010
0100
0010
0000
0000
0000
,
1001
0000
0001
0010
0000
0100
1000
0000
,
0110
0000
0000
1001
0000
0000
0110
0000
,
0000
0002
2000
3003
,
0020
0000
0000
0000
0000
0000
0000
0130
,
0000
0110
0000
0010
1000
0010
0100
0001
,
0000
1000
0100
0010
0001
1000
0001
0100
,
0000
0010
0100
0010
1000
0001
0010
0100
,
0000
1000
0001
0010
0001
1000
0100
0010
,
0000
0001
0100
0010
1000
0001
1000
0100
,
0000
0010
0001
1000
0001
1000
0010
0100
,
0000
0001
1000
0001
0100
1000
0100
0001
,
0000
0010
0100
1000
0001
0010
0001
1000
,
0100
0001
1000
0010
0001
0010
0100
1000
,
0000
0010
1000
0001
1000
0010
0100
0001
,
0000
1000
0100
1000
0001
0100
0001
0010
,
0000
0100
1000
0001
1000
0100
0010
0001
,
0000
0100
0010
0100
0010
1000
0001
0100
,
0000
0010
1000
0001
1000
0100
0010
0001
,
0000
0010
0100
1000
0100
0001
0100
0010
,
0000
0001
1000
0001
0100
0010
1000
0001
,
0000
0010
1000
0001
0100
1000
0001
0200
,
0000
0000
0000
0000
,
0000
0000
0000
0000
0310
1000
0001
1001
,
0000
0110
0000
0000
;
