#TITLE:アカリがやってきたぞっ;
#SUBTITLE:;
#ARTIST:GYARI;
#TITLETRANSLIT:Akari is Here;
#SUBTITLETRANSLIT:;
#ARTISTTRANSLIT:;
#GENRE:;
#CREDIT:;
#BANNER:;
#BACKGROUND:;
#LYRICSPATH:;
#CDTITLE:;
#MUSIC:Akari is Here.ogg;
#OFFSET:-0.020000;
#SAMPLESTART:36.189999;
#SAMPLELENGTH:12.000000;
#SELECTABLE:YES;
#BPMS:0.000000=136.000000
;
#STOPS:
;
#BGCHANGES:;
#KEYSOUNDS:;
#ATTACKS:;

//---------------dance-single - ----------------
#NOTES:
     dance-single:
     :
     Beginner:
     2:
     0.129947,0.166366,0.023938,0.047875,0.000000,114.000000,111.000000,3.000000,6.000000,0.000000,0.000000,0.129947,0.166366,0.023938,0.047875,0.000000,114.000000,111.000000,3.000000,6.000000,0.000000,0.000000:
0000
0000
0000
0000
,
0000
0000
0000
0000
,
0000
0000
0000
0000
,
0000
0000
0000
0000
,
0000
0000
1000
0000
,
0001
0000
1000
0000
,
0001
0000
0010
0000
,
0100
0000
0020
0000
,
0030
0000
0001
0000
,
0100
0000
0001
0000
,
0100
0000
0010
0000
,
1000
0000
0001
0000
,
0000
0000
1000
0000
,
1000
0000
1000
0000
,
1000
0000
0001
0000
,
1000
0000
0001
0000
,
0000
0000
0001
0000
,
0001
0000
0001
0000
,
0001
0000
1000
0000
,
0001
0000
1000
0000
,
0001
0000
1000
0000
,
0000
0000
1001
0000
,
0100
0000
0020
0000
,
0030
0000
0100
0000
,
0010
0000
0100
0000
,
0010
0000
1000
0000
,
0001
0000
1000
0000
,
0001
0000
1000
0000
,
0100
0000
0010
0000
,
0001
0000
0100
0000
,
0010
0000
2000
0000
,
3000
0000
0100
0000
,
0010
0000
0001
0000
,
0010
0000
0100
0000
,
1000
0000
0100
0000
,
1000
0000
0001
0000
,
0100
0000
0110
0000
,
0000
0000
0000
1000
,
1000
0000
0001
0000
,
1000
0000
0001
0000
,
0010
0000
0001
0000
,
0010
0000
0001
0000
,
1000
0000
0001
0000
,
1000
0000
0010
0000
,
1000
0000
0020
0000
,
0030
0000
0100
0000
,
0010
0000
0100
0000
,
0010
0000
1000
0000
,
0001
0000
1000
0000
,
0001
0000
0010
0000
,
0001
0000
0010
0000
,
0001
0000
1000
0000
,
0001
0000
1000
0000
,
0001
0000
1000
0000
,
0001
0000
1000
0000
,
0010
0000
0220
0000
,
0000
0000
0330
0000
,
0000
0000
0001
0000
,
0001
0000
0001
0000
,
0001
0000
1000
0000
,
0001
0000
1000
0000
,
0000
0000
1000
0000
,
1000
0000
1000
0000
,
1000
0000
0001
0000
,
1000
0000
0001
0000
,
1000
0000
0000
0000
,
0000
0000
0000
0000
,
0000
0000
0000
0000
,
0000
0000
0000
0000
,
0000
0000
0010
0000
;

//---------------dance-single - ----------------
#NOTES:
     dance-single:
     :
     Easy:
     6:
     0.222277,0.249549,0.063834,0.287251,0.000000,195.000000,187.000000,8.000000,36.000000,0.000000,0.000000,0.222277,0.249549,0.063834,0.287251,0.000000,195.000000,187.000000,8.000000,36.000000,0.000000,0.000000:
0000
0000
0000
0000
,
0000
0000
0000
0000
,
0000
0000
0000
0000
,
0000
0000
0000
0000
,
0000
0000
1000
0010
,
0020
0030
0001
0010
,
0020
0030
1000
0001
,
0100
0010
1000
0020
,
0000
0030
1000
1000
,
0001
0001
1000
0001
,
1000
0001
0010
0100
,
0010
0100
0010
0000
,
0100
0100
2000
3000
,
0001
0100
0002
0003
,
1000
0010
2000
3000
,
0001
0010
0000
0100
,
0000
0010
0002
0003
,
1000
0010
2000
3000
,
0001
0010
0002
0003
,
1000
0100
0010
0100
,
0010
0001
1000
0000
,
0000
0000
2002
3003
,
0100
0010
0200
0300
,
0020
0030
2000
3000
,
0100
0010
0001
0010
,
0100
0000
2000
3010
,
0100
0100
0002
0013
,
0100
0100
1000
0001
,
1000
0001
0010
0000
,
0100
0000
2002
3003
,
0010
0100
0020
0030
,
0200
0300
0002
0003
,
1000
0100
0010
0100
,
1000
0000
0002
0103
,
0010
0010
2000
3100
,
0010
0010
0002
0000
,
0000
0003
0000
0000
,
0000
0000
0000
1001
,
1000
0010
0200
0000
,
0300
0010
1000
1000
,
0001
0001
0010
0001
,
0010
0000
0100
1000
,
0100
1000
0001
1000
,
0010
1000
0001
0010
,
0100
1000
0100
0010
,
0001
1000
0010
0000
,
0100
0010
2000
0000
,
3000
0001
0010
0010
,
0100
0010
0001
1000
,
0001
0000
0100
0010
,
0100
0010
1000
0001
,
1000
0001
0010
0001
,
0010
0001
1000
0010
,
1000
0010
0100
0000
,
0110
0000
1001
0000
,
1000
0001
0020
0000
,
0000
0030
0200
0300
,
1001
1001
2000
3000
,
0001
0100
0002
0003
,
1000
0010
2000
3000
,
0001
0010
0000
0100
,
0000
1000
0002
0003
,
1000
0010
2000
3000
,
0001
0010
0002
0003
,
1000
0100
0010
0000
,
0200
0000
0310
0000
0000
1001
0000
0000
,
0000
0000
0000
0000
,
0000
0000
0000
0000
,
0000
0000
0000
0000
,
0000
0000
0000
0020
0030
0000
0000
0000
;

//---------------dance-single - ----------------
#NOTES:
     dance-single:
     :
     Medium:
     10:
     0.414918,0.471371,0.215438,0.319168,0.059844,364.000000,337.000000,27.000000,40.000000,0.000000,0.000000,0.414918,0.471371,0.215438,0.319168,0.059844,364.000000,337.000000,27.000000,40.000000,0.000000,0.000000:
0000
0000
0000
0000
,
0000
0000
0000
0000
,
0000
0000
0000
0000
,
0000
0000
0000
0000
,
0000
0000
1000
0001
,
0010
0000
0000
0010
0000
0000
0010
0000
0001
0000
0000
0000
1000
0000
0000
0000
,
0100
0000
0000
0100
0000
0000
0100
0000
1000
0000
0000
0000
0010
0000
0000
0000
,
0100
0000
0000
0001
0000
0000
0100
0000
0010
0000
1000
0000
0002
0000
0000
0000
,
0010
1003
1001
0100
,
0010
0000
0000
1000
0000
0000
0010
0000
0100
0000
0000
0000
0001
0000
0000
0000
,
1000
0000
0000
0100
0000
0000
0010
0000
0001
0000
0000
0000
1000
0000
0000
0000
,
0110
0000
0000
1001
0000
0000
0220
0000
0000
0000
0000
0000
0330
0000
0000
0000
,
0110
1001
2000
3100
,
0002
0000
0103
0010
2000
0000
3010
0000
,
0002
0000
0013
0100
2000
0000
3001
0000
,
0002
0000
1003
0000
0010
0100
0001
0000
,
0010
0110
0200
1300
,
0020
0000
0130
0001
0020
0000
0130
0000
,
2000
0000
3001
0100
0020
0000
1030
0000
,
2000
0000
0000
0000
3100
0000
0010
0000
0001
0000
0000
1000
0000
0001
0000
1000
,
0000
0000
0010
0100
0010
0000
0000
0000
,
0000
0000
0110
0000
1000
0001
0010
0001
,
1000
0010
1000
0010
0100
0001
1000
0001
,
0100
0000
0010
1000
0001
0010
0001
0010
,
0100
1000
0100
0010
0001
0100
0010
1000
,
0001
0000
0010
0001
0101
0000
0010
1000
,
0100
0000
0100
1000
0010
0000
0100
0001
,
0020
0031
1000
0100
,
0010
0000
0000
0100
0000
0000
1001
0000
0000
0000
0100
0000
0020
0000
0000
0000
,
1030
0000
0001
0010
0100
1000
0100
1000
,
0001
0100
0010
1000
0001
0010
0001
1000
,
0010
0000
0100
0001
1000
0100
1000
0001
,
1000
0010
0100
0001
0010
0001
0100
0010
,
1000
0000
0010
1000
1100
0000
0010
0001
,
0100
0000
0100
0001
0020
0000
0130
0000
,
1000
0000
0000
0001
0000
0000
1000
0000
0020
0000
0000
0000
0000
0000
0000
0000
,
0000
0000
0000
0000
0130
0001
0010
0100
,
1000
0000
0010
0000
0100
0000
0010
1000
0000
0000
0000
0000
1001
0000
0000
0000
,
1000
0100
0001
0100
1000
0001
1000
0010
,
0001
0010
1000
0001
1000
0100
1000
0100
,
0010
0000
0001
0000
0010
0000
0001
0000
1000
0000
0010
0000
0100
0000
0001
1000
,
0000
0000
0100
0010
0100
0000
0001
1000
,
0001
0000
0100
0010
0100
0001
1000
0100
,
0020
0130
1100
0001
,
0101
0000
0000
0010
0000
0000
0100
0000
0000
0000
0010
0000
0100
0000
0000
0000
,
0010
0000
1000
0001
1000
0010
0001
0010
,
1000
0001
1000
0100
0001
0100
1000
0001
,
0100
0010
1000
0001
0010
0001
0010
0001
,
1000
0100
1000
0100
0010
0001
0100
0010
,
1000
0000
0010
1000
0100
0000
0010
0001
,
0100
0000
0001
1000
0100
1000
0001
0000
,
0100
0000
0010
1000
0100
0000
0010
0001
,
0100
0000
0010
1000
0100
0000
0010
0001
,
1000
0000
1000
0010
0100
0000
0000
0000
,
0110
0000
1001
0000
,
0110
0000
0000
1001
0000
0000
0110
0000
2002
0000
0000
0000
0000
0000
0000
0000
,
0000
3003
0220
0330
,
0110
1001
0002
0013
,
2000
0000
3010
0100
0002
0000
0103
0000
,
2000
0000
3100
0010
0002
0000
1003
0000
,
2000
0000
3001
0000
0100
0010
1000
0000
,
0100
0110
0020
0031
,
0200
0000
0310
1000
0200
0000
0310
0000
,
0002
0000
1003
0010
0200
0000
0301
0000
,
0002
0000
0013
0100
2000
0000
3001
0000
,
0110
0000
1001
0000
0000
0220
0000
0000
,
0000
0000
0000
0000
,
0000
0000
0000
0000
,
0330
0000
0000
0000
,
0000
0000
0000
2000
3001
0000
0000
0000
;

//---------------dance-single - ----------------
#NOTES:
     dance-single:
     :
     Hard:
     13:
     0.569942,0.610009,0.231397,0.119688,0.478751,500.000000,471.000000,29.000000,15.000000,0.000000,0.000000,0.569942,0.610009,0.231397,0.119688,0.478751,500.000000,471.000000,29.000000,15.000000,0.000000,0.000000:
0000
0000
0000
0000
,
0000
0000
0000
0000
,
0000
0000
0000
0000
,
0000
0000
0000
0000
,
0000
0000
0010
1000
,
0001
0000
0000
0010
0000
0000
0001
0000
0010
0000
0000
0000
0001
0000
0000
0000
,
1000
0000
0000
0010
0000
0000
1000
0000
0010
0000
0000
0000
1000
0000
0000
0000
,
0001
0000
0000
0010
0000
0000
0100
0000
1000
0000
0100
0000
0010
0000
0000
0000
,
0001
0000
0000
1000
0001
0000
0000
0000
2000
0000
0000
0000
3100
0000
0000
0000
,
0001
0000
0000
1000
0000
0000
0001
0000
0020
0000
0000
0000
0031
0000
0000
0000
,
1000
0000
0000
0001
0000
0000
1000
0000
0100
0000
1000
0000
0010
0000
0100
0000
,
0101
0000
0000
1010
0000
0000
0220
0000
0000
0000
0000
0000
0330
0000
0000
0000
,
0010
0000
0000
0000
1000
0000
0000
0000
0001
0000
0000
0000
0100
0000
0000
0000
0000
0000
0000
0000
0000
0000
0000
0000
0001
0000
0000
0100
0000
0000
0000
0000
0000
0001
0000
0000
0100
0000
0000
0000
0000
0000
0000
0000
0000
0000
0000
0000
,
0010
0100
0000
0010
0100
0000
0000
0000
1000
0001
0000
1000
0001
0000
0000
0000
,
1000
0100
0000
1000
0100
0000
0010
0000
0001
1000
0000
0001
1000
0000
0000
0000
,
0010
0100
0000
0010
0100
0000
0000
0000
1000
0000
0100
0000
1000
0000
0001
0000
,
1000
0000
0010
0000
1000
0000
0001
0000
0010
0001
0000
0001
0100
0000
0000
0000
,
0010
1000
0000
1000
0100
0000
0000
0000
0010
0100
0000
0100
0001
0000
0000
0000
,
0010
0100
0000
0100
1000
0000
0010
0000
1000
0100
0000
0100
0010
0000
0000
0000
,
0001
0100
0000
0100
0010
0000
1000
0000
0001
0010
0000
0100
0000
1000
0000
0001
,
0000
0100
0010
0010
1001
0000
0000
0000
,
0000
0000
0110
0000
1001
1000
0100
0010
,
0001
1000
0000
0010
0000
0010
0000
0010
1000
0000
0001
0000
1000
0100
1000
0000
,
0010
0000
0100
0000
0001
0000
1000
0100
1000
0000
0010
0000
0100
0000
0001
0000
,
1000
0100
0000
0010
0000
0010
0000
0010
0001
0000
1000
0000
0010
0000
0100
0010
,
0100
0000
0001
0000
1000
0000
0001
1000
0001
0000
0000
0000
1000
0000
0001
1000
,
0001
0000
0000
0000
0010
0000
0100
0010
0100
0000
1000
0000
0010
0100
0000
0001
,
0000
1000
0100
0000
1000
0000
0000
0000
1010
0000
0000
0000
0100
0000
0000
0000
,
0101
0000
0000
1100
0000
0000
0110
0000
1000
0000
0001
0100
0010
0000
0000
0000
,
1000
0000
0000
0000
0001
0000
0010
0001
0010
0000
0100
0000
1000
0000
0001
0000
,
0100
0010
0000
1000
0000
1000
0000
1000
0001
0000
0010
0000
0001
0100
0001
0000
,
0010
0000
0001
0000
0100
0000
0001
0010
0001
0000
0100
0000
0010
0000
1000
0000
,
0001
1000
0000
0100
0000
0100
0000
0100
1000
0000
0010
0000
0100
0000
0001
1000
,
0001
0000
0010
0000
0100
0000
1000
0001
1000
0000
0000
0000
0100
0000
1000
0001
,
1000
0000
0000
0000
0010
0000
1000
0001
1000
0000
0100
0000
0010
0000
0001
0000
,
0100
0000
0010
1000
0000
0000
0010
0000
0100
0000
0010
0000
0100
0000
0001
0000
,
1000
0001
0010
0100
1000
1000
0010
0010
,
0100
0000
0100
0000
0001
0000
1000
0001
1000
0000
0000
0000
1001
0000
1000
0000
,
0100
1000
0010
0100
0001
0011
0001
1001
,
1000
1010
1000
1001
0001
0100
0010
0100
,
0001
0000
1000
0000
0100
0000
0010
0000
0001
0000
1001
0000
1000
0000
0001
1000
,
0001
0000
0100
0000
0010
0000
1000
0001
1000
0000
0010
0000
0100
0000
0001
1000
,
0001
0000
0100
0000
0010
0000
1000
0010
1000
0000
0010
0000
0100
0001
0000
1000
,
0000
0001
0100
0000
0010
0000
1000
0000
0100
0000
1000
0000
0001
0000
1000
0000
,
1100
0000
0000
0101
0000
0000
0110
0000
1000
0000
0001
0010
0001
0000
1000
0000
,
0010
0000
0100
0000
0001
0000
1000
0001
1000
0000
0100
0000
0010
0000
0100
0000
,
1000
0001
0100
0010
0200
0301
2000
3100
,
0020
0031
2000
3010
0100
0001
1000
0010
,
1000
0000
0001
0000
0100
0000
0001
0000
1000
0000
0100
0000
0010
0000
0001
1000
,
0001
0000
0010
0000
0100
0000
1000
0001
0100
0000
0000
0000
0100
0000
0001
1000
,
0100
0000
0000
0000
0010
0000
0001
1000
0010
0000
0100
0000
0010
0000
0100
0000
,
0001
0000
1000
0000
0001
0000
1000
0100
0010
0000
0000
0000
0001
0000
1000
0100
,
0010
0000
0000
0000
0001
0000
1000
0010
0100
0000
0001
0000
1000
0000
0001
0100
,
0000
0000
0000
0000
0010
0000
1000
0001
0010
0000
0000
0000
0010
0000
0001
1000
,
0100
0000
0000
0000
0100
0000
1000
0001
0200
0000
0000
0000
0300
0000
0000
0000
,
1010
0000
0000
0101
0000
0000
1010
0000
0220
0000
0000
0000
0000
0000
0000
0000
,
0000
0330
2002
3003
,
1001
0000
0000
0000
1001
0000
0000
0000
1000
0010
0000
1000
0010
0000
0000
0000
,
0100
0010
0000
0100
0010
0000
0000
0000
0001
1000
0000
0001
1000
0000
0000
0000
,
0001
0010
0000
0001
0010
0000
0100
0000
1000
0001
0000
1000
0001
0000
0000
0000
,
0100
0010
0000
0100
0010
0000
1000
0000
0001
0000
0010
0000
0001
0000
1000
0000
,
0001
0000
0100
0000
0001
0000
1000
0000
0100
1000
0000
1000
0010
0000
0000
0000
,
0100
0001
0000
0001
0010
0000
0000
0000
0100
0010
0000
0010
1000
0000
0000
0000
,
0100
0010
0000
0010
0001
0000
0100
0000
0001
0010
0000
0010
0100
0000
0000
0000
,
1000
0010
0000
0010
0100
0000
0001
0000
1000
0000
0100
0000
0010
0000
0001
0000
,
1001
0000
0110
0000
0000
2002
0000
0000
,
0000
0000
0000
0000
,
0000
0000
0000
0000
,
3003
0000
0000
0000
,
0000
0000
0000
0000
0000
0000
1000
0001
1000
0000
0000
0000
0000
0000
0000
0000
;

//---------------dance-single - ----------------
#NOTES:
     dance-single:
     :
     Challenge:
     15:
     0.701029,0.915014,0.271292,0.159584,0.849784,615.000000,581.000000,34.000000,20.000000,0.000000,0.000000,0.701029,0.915014,0.271292,0.159584,0.849784,615.000000,581.000000,34.000000,20.000000,0.000000,0.000000:
// measure 0
0000
0000
0000
0000
,  // measure 1
0000
0000
0000
0000
,  // measure 2
0000
0000
0000
0000
,  // measure 3
0000
0000
0000
0000
,  // measure 4
0000
0000
0010
1000
,  // measure 5
0001
0000
0000
0010
0000
0000
0100
0000
1000
0000
0000
0000
0001
0000
0000
0000
,  // measure 6
1000
0000
0000
0010
0000
0000
0100
0000
0001
0000
0000
0000
1000
0000
0000
0000
,  // measure 7
0010
0000
0000
0100
0000
0000
0010
0000
1000
0000
0001
0000
0020
0000
0000
0000
,  // measure 8
0130
0000
1000
0001
0100
0000
0000
0000
0010
0000
1000
0010
1000
0000
0001
0100
,  // measure 9
0001
1000
0100
1000
0000
1000
0010
0000
0100
0000
0001
0100
0001
0000
1000
0100
,  // measure 10
1000
0001
0010
0001
0000
0001
1000
0000
0010
0100
0001
1000
0100
0010
0001
1000
,  // measure 11
0010
0000
0000
0110
0000
0000
2002
0000
0000
0000
0000
0000
3003
0000
0000
0000
,  // measure 12
0010
0000
0000
0000
1000
0000
0000
0000
0001
0000
0000
0000
0010
0000
0000
0000
0000
0000
0000
0000
0000
0000
0000
0000
1000
0000
0000
0100
0000
0000
0000
0000
0000
1000
0000
0000
0100
0000
0000
0000
0000
0000
0000
0000
0000
0000
0000
0000
,  // measure 13
0001
0100
0000
0001
0100
0000
0000
0000
1000
0100
0000
1000
0100
0000
0000
0000
,  // measure 14
0001
0100
0000
0001
0100
0000
0010
0000
1000
0010
0000
1000
0010
0000
0000
0000
,  // measure 15
0001
0010
0000
0001
0010
0000
0100
0000
1000
0000
0001
0000
0010
0000
0010
0000
,  // measure 16
0001
0000
1000
0000
0010
0000
0100
0000
0001
0100
0000
0100
1000
0000
0000
0000
,  // measure 17
1000
0100
0000
0100
0001
0000
0000
0000
0001
0010
0000
0010
1000
0000
0000
0000
,  // measure 18
1000
0010
0000
0010
0001
0000
0100
0000
0010
1000
0000
1000
0100
0000
0000
0000
,  // measure 19
0010
0001
0000
0001
0100
0000
0010
0000
1000
0001
0000
0010
0000
0100
0000
0010
,  // measure 20
0000
0001
1000
0000
0010
0000
0010
0000
0110
0000
0000
0000
0000
0000
0000
0000
,  // measure 21
0000
0000
1000
0001
1001
0000
0000
0000
1000
0001
1000
0000
0100
0000
0010
0000
,  // measure 22
0001
0100
0001
0100
1000
0100
1000
0100
0001
1000
0001
1000
0010
0100
0010
0100
,  // measure 23
0010
1000
0010
1000
0001
0010
0100
1000
0001
0100
0010
0100
0002
0000
0000
0000
,  // measure 24
1003
0100
0010
0001
1000
0020
0000
0000
1030
0001
0010
0001
1000
0001
0010
0001
,  // measure 25
1000
0100
1000
0001
0100
0001
1000
0010
1000
0001
1000
0001
0020
0000
0030
0000
,  // measure 26
0001
1000
0001
1000
0200
0000
0300
0000
1000
0010
0100
0010
1000
0010
0100
0010
,  // measure 27
1000
0100
0010
0001
1000
0000
0000
0000
0001
0100
0001
0100
0020
0000
1030
0000
,  // measure 28
1100
0000
0000
0101
0000
0000
1001
0000
1001
0000
0100
0010
0100
0000
0000
0000
,  // measure 29
0110
0000
0000
0000
0001
1000
0001
1000
0001
1000
0100
1000
0001
0000
0000
0000
,  // measure 30
1000
0100
1000
0100
1000
0100
0010
0001
1000
0100
1000
0010
0100
0001
1000
0010
,  // measure 31
1000
0001
0100
0010
1000
0001
0010
0001
1000
0100
0010
0100
2000
0000
0000
0000
,  // measure 32
3001
0100
0010
1000
0001
0020
0000
0000
0031
0100
0001
1000
0100
1000
0001
0010
,  // measure 33
0001
1000
0010
1000
0001
0010
0100
1000
0001
0100
0001
0100
0020
0000
0030
0000
,  // measure 34
1010
0000
1010
0000
0002
0000
0003
0000
1000
0001
0020
0000
0000
0000
0030
0000
,  // measure 35
0011
0000
0000
1010
0000
0000
0110
0000
1001
0000
0001
0000
0010
0000
0001
0000
,  // measure 36
1000
0010
1000
0001
0010
0100
0100
0100
,  // measure 37
0010
0000
0001
0000
1000
0000
0010
0100
0010
0000
0000
0000
1010
0000
1000
0000
,  // measure 38
0001
0010
0001
0000
1000
0010
1000
0000
0001
0100
0001
0000
1000
0100
1000
0000
,  // measure 39
0001
0010
0100
0000
1000
0100
0010
0100
1000
0001
1000
0000
0010
0100
0010
0000
,  // measure 40
1000
0100
0000
0010
0000
0001
0000
1000
0001
0000
0100
0000
0010
0000
1000
0001
,  // measure 41
1000
0000
0010
0000
0100
0000
0001
1000
1001
0000
1000
0000
0100
0000
1000
0001
,  // measure 42
1000
0000
0001
0000
0100
0000
0001
1000
0001
0000
0010
0000
0100
1000
0000
0010
,  // measure 43
0000
1000
0100
0000
0010
0000
0001
0000
0100
0000
0010
0000
1000
0000
0001
0000
,  // measure 44
0101
0000
0000
1010
0000
0000
0110
0000
0110
0000
1000
0001
1000
0000
0010
0000
,  // measure 45
0100
0000
0001
0000
1000
0000
0001
0100
0010
0100
0010
0100
0010
1000
0010
1000
,  // measure 46
0001
1000
0001
1000
0001
0010
0001
0010
0001
0100
0010
1000
0001
0010
0100
1000
,  // measure 47
0010
0100
0001
1000
0100
0010
0001
1000
0010
1000
0010
1000
0001
0100
0001
0100
,  // measure 48
0010
1000
0000
0001
0000
0010
0000
0001
1000
0000
0010
0000
0100
0000
0010
1000
,  // measure 49
0001
0000
0010
0000
0100
0000
0010
0001
1000
0000
0010
0000
0100
0000
0010
1000
,  // measure 50
0001
0000
0010
0000
0100
0000
0010
0001
1000
0000
0010
0000
0100
0000
0001
0100
,  // measure 51
0010
0100
0001
0000
1000
0000
0100
0010
0001
0000
0100
0000
0010
0000
0100
0010
,  // measure 52
1000
0000
0100
0000
0010
0000
0100
0010
0001
0000
1000
0000
0001
0000
0100
0010
,  // measure 53
0000
1000
0001
0000
0010
0000
0100
1000
1100
0000
0000
0000
0001
0000
0100
0001
,  // measure 54
0101
0000
0000
0000
1000
0000
0010
0100
0120
0000
0000
0000
1030
0000
0000
0000
,  // measure 55
1010
0000
0000
0011
0000
0000
1010
0000
0220
0000
0000
0000
0000
0000
0000
0000
,  // measure 56
0000
0330
2002
3003
,  // measure 57
0110
0000
0000
0000
1001
0000
0000
0000
0010
0001
0000
0010
0001
0000
0000
0000
,  // measure 58
1000
0010
0000
1000
0010
0000
0000
0000
0010
0001
0000
0010
0001
0000
0000
0000
,  // measure 59
1000
0010
0000
1000
0010
0000
0100
0000
0001
0100
0000
0001
0100
0000
0000
0000
,  // measure 60
1000
0100
0000
1000
0100
0000
0010
0000
0001
0000
1000
0000
0100
0000
0100
0000
,  // measure 61
1000
0000
0001
0000
0100
0000
0010
0000
1000
0010
0000
0010
0001
0000
0000
0000
,  // measure 62
0001
0010
0000
0010
1000
0000
0000
0000
1000
0100
0000
0100
0001
0000
0000
0000
,  // measure 63
0001
0100
0000
0100
1000
0000
0010
0000
0100
0001
0000
0001
0010
0000
0000
0000
,  // measure 64
0100
1000
0000
1000
0010
0000
0100
0000
0001
0000
1000
0000
0100
0000
1000
0000
,  // measure 65
1001
0000
0110
0000
0000
2002
0000
0000
,  // measure 66
0000
0000
0000
0000
,  // measure 67
0000
0000
0000
0000
,  // measure 68
3003
0000
0000
0000
,  // measure 69
0000
0000
0000
0000
0000
0000
0000
0000
0000
1000
0001
1000
0001
0000
0000
0000
0000
0000
0000
0000
0000
0000
0000
0000
;
