#VERSION:0.83;
#TITLE:ANCHOR;
#SUBTITLE:;
#ARTIST:HuΣeR Vs. SYUNN;
#TITLETRANSLIT:;
#SUBTITLETRANSLIT:;
#ARTISTTRANSLIT:;
#GENRE:STYLISH CROSSOVER;
#ORIGIN:;
#CREDIT:;
#BANNER:ANCHOR-banner.png;
#BACKGROUND:ANCHOR-background.png;
#PREVIEWVID:;
#JACKET:ANCHOR-jacket.png;
#CDIMAGE:;
#DISCIMAGE:;
#LYRICSPATH:;
#CDTITLE:CDtitle.png;
#MUSIC:ANCHOR.ogg;
#OFFSET:0.000000;
#SAMPLESTART:2.666667;
#SAMPLELENGTH:21.333334;
#SELECTABLE:YES;
#BPMS:0.000=180.000;
#STOPS:;
#DELAYS:;
#WARPS:;
#TIMESIGNATURES:0.000=4=4;
#TICKCOUNTS:0.000=4;
#COMBOS:0.000=1;
#SPEEDS:0.000=1.000=0.000=0;
#SCROLLS:0.000=1.000;
#FAKES:;
#LABELS:0.000=Song Start;
#BGCHANGES:;
#KEYSOUNDS:;
#ATTACKS:
;

//---------------dance-single - ----------------
#NOTEDATA:;
#CHARTNAME:;
#STEPSTYPE:dance-single;
#DESCRIPTION:;
#CHARTSTYLE:;
#DIFFICULTY:Hard;
#METER:17;
#RADARVALUES:0.756119,1.164640,0.267394,0.479737,0.605570,673.000000,639.000000,34.000000,61.000000,0.000000,0.000000,0.000000,0.000000,0.000000,0.756119,1.164640,0.267394,0.479737,0.605570,673.000000,639.000000,34.000000,61.000000,0.000000,0.000000,0.000000,0.000000,0.000000;
#CREDIT:Pandemonium X;
#NOTES:
0000
0000
0000
0000
,
0000
0000
0000
0000
,
0000
0000
0000
0000
,
0000
0000
0000
0000
,
0000
0000
0000
0000
,
0000
0000
0000
0000
,
1020
0000
1030
1010
0000
0001
0010
0010
,
0210
0000
0000
0000
0310
0000
0110
0000
0000
0000
0010
0001
0010
0000
0001
0000
,
2001
0000
3001
1001
0000
0001
1000
1000
,
0001
0000
0010
0001
0010
0000
0100
0000
1000
0010
1000
0010
1000
0000
0100
0000
,
1001
0000
1000
0200
0010
0000
0310
0000
,
1001
0000
0001
0020
0100
0000
0130
0000
,
0011
0000
0100
2000
0010
0000
3010
0000
,
1010
0000
1000
0002
0100
0000
0103
0000
,
1001
0000
0001
0200
1000
0000
1300
0000
,
1100
0000
1000
0200
0001
0000
0301
0000
,
1000
0001
1000
0001
1000
0001
1000
0001
1000
0001
1000
0001
1000
0001
1000
0001
,
0020
0000
0000
0000
,
0130
0010
0001
0001
,
1000
0010
1000
1000
,
0001
0100
0010
0010
,
0100
0001
1000
1000
,
0001
0100
0001
0100
0010
1000
0010
1000
0001
0010
0001
0010
0100
1000
0100
1000
,
0001
1000
0001
1000
0010
0100
0010
0100
0010
1000
0010
1000
0001
0100
0001
0100
,
0001
0000
0010
0000
0100
0000
1000
0000
0100
0010
0100
0010
0001
1000
0001
1000
,
0001
0000
1020
0000
0100
0200
0000
0330
,
2002
0000
0000
0000
0000
0000
0000
0000
3003
0000
0000
0000
1000
0010
1000
0000
,
0010
0100
0001
1000
0100
0000
0010
0000
0001
0000
0000
0000
0010
0100
1000
0000
,
0100
0000
0010
0000
0100
0000
1000
0000
0001
0100
0001
0000
1000
0000
0010
0000
,
0100
0001
0010
0000
0100
0000
0010
0000
0001
0000
1000
0001
1000
0000
0001
0000
,
0200
0000
0000
0000
0310
1000
0020
0000
0100
0000
0030
0000
1000
0010
1000
0000
,
0001
0010
0100
0010
0001
0000
1000
0010
0100
0000
0000
0000
0001
0000
1000
0000
,
0001
0000
0010
0000
1000
0000
0010
0000
0100
0010
0001
0000
1000
0010
0100
0000
,
0001
1000
0000
0202
0000
0000
0000
0303
,
1020
0000
0000
0000
0130
0000
0000
0000
0001
1000
0001
1000
0010
0100
0001
1000
,
0100
0000
0000
0000
1000
0000
0100
0000
0000
0010
0000
0000
0001
0000
0100
0000
,
0010
0000
1000
0000
0100
0000
0001
0000
0100
0010
0001
0000
0010
0000
0001
0000
,
1000
0100
1000
0000
0010
0000
0100
0000
0001
0000
1000
0010
1000
0000
0001
0000
,
0010
0000
0000
0000
2001
0000
0000
0000
3100
0010
0100
1000
0001
0100
0001
0010
,
0100
0000
0000
0000
0010
0000
0001
0000
0000
1000
0000
0000
0010
0000
1000
0000
,
0100
0000
0001
0000
0100
0000
1000
0000
0001
1000
0010
1000
0001
0000
1000
0000
,
0010
0100
0010
0000
1000
0010
1000
0000
0001
0100
0001
0000
1000
0100
1000
0000
,
0011
0000
0000
0000
0020
0000
0031
0200
,
0000
0000
0000
0000
0000
0000
0310
1000
0010
0100
0010
1000
,
0002
0000
0000
0000
0000
0000
0000
0000
0000
0000
1003
0000
0000
0001
0000
0000
,
1000
0000
0100
0010
0002
0000
0000
0000
0000
0000
0000
0000
0003
0000
0000
0000
,
0020
0000
0130
0100
0010
0001
1000
1000
,
0002
0000
0000
0000
0003
0000
1000
0100
0010
0000
0000
0100
0000
0000
0010
0000
,
0002
0000
0203
0320
,
2030
0000
0000
0002
0000
0000
3003
1000
,
0001
0010
1000
0010
0001
0100
1000
0100
,
0001
0100
0010
0100
0001
1000
0010
1000
0001
1000
0100
0010
,
0100
0100
1000
0001
0100
0100
0001
1000
,
0002
0000
0000
0000
0000
0000
1003
0001
1000
0000
0001
0000
0010
0000
0100
0000
,
0020
0000
0000
0000
0000
0000
0230
0000
0000
0000
0000
0000
1300
0100
0010
0001
,
2000
0000
0000
3002
0000
0203
0000
0302
,
1003
0010
1000
0010
0100
0001
0100
0001
1000
0010
1000
0010
0100
0001
0100
0001
,
0010
0000
0100
0000
,
1000
0000
0100
0000
1000
0000
0010
0000
0100
0000
0001
0100
0000
0001
0000
0100
,
0010
0000
1000
0000
0001
0000
0010
0000
0100
0000
0010
0100
0000
1000
0000
0010
,
0100
0000
0001
0000
1000
0000
0100
0000
1000
0000
0010
1000
0000
0010
0000
0100
,
0001
0000
0010
0000
0100
0000
0010
0000
0001
0000
1000
0100
0000
1000
0000
0010
,
0100
0000
0100
0000
0001
0000
0100
0000
0100
0000
0001
0000
0100
0001
0100
0000
,
0010
0000
1000
0000
1000
0000
0010
0000
1000
0000
1000
0000
0010
1000
0010
0000
,
0100
0010
0100
0010
0100
0010
0100
0010
0100
0010
0100
0010
0100
0010
0100
0010
,
0100
0000
0010
0000
2000
0002
0000
3003
,
0200
0000
0320
0000
2030
0000
3002
0000
0203
0000
0000
0000
0310
1000
0001
0000
,
0100
0000
0001
0000
1000
0000
0100
0000
0010
0100
1000
0001
0010
0000
0001
0000
,
1000
0000
0000
1000
0000
0000
0001
0000
0000
1000
0000
0000
0010
0000
1000
0000
0010
0000
0100
0000
0000
0001
0000
0000
,
0010
0000
0100
0010
0001
0000
0010
0000
0001
1000
0001
0100
0010
0000
0100
0000
,
0001
0000
0000
0000
0000
0000
1000
0000
0000
0010
0000
0000
1000
0000
0000
0000
0000
0000
0001
0000
0000
0000
0000
0000
0010
0000
0000
0000
0100
0000
0000
0000
1000
0000
0000
0000
0001
0000
0000
0000
0000
0000
0000
0000
0000
0000
0000
0000
,
1000
0001
0020
0031
1000
0010
1000
0100
,
0020
0000
0130
0100
0010
0100
0010
0001
,
0100
0002
0000
0020
0000
0000
0000
0033
,
2001
0000
0000
3002
0000
0000
0013
0001
,
2000
0000
0000
0000
0000
0000
3001
0010
0100
0010
0001
1000
,
0010
0010
1000
0001
0010
0100
0010
0010
,
0100
1000
0100
0001
0100
0010
0001
0010
0100
0010
0001
1000
,
0020
0000
0000
0000
0130
0001
0010
0001
,
1000
0100
0010
0100
1000
0001
0010
0001
,
1000
0001
1000
0100
1000
0000
0001
1000
0001
0100
0001
0000
1000
0001
1000
0010
,
1000
0000
0001
1000
0001
0010
0001
0000
1000
0001
1000
0001
0100
0010
0100
0010
,
2000
0000
3010
2010
0000
3100
0010
0010
,
0012
0000
0000
0000
0103
0000
0101
0000
0000
0000
0010
1000
0010
0000
0100
0000
,
0102
0000
0000
0000
0013
0000
0011
0000
0000
0000
0100
0000
0010
0001
0010
0000
,
1200
0000
0000
0000
0310
0000
0110
0000
0000
0000
0100
0010
0001
0000
1000
0000
,
1002
0000
0103
0101
0000
0001
0010
0010
,
0120
0000
0000
0000
0130
0000
1100
0000
0000
0000
1000
0001
1000
0000
0001
0000
,
0102
0000
1003
1001
0000
0010
0100
0100
,
1001
0000
0000
0000
0000
0000
1010
0000
0000
0000
1000
0001
0010
0000
0000
0000
;

//---------------dance-single - ----------------
#NOTEDATA:;
#CHARTNAME:;
#STEPSTYPE:dance-single;
#DESCRIPTION:;
#CHARTSTYLE:;
#DIFFICULTY:Challenge;
#METER:18;
#RADARVALUES:0.903299,1.167884,0.346040,0.715673,0.924084,804.000000,760.000000,44.000000,91.000000,0.000000,0.000000,0.000000,0.000000,0.000000,0.903299,1.167884,0.346040,0.715673,0.924084,804.000000,760.000000,44.000000,91.000000,0.000000,0.000000,0.000000,0.000000,0.000000;
#CREDIT:Pandemonium X;
#NOTES:
// measure 0
0000
0000
0000
0000
,  // measure 1
0000
0000
0000
0000
,  // measure 2
0000
0000
0000
0000
,  // measure 3
0000
0000
0000
0000
,  // measure 4
0000
0000
0000
0000
,  // measure 5
0000
0000
0000
0000
,  // measure 6
1001
0000
1000
0010
1000
0000
0201
0000
0000
0000
0310
0000
1000
0000
1000
0000
,  // measure 7
1001
0000
0001
0010
0001
0000
1200
0000
0000
0000
0310
0000
0100
0000
0100
0000
,  // measure 8
1001
0000
0001
0100
0010
0000
2010
0000
0000
0000
3001
0000
1000
0000
1000
0000
,  // measure 9
0001
0010
0100
0010
0001
0010
0001
0010
0001
0000
1000
0100
0010
0000
0001
0000
,  // measure 10
1001
0001
0100
0120
0100
0000
1030
0000
,  // measure 11
1010
0000
1000
0000
0100
0000
0210
0000
0010
0000
0310
0001
1000
0000
0001
0000
,  // measure 12
0101
0001
0100
0210
0010
0000
0301
0000
,  // measure 13
1001
0001
0010
0012
0010
0000
1000
0000
,  // measure 14
0103
0001
0100
0010
1000
0001
0010
0100
,  // measure 15
0010
0001
1000
0010
1000
0001
0010
0100
,  // measure 16
0010
0000
0000
0001
0000
0000
0010
0000
0000
0001
0000
0000
0010
0000
0000
0001
0000
0000
0010
0000
0000
0001
0000
0000
0010
0000
0000
0001
0000
0000
0010
0000
0000
0001
0000
0000
0010
0000
0001
0000
0010
0000
0001
0000
0010
0000
0001
0000
,  // measure 17
2000
0000
0000
0000
,  // measure 18
3001
0100
0001
0000
0100
0000
0010
0000
,  // measure 19
1000
0010
1000
0000
0010
0000
0100
0000
,  // measure 20
0001
1000
0001
0000
1000
0000
0010
0000
,  // measure 21
1000
0100
1000
0000
0100
0000
1000
0000
,  // measure 22
0001
1000
0100
1000
0001
0100
0001
1000
0010
1000
0001
0010
0001
1000
0100
0010
,  // measure 23
0100
1000
0100
0010
0100
1000
0001
0100
0010
0100
0001
0010
0100
0010
0001
1000
,  // measure 24
0010
0100
0010
0100
0001
1000
0001
1000
0010
0100
0001
1000
0010
0100
0001
1000
,  // measure 25
0001
0000
0000
0000
1000
0000
0000
0000
0010
0000
0200
0000
0302
2003
3002
2003
,  // measure 26
3020
0000
0000
0000
0130
0001
0100
0001
0100
0000
0000
0000
0010
1000
0100
0001
,  // measure 27
0100
0010
0001
0000
0000
0000
1000
0100
1000
0000
0000
0000
0100
0010
0100
1000
,  // measure 28
0002
0000
0203
0000
2300
0000
3200
0000
0310
1000
0010
0100
0001
0000
0000
0000
,  // measure 29
1000
0100
0001
0100
0010
0001
0010
1000
0010
0100
0010
0001
1000
0010
0100
0001
,  // measure 30
0020
0000
0000
0000
0130
0010
0100
0000
0010
0000
0000
0000
0100
0010
0001
1000
,  // measure 31
0100
1000
0010
0100
0001
0000
1000
0001
1000
0000
0000
0000
0001
0010
0100
0010
,  // measure 32
0002
0000
0000
0000
0203
0000
0302
0000
0013
0100
0010
0001
1000
0010
0100
0001
,  // measure 33
1000
0001
0000
0220
0000
0000
0000
0330
,  // measure 34
2001
0000
0000
0000
3010
0000
0000
0000
1000
0010
0001
0010
0100
0001
0010
0100
,  // measure 35
1000
0000
0000
0001
0100
0000
0001
0000
0010
0100
0010
0001
1000
0100
0010
0001
,  // measure 36
2000
0000
3020
0000
0230
0000
0320
0000
1030
0010
0100
0001
0010
0000
0000
0000
,  // measure 37
0100
0010
0001
0010
0100
1000
0100
0010
0100
1000
0100
0010
0001
0100
0001
0010
,  // measure 38
0100
0000
0100
0000
0010
0000
0100
0000
1000
0100
0010
0100
1000
0001
1000
0001
,  // measure 39
1000
0000
0000
0010
1000
0000
0100
0000
0010
0000
0000
0000
0010
0100
1000
0001
,  // measure 40
2000
0000
3020
0000
0230
0000
0320
0000
1030
0001
0010
0100
0010
0000
0000
0000
,  // measure 41
0100
0010
0001
0010
0100
0010
0001
0100
0010
1000
0001
0010
1000
0010
0001
1000
,  // measure 42
0100
0000
0000
0000
2000
0000
3010
0200
,  // measure 43
0000
0000
0000
0000
0000
0000
0310
0010
0100
0001
0001
1000
,  // measure 44
0002
0000
0000
0000
0000
0000
0000
0000
0000
0000
2003
0000
0000
3200
0000
0000
,  // measure 45
0320
0000
0000
0130
1000
0001
2000
0000
0000
0000
0000
0000
0000
0000
0000
0000
0000
0000
3000
0000
0000
0000
0000
0000
,  // measure 46
0002
0000
0013
0100
0010
0001
0100
0001
,  // measure 47
0020
0000
0000
0000
0030
0000
0100
1000
0200
0000
0000
2300
0000
0000
3002
0000
,  // measure 48
2003
0000
3200
2300
,  // measure 49
3020
0000
0000
0200
0000
0000
0330
0200
,  // measure 50
0301
0010
0011
0010
0100
1000
1100
1000
,  // measure 51
0001
0100
1000
0100
0001
0010
1000
0010
0100
0010
0001
1000
,  // measure 52
0001
0001
1000
0001
0010
0010
0001
1000
,  // measure 53
2000
0000
0000
0000
0000
0000
3001
0010
0100
0000
0010
0000
0001
0000
0100
0000
,  // measure 54
0002
0000
0000
0000
0000
0000
2003
0000
0000
0000
0000
0000
3100
0010
0001
0100
,  // measure 55
0020
0000
0000
0230
0000
0302
0000
2003
,  // measure 56
3001
0100
0010
1000
0001
0100
0010
1000
0001
0100
0010
1000
0001
0100
0010
1000
,  // measure 57
0002
0000
0010
0000
,  // measure 58
1003
0000
0100
0000
1000
0000
0001
0000
0100
0000
0001
0100
0000
0100
0010
1000
,  // measure 59
0001
0000
0010
0000
0001
0000
1000
0000
0001
0000
0100
0001
0000
0100
0010
1000
,  // measure 60
0100
0000
0010
0000
0100
0000
1000
0000
0001
0000
1000
0010
0000
1000
0100
0010
,  // measure 61
0100
0000
0010
0000
0001
0000
0010
0000
0100
0000
0010
0001
0000
0010
0001
0100
,  // measure 62
0010
1000
0010
0000
0100
0000
0001
0010
0100
0000
0010
0000
0001
1000
0001
0000
,  // measure 63
1000
0010
1000
0000
0010
0000
0100
0001
0010
0000
0100
0000
0010
0100
1000
0000
,  // measure 64
0001
1000
0001
1000
0010
0100
0010
0100
0001
1000
0010
0100
0001
1000
0010
0100
,  // measure 65
0001
0000
0000
0000
1010
0000
0000
0000
1000
0000
0200
0000
0320
0230
0320
0230
,  // measure 66
0320
0030
0000
0000
0100
0000
1000
0000
2002
0000
0003
0000
3001
0010
1000
0000
,  // measure 67
0010
0001
0010
0100
0010
0001
1000
0000
1200
0000
0310
0000
0021
0000
0130
0000
,  // measure 68
1002
0000
0000
0203
0000
0000
2300
0000
0000
3200
0000
0000
0310
0000
0010
0000
1000
0000
0010
0000
0010
0000
1000
0000
,  // measure 69
0001
0000
1000
0100
0001
0000
0100
0000
0010
0001
0010
0001
1000
0000
0001
0000
,  // measure 70
0100
0000
1000
0100
0001
0100
0010
0000
0100
0000
0010
1000
0001
0000
0010
0000
,  // measure 71
1000
0010
0011
0001
1001
0000
0220
0330
,  // measure 72
1002
0000
0000
0000
1003
0000
1000
0000
1001
0000
0001
0000
0100
0001
0100
0000
,  // measure 73
0001
0010
0000
0220
0000
0000
0000
0330
,  // measure 74
2000
0000
3100
0002
0000
0103
0010
0001
,  // measure 75
2000
0000
0000
0000
0010
0000
0000
0000
3001
0010
0001
0100
0010
1000
0001
0010
,  // measure 76
0100
1000
0100
0001
0100
0010
0001
1000
,  // measure 77
0010
0100
0010
1000
0010
0100
0001
1000
0001
0010
0100
1000
,  // measure 78
2002
0000
0000
0000
0000
0000
0000
0000
0000
0000
0000
0000
0000
0000
0000
0000
0000
0000
0000
0000
3003
0000
0000
0000
0001
0000
0000
0100
0000
0000
0001
0000
0000
0100
0000
0000
0010
0000
0000
0100
0000
0000
0010
0000
0000
1000
0000
0000
,  // measure 79
0010
1000
0010
0100
0001
0010
0100
0010
0001
1000
0010
0100
0001
0010
0100
1000
,  // measure 80
0001
0100
1000
0100
0001
1000
0001
0010
1000
0010
0001
0100
0010
1000
0001
0010
,  // measure 81
0100
0001
0100
1000
0100
0001
0100
1000
0010
0001
0010
1000
0010
0100
0001
0010
,  // measure 82
0200
0000
0000
0010
0000
1300
0001
0001
,  // measure 83
1001
0000
0001
0100
0010
0000
1020
0000
0000
0000
0130
0010
0100
0000
0010
0000
,  // measure 84
1010
0000
1000
0001
0010
0000
0210
0000
0000
0000
0310
0000
0100
1000
0100
0000
,  // measure 85
1001
0000
1000
0001
0010
0000
0120
0000
0000
0000
0031
0010
0100
0000
0010
0000
,  // measure 86
0011
0000
0100
1000
0010
0000
0201
0000
0000
0000
0310
0000
1000
0000
0001
0000
,  // measure 87
1001
0000
0001
1000
0010
0000
1020
0000
0000
0000
0130
0001
1000
0000
0001
0000
,  // measure 88
1100
0000
1000
0001
0100
0000
0021
0000
0000
0000
0130
0010
0001
0000
1000
0000
,  // measure 89
1001
0000
1000
0100
0010
0000
1001
0000
0000
0000
0001
1000
0020
0000
0000
0000
,  // measure 90
0030
0000
0000
0000
;

//---------------dance-single - ----------------
#NOTEDATA:;
#CHARTNAME:;
#STEPSTYPE:dance-single;
#DESCRIPTION:;
#CHARTSTYLE:;
#DIFFICULTY:Medium;
#METER:13;
#RADARVALUES:0.496590,0.635258,0.267394,0.408956,0.058984,442.000000,408.000000,34.000000,52.000000,0.000000,0.000000,0.000000,0.000000,0.000000,0.496590,0.635258,0.267394,0.408956,0.058984,442.000000,408.000000,34.000000,52.000000,0.000000,0.000000,0.000000,0.000000,0.000000;
#CREDIT:Pandemonium X;
#NOTES:
0000
0000
0000
0000
,
0000
0000
0000
0000
,
0000
0000
0000
0000
,
0000
0000
0000
0000
,
0000
0000
0000
0000
,
0000
0000
0000
0000
,
1001
0000
0001
0011
0000
0001
0100
0100
,
0110
0000
0010
1010
0000
1000
0100
0010
,
0011
0000
0001
1001
0000
1000
0010
0010
,
0100
1000
0100
0001
0010
0100
0010
0001
,
2000
0000
0000
0010
0000
0000
3001
0000
,
1002
0000
0000
0010
0000
0000
1003
0000
,
0210
0000
0000
1000
0000
0000
0310
0000
,
0120
0000
0000
1000
0000
0000
0130
0000
,
1002
0000
1000
1000
0000
0100
0103
0000
,
2001
0000
0010
0010
0000
0001
3001
0000
,
0201
0000
0001
0001
0000
0010
0310
0000
,
2002
0000
0000
0000
0000
0000
0000
3003
,
1000
0001
0010
0001
,
1000
0100
0010
0100
,
1000
0010
0100
0001
,
1000
0001
0100
0001
,
1000
0001
0100
0000
0010
1000
0100
0000
,
0010
0100
1000
0000
0100
0010
0001
0000
,
1001
0000
0110
0000
,
1001
0000
0110
0000
0002
0020
0000
0033
,
2200
0000
0000
0000
3300
0000
0010
0100
,
1000
0001
0000
1000
0001
0000
0001
0010
,
0100
0100
0010
0010
0001
1000
0010
0000
,
0100
0010
1000
0001
0010
0100
0010
0001
,
2000
0000
0100
0000
3001
0000
0100
0001
,
0010
0100
0000
0010
0001
0000
1000
0001
,
0200
0000
0310
1000
0001
0010
0100
0000
,
0010
0001
0000
2020
0000
0000
0000
3030
,
1002
0000
0103
0000
0010
1000
0001
0010
,
0100
0000
0000
0000
0010
0000
0001
0000
0000
1000
0000
0000
0100
0000
1000
0000
,
0001
0010
0100
1000
0100
0001
0100
0000
,
0010
0001
0100
1000
0100
0010
1000
0001
,
2001
0000
0010
0000
3001
0010
0100
0010
,
0001
0000
0000
0000
1000
0000
0010
0000
0000
0100
0000
0000
0001
0000
0010
0000
,
0100
0100
0010
0001
1000
0100
0010
0000
,
0100
1000
0010
0100
0001
0010
0100
0010
,
0001
0000
0000
0000
1000
0000
0001
0200
,
0000
0000
0000
0000
0000
0000
0310
1000
0010
1000
0010
1000
,
0200
0000
0000
0000
0000
0000
0000
0000
0000
0000
0310
0000
0000
0010
0000
0000
,
0100
1000
0002
0000
0000
0000
0003
0000
,
0100
0000
0001
0100
0010
0100
0001
1000
,
0100
0000
0000
0000
0000
0000
0010
0000
0100
0000
0000
1000
0000
0000
0001
0000
,
1000
0000
0010
1000
,
0200
0000
0000
2000
0000
0000
3300
0100
,
1000
0010
0100
0001
,
0100
0010
1000
0001
,
0010
1000
0010
0001
,
0100
1000
0100
0001
,
0200
0000
0000
0302
0000
0000
1003
0100
,
0020
0000
0000
0230
0000
0320
0000
0230
,
1300
0001
0100
0001
1000
0100
0010
0001
,
2000
0000
3002
0000
,
0013
0000
0000
0000
0100
0000
0000
0000
1000
0000
0000
0100
0000
0000
1000
0000
,
0001
0000
0000
0000
0100
0000
0000
0000
0010
0000
0000
1000
0000
0000
0010
0000
,
0100
0000
0000
0000
0001
0000
0000
0000
0010
0000
0000
0001
0000
0000
1000
0000
,
0100
0000
0000
0000
1000
0000
0000
0000
0010
0000
0000
1000
0000
0000
0010
0000
,
0200
0000
0301
0020
0000
0100
0130
0000
,
2000
0000
3100
0020
0000
0100
0130
0000
,
0010
0001
0100
0010
1000
0001
0010
0100
,
1100
0000
0011
0000
0001
0200
0000
0000
,
0310
0000
0000
0000
2002
3003
0110
0000
,
0100
0010
1000
0001
0010
0100
0010
0001
,
1000
0000
0000
1000
0000
0000
0001
0000
0000
0001
0000
0000
1000
0000
0100
0000
0010
0000
0001
0000
0000
0000
0000
0000
,
0010
0001
0100
1000
0100
0010
1000
0001
,
2000
0000
3100
0010
0002
0000
0103
0000
,
0010
1000
0001
0010
0001
1000
0100
0010
,
0001
0000
0100
0100
0010
0000
1000
0000
,
0001
1000
0000
0220
0000
0000
0000
0330
,
2000
0000
0000
3020
0000
0000
0130
0001
,
2000
0000
3001
0010
,
0001
0100
0010
1000
,
0100
0010
0100
1000
0100
0010
0001
0010
,
0200
0000
0310
0001
,
0100
0010
1000
0001
,
1000
1000
0010
0100
0100
0001
0010
0010
,
0100
0010
0010
0001
0010
1000
0010
0100
,
2000
0000
0000
0001
0000
0000
0000
0000
,
0001
0000
0000
0001
0000
0000
3000
0000
,
1001
0000
0000
0110
0000
0000
0000
0000
,
1010
0000
0000
0101
0000
0000
0000
0000
,
0012
0000
0000
0103
0000
0000
0000
0000
,
1020
0000
0000
0130
0000
0001
1000
0100
,
0120
0000
0000
0130
0000
0000
0000
0000
,
0012
0000
0000
0000
0000
0000
0103
0000
0000
0000
0001
1000
0001
0000
0000
0000
;

//---------------dance-single - ----------------
#NOTEDATA:;
#CHARTNAME:;
#STEPSTYPE:dance-single;
#DESCRIPTION:;
#CHARTSTYLE:;
#DIFFICULTY:Easy;
#METER:10;
#RADARVALUES:0.414574,0.564674,0.369633,0.243801,0.000000,369.000000,322.000000,47.000000,31.000000,0.000000,0.000000,0.000000,0.000000,0.000000,0.414574,0.564674,0.369633,0.243801,0.000000,369.000000,322.000000,47.000000,31.000000,0.000000,0.000000,0.000000,0.000000,0.000000;
#CREDIT:Pandemonium X;
#NOTES:
0000
0000
0000
0000
,
0000
0000
0000
0000
,
0000
0000
0000
0000
,
0000
0000
0000
0000
,
0000
0000
0000
0000
,
0000
0000
0000
0000
,
1001
0000
0000
1010
0000
0000
0000
0000
,
1001
0000
0000
0011
0000
0000
0000
0000
,
1001
0000
0000
1100
0000
0000
0000
0000
,
0100
1000
0010
0100
,
0002
0000
0000
0013
0000
0000
0000
0000
,
2000
0000
0000
3100
0000
0000
1000
0000
,
0020
0000
0000
0130
0000
0000
0000
0000
,
0002
0000
0000
1003
0000
0000
0001
0000
,
0200
0000
0000
0310
0000
0000
0000
0000
,
2000
0000
0000
3100
0000
0000
0010
0000
,
0002
0000
0000
1003
0000
0000
0000
0000
,
0220
0000
0000
0330
,
0001
1000
0010
1000
,
0001
0010
0001
0001
,
1000
0001
0100
0010
,
1000
0010
0100
0010
,
1000
0010
1000
0000
0010
0000
0100
0000
,
0001
0100
0001
0000
0100
0000
0001
0000
,
1001
0000
0000
0000
0010
0100
0000
0000
,
1001
0000
0110
0000
2000
0002
0000
3003
,
0202
0000
0303
0010
,
1000
0010
1000
0000
0010
0000
0100
0001
,
0100
0000
0001
0000
1000
0100
1000
0000
,
0100
0010
0100
0000
0010
0001
0010
0000
,
0001
1000
0001
0000
1000
0000
0001
0100
,
0001
0100
0000
0010
0100
0000
0010
1000
,
0001
0000
1000
0000
0100
1000
0010
0000
,
0100
0001
0000
2002
0000
0000
3003
0000
,
0001
0000
0101
0000
0001
0100
0010
1000
,
0001
0000
1000
0100
0000
0100
1000
0000
,
0100
0000
1000
0000
0010
0100
0001
0000
,
1000
0100
0010
0000
0100
1000
0010
0000
,
0100
0000
0110
0000
1000
0010
1000
0100
,
1000
0000
0001
0000
0100
0000
0001
0010
,
0100
0000
0010
0000
0001
1000
0010
0000
,
1000
0010
0100
0001
1000
0100
0010
0100
,
1000
0000
0000
0000
0001
0000
0000
0200
,
0000
0000
0310
1000
,
0200
0000
0000
0000
0000
0310
0000
0000
,
0100
2000
0000
3000
,
0001
1000
0010
1000
,
0100
0000
1000
0001
,
1000
0000
0001
0100
,
0020
0000
0000
0230
0000
0000
0000
0000
,
0301
0100
0010
1000
,
0010
0100
0001
1000
,
0100
0001
0100
0010
,
0002
0000
0013
0001
,
2000
0000
0000
3001
0000
0000
0100
0000
,
0020
0000
0000
1000
0000
1000
0000
1030
,
0001
1000
0010
1000
0001
1000
0010
1000
,
0001
0000
1000
0000
,
0001
0100
0010
1001
,
1000
0100
0010
1001
,
1000
0001
0100
1001
,
1000
0001
0010
1001
,
0001
0000
1000
0001
0000
1000
0001
0000
,
1001
0000
1000
0001
0000
1000
0001
0000
,
1000
0001
0100
0010
,
1001
0000
0110
0000
0002
2000
0000
3003
,
0101
0000
0100
0001
2000
0000
3100
0000
,
1000
0000
0010
0000
0100
0010
1000
0000
,
0010
0100
0001
1000
0001
0010
0100
0000
,
0010
0001
0010
0100
1000
0100
0010
0001
,
1000
0000
0001
0000
0100
0001
0100
0000
,
0010
0000
1001
0000
0010
0100
0001
0000
,
1000
0000
0100
0010
0100
1000
0001
0000
,
0001
0100
0000
0220
0000
0000
0330
0000
,
0020
0000
0000
1030
0000
0000
0100
1000
,
0020
0000
0130
0001
,
1000
0100
1000
0001
,
0100
0100
0001
0001
,
2000
0000
3001
1000
,
0010
1000
0001
0010
,
0110
0000
0000
0011
0000
0000
1100
0000
,
0000
1010
0000
0000
0101
0000
1001
0000
,
1010
0000
0000
0101
0000
0000
0000
0000
,
0011
0000
0000
0110
0000
0000
0000
0000
,
1100
0000
0000
1001
0000
0000
0000
0000
,
1010
0000
0000
0101
0000
0000
0000
0000
,
0011
0000
0000
0110
0000
0000
0000
0000
,
1100
0000
0000
1010
0000
0000
0000
0000
,
0110
0000
0000
0101
0000
0000
0000
0000
,
1001
0000
0000
0110
0000
0000
1001
0000
;

//---------------dance-single - ----------------
#NOTEDATA:;
#CHARTNAME:;
#STEPSTYPE:dance-single;
#DESCRIPTION:;
#CHARTSTYLE:;
#DIFFICULTY:Beginner;
#METER:4;
#RADARVALUES:0.152797,0.282337,0.125833,0.000000,0.000000,136.000000,120.000000,16.000000,0.000000,0.000000,0.000000,0.000000,0.000000,0.000000,0.152797,0.282337,0.125833,0.000000,0.000000,136.000000,120.000000,16.000000,0.000000,0.000000,0.000000,0.000000,0.000000,0.000000;
#CREDIT:Pandemonium X;
#NOTES:
0000
0000
0000
0000
,
0000
0000
0000
0000
,
0000
0000
0000
0000
,
0000
0000
0000
0000
,
0000
0000
0000
0000
,
0000
0000
0000
0000
,
1000
0000
0000
0000
,
0001
0000
0000
0000
,
1000
0000
0000
0000
,
0010
0000
0100
0000
,
1001
0000
0000
0000
,
0010
0000
0000
0000
,
1000
0000
0000
0000
,
0100
0000
0000
0000
,
1000
0000
0000
0000
,
0001
0000
0000
0000
,
0100
0000
0000
0000
,
0010
0000
0000
0000
,
1001
0000
0000
0000
,
1000
0000
0000
0000
,
0010
0000
0000
0000
,
1000
0000
0000
0000
,
0001
0000
0000
0000
,
0010
0000
0000
0000
,
0100
0000
1000
0000
,
0001
0001
0001
0000
,
1001
0000
0000
0010
,
0010
0000
0000
0100
,
0000
0000
0010
0000
,
1000
0000
0000
0000
,
1001
0000
0000
0001
,
0001
0000
0000
1000
,
0010
0000
0100
0000
,
0001
0000
0000
0000
,
1000
0000
0000
0010
,
0100
0000
0000
0010
,
1000
0000
0001
0000
,
1000
0000
0000
0000
,
0001
0000
0100
0000
,
0000
0000
0000
0010
,
0100
0000
0010
0000
,
1000
0000
0001
0000
,
0110
0000
0000
0000
,
0000
0000
0010
0000
,
0010
0000
0000
0000
,
0100
0000
0000
0000
,
0001
0000
1000
0000
,
0100
0000
1000
0000
,
0010
0000
0100
0000
,
0001
0000
1000
0000
,
1001
0000
0000
0000
,
0010
0000
0000
0000
,
0100
0000
0000
0000
,
0001
0000
1000
0000
,
0100
0000
0000
0000
,
1000
0000
0000
0000
,
0010
0000
0100
0000
,
1001
0000
0000
0000
,
0010
0000
0000
0000
,
0100
0000
0000
0000
,
0001
0000
0000
0000
,
1000
0000
0000
0000
,
0100
0000
0000
0000
,
1000
0000
0000
0000
,
0010
0000
0000
0000
,
0100
0100
0100
0000
,
1000
0001
0110
0000
,
0100
0000
0000
0000
,
0010
0000
1000
0000
,
0001
0000
1000
1000
,
0001
0000
1000
0000
,
0010
0000
1000
0000
,
0100
0000
0010
0000
,
0110
0000
0000
0000
,
0100
0000
0000
1000
,
1000
0000
0001
0000
,
0100
0000
0000
0000
,
0010
0000
0010
0000
,
0010
0000
0000
0000
,
1000
0000
0000
0000
,
1001
0000
0000
0110
,
0000
0000
1001
0000
,
0010
0000
0000
0000
,
0100
0000
0000
0000
,
0001
0000
0000
0000
,
1000
0000
0000
0000
,
0110
0000
0000
0000
,
1001
0000
0000
0000
,
0110
0000
0000
0000
,
1001
0000
0000
0100
;
