#VERSION:0.82;
#TITLE:Zer0 Spirit;
#SUBTITLE:;
#ARTIST:dj VERTICAI;
#TITLETRANSLIT:;
#SUBTITLETRANSLIT:;
#ARTISTTRANSLIT:;
#GENRE:;
#ORIGIN:;
#CREDIT:;
#BANNER:[Round 4] - Zer0 Spirit.png;
#BACKGROUND:[Round 4] - Zer0 Spirit-bg.png;
#PREVIEWVID:;
#JACKET:[Round 4] - Zer0 Spirit-jacket.png;
#CDIMAGE:;
#DISCIMAGE:;
#LYRICSPATH:;
#CDTITLE:;
#MUSIC:[Round 4] - Zer0 Spirit.ogg;
#OFFSET:-0.673000;
#SAMPLESTART:99.342117;
#SAMPLELENGTH:15.000000;
#SELECTABLE:YES;
#DISPLAYBPM:180.000000:360.000000;
#BPMS:0.000=180.000,
174.000=720.000,
177.750=45.000,
178.000=90.000,
178.250=180.000,
178.500=360.000,
229.000=180.000,
237.000=360.000,
292.000=180.000;
#STOPS:174.000=0.110,
174.500=0.055,
174.750=0.055,
175.000=0.080,
175.500=0.055,
175.750=0.028,
175.875=0.028,
176.000=0.120,
176.750=0.120,
177.500=0.050,
252.333=0.167;
#DELAYS:;
#WARPS:;
#TIMESIGNATURES:0.000=4=4;
#TICKCOUNTS:0.000=4;
#COMBOS:0.000=1;
#SPEEDS:0.000=1.000=0.000=0;
#SCROLLS:0.000=1.000;
#FAKES:;
#LABELS:0.000=Song Start;
#BGCHANGES:;
#KEYSOUNDS:;
#ATTACKS:
;

//---------------dance-single - ----------------
#NOTEDATA:;
#CHARTNAME:;
#STEPSTYPE:dance-single;
#DESCRIPTION:;
#CHARTSTYLE:;
#DIFFICULTY:Hard;
#METER:9;
#RADARVALUES:0.688072,0.982733,0.305369,0.652379,0.142274,556.000000,44.000000,94.000000,0.000000,1.000000,0.000000,0.000000,0.000000,0.688072,0.982733,0.305369,0.652379,0.142274,556.000000,44.000000,94.000000,0.000000,1.000000,0.000000,0.000000,0.000000;
#CREDIT:;
#DISPLAYBPM:180.000000:360.000000;
#NOTES:
// measure 0
0000
0000
0000
0000
,  // measure 1
0000
0000
0000
0000
,  // measure 2
0000
0000
0000
0000
,  // measure 3
0000
0000
0000
0000
,  // measure 4
0000
0000
0000
0000
,  // measure 5
0000
0000
0000
0000
,  // measure 6
1000
0100
0010
0100
1000
1000
0001
0100
,  // measure 7
0010
0000
0100
0000
0001
0000
0001
0000
1000
0000
0000
1100
0000
0000
0220
0000
,  // measure 8
0300
0100
0001
0130
,  // measure 9
0001
0000
0010
0000
0100
0000
1000
0000
0010
0000
0100
0000
0000
0100
0000
0000
,  // measure 10
2002
3003
0000
0000
1001
0000
1000
0000
0010
0000
0000
0000
1000
0000
0001
0000
,  // measure 11
0010
0001
0010
0100
1000
0100
0010
0001
,  // measure 12
1000
1000
0010
0010
0100
0001
0010
0010
,  // measure 13
0001
0000
0000
0000
1100
0000
0000
0000
0011
0000
0000
1000
0100
0000
1000
0000
,  // measure 14
0001
1000
0001
1000
0001
0000
0100
0000
0001
0000
0010
0000
0001
0000
1000
0000
,  // measure 15
0100
0010
0100
1000
0001
0100
0010
1000
,  // measure 16
0020
0230
0320
0230
,  // measure 17
0301
0001
0200
0000
0310
1000
0001
1000
,  // measure 18
0100
1000
0100
1000
0100
0000
1000
0000
0001
0000
1000
0000
0010
0000
1000
0000
,  // measure 19
0001
0010
0100
0010
0001
0202
0303
1000
,  // measure 20
2020
3030
1000
0002
0000
0103
0100
0001
,  // measure 21
0010
0100
1000
0002
0000
0013
0001
1000
,  // measure 22
0100
0000
0000
0000
1100
0000
0000
1001
0000
0000
1100
0000
0000
1001
0000
0000
,  // measure 23
1010
0000
0000
1000
0010
0000
0000
0100
0010
0000
0010
0000
0210
0000
0000
0000
,  // measure 24
0301
0000
0000
0101
0000
0000
1010
0000
0000
1100
0000
0000
0012
0000
0000
0000
,  // measure 25
0100
0010
0100
0010
,  // measure 26
0103
0001
1000
0010
2000
3200
0320
0032
,  // measure 27
0023
0000
0130
1000
0000
1000
0001
0000
,  // measure 28
2000
0000
3001
0000
0001
0100
1000
0100
,  // measure 29
0020
0000
1030
0002
0000
0013
0200
0000
,  // measure 30
0010
0000
1300
0000
0010
0001
0100
0001
,  // measure 31
0010
0000
1100
0000
0010
0001
0100
0010
,  // measure 32
2000
0000
3001
0200
0000
0301
1000
0020
,  // measure 33
0000
0000
0100
0000
0130
0001
0010
0200
,  // measure 34
0000
0000
0000
0000
0320
0000
0000
0000
0031
0000
1000
0000
0100
0010
0100
0010
,  // measure 35
0002
0000
0000
0000
0103
0000
0010
0000
1000
0000
0010
0100
0001
0000
1000
0000
,  // measure 36
0010
0000
0000
0011
0000
0000
2020
0000
,  // measure 37
0000
0000
0000
0000
,  // measure 38
3030
1000
0100
2002
,  // measure 39
0000
3020
0000
0000
,  // measure 40
0033
0001
1000
0220
,  // measure 41
0000
0000
0000
0000
,  // measure 42
0000
0000
0000
0000
,  // measure 43
0330
0000
0000
0000
,  // measure 44
0000
0000
0000
0000
0000
0000
0001
1000
,  // measure 45
0001
1000
0020
0000
0000
0000
1030
0000
,  // measure 46
0000
0100
1000
0000
1000
0000
0000
0000
,  // measure 47
0100
0000
1000
0000
0000
0100
1000
0000
,  // measure 48
0000
0100
1000
0000
1000
0000
2000
0000
,  // measure 49
0000
3002
0000
0103
,  // measure 50
0000
0100
0000
0000
0001
0000
0000
0100
,  // measure 51
0001
0000
0010
0000
0000
0010
0000
0001
,  // measure 52
0010
0001
0020
0230
,  // measure 53
2300
3020
0000
1030
,  // measure 54
0000
1000
0000
0000
0010
0000
0000
0010
,  // measure 55
0000
0000
0100
0000
0000
0100
0000
0000
,  // measure 56
0100
0100
0001
2000
,  // measure 57
0000
0000
3001
0100
0010
1000
0001
0100
,  // measure 58
0010
1000
0001
0100
0010
1000
0100
0010
,  // measure 59
0002
0203
0000
0310
,  // measure 60
0000
1000
0010
0000
0010
0000
0000
0000
,  // measure 61
0010
0000
0010
0000
0000
1000
0010
0000
,  // measure 62
0000
1000
0010
0000
0010
0000
0020
0000
,  // measure 63
0030
0000
0000
0000
1000
0000
0000
0000
1000
0000
0000
0000
,  // measure 64
0100
0000
0000
0000
0100
0000
0000
0000
1000
0000
0001
0000
,  // measure 65
1000
0000
0000
0001
0000
0000
0100
0000
0010
0000
0100
0000
,  // measure 66
0001
0100
0010
0010
,  // measure 67
1000
1000
0001
0000
,  // measure 68
0001
0000
0000
0100
0001
0000
0001
0000
,  // measure 69
0000
0010
0010
0010
,  // measure 70
0010
0001
0010
0100
2000
0000
0000
0000
,  // measure 71
0002
0000
0000
0000
,  // measure 72
0000
0000
3003
0000
,  // measure 73
1001
0000
0000
0000
,  // measure 74
0000
0000
0000
0000
,  // measure 75
0000
0000
0000
0000
,  // measure 76
0000
0000
0000
0000
,  // measure 77
1000
0100
0010
0100
1000
0001
0010
0001
,  // measure 78
1000
0100
0010
0100
1000
0001
0010
0001
,  // measure 79
1000
0001
0100
0001
1000
0010
0100
0010
,  // measure 80
1000
0001
0100
0001
1000
0010
0100
0001
,  // measure 81
0020
0000
0100
0000
0130
1000
0001
0100
,  // measure 82
0020
0000
0100
0000
0130
0001
1000
0100
,  // measure 83
0020
0000
0100
0000
0130
1000
0001
0010
,  // measure 84
0000
0010
0000
0010
0000
0010
0100
0000
,  // measure 85
1000
0000
0100
0000
1000
0000
0000
0000
0100
0000
0000
1000
0000
0000
0001
0000
,  // measure 86
0000
0000
0100
0000
0100
0000
0000
0001
0010
0000
0001
0000
0001
0000
0000
0000
,  // measure 87
0010
0000
0010
0000
0010
0000
0000
0001
1000
0000
1000
0000
1000
0100
1000
0100
,  // measure 88
0020
0000
0230
0000
2300
0000
3001
1000
,  // measure 89
0010
0000
0101
0000
0001
0010
0100
2000
,  // measure 90
0100
0000
3001
0000
0100
1000
0001
0020
,  // measure 91
0000
0100
0130
0000
0010
0001
1000
0200
,  // measure 92
0010
0000
0000
0000
1300
0000
0000
0000
1000
0000
0000
0001
0000
0000
0010
0000
,  // measure 93
0020
0000
0000
0000
0031
0000
0200
0000
0000
0000
0000
0000
0300
0000
0001
1000
,  // measure 94
0200
1300
0011
1010
,  // measure 95
2002
0000
3003
0000
0001
0100
0010
1000
,  // measure 96
0000
1000
0001
0000
0110
0000
1001
0000
,  // measure 97
1000
0100
1000
0000
1000
0001
0010
0001
,  // measure 98
0000
0001
0100
0010
0000
0010
0100
0000
,  // measure 99
0001
0001
0000
0101
0000
1100
0000
0012
,  // measure 100
0000
0000
1003
0000
0001
0000
0100
0000
0000
0100
0000
0000
0100
0010
0100
0000
,  // measure 101
0001
0100
0010
1000
0100
0001
0100
1000
,  // measure 102
0010
0100
0001
0100
1000
0100
0001
1000
,  // measure 103
0020
0030
0020
0030
,  // measure 104
0020
2030
3002
0023
,  // measure 105
0031
0000
0000
0100
0010
0000
1000
0000
0000
0100
0010
0000
0001
0000
0100
0010
,  // measure 106
1000
0001
1000
0001
0010
0100
0110
0000
,  // measure 107
1000
0001
0010
0200
0000
0000
0010
0010
,  // measure 108
0310
0000
0000
0001
0000
0000
0001
0000
1000
0000
0010
0000
0100
0000
0000
0000
,  // measure 109
0001
1000
0010
0200
0000
0000
0010
0010
,  // measure 110
0310
0000
0000
1000
0000
0000
1000
0000
0001
0000
0100
0000
0010
0000
0100
0000
,  // measure 111
0001
0100
0010
1000
0100
0100
1000
0100
,  // measure 112
0010
0000
0001
0000
0100
0000
0100
0000
0001
0000
0000
0101
0000
0000
0220
0000
,  // measure 113
0000
0000
0330
0000
2020
3030
0000
0000
0202
0303
0000
0000
2020
3030
0000
0000
,  // measure 114
2200
3300
0000
0000
0022
0033
0000
0000
0202
0303
0000
0000
2020
3030
0000
0000
,  // measure 115
1000
0001
0100
0010
1000
0001
0010
0100
,  // measure 116
1000
0000
0001
0000
1000
0100
1000
0100
0020
0000
0100
0000
0000
0130
0000
0000
,  // measure 117
2002
0000
0000
0000
,  // measure 118
3003
0000
0000
0000
;

//---------------dance-single - ----------------
#NOTEDATA:;
#CHARTNAME:;
#STEPSTYPE:dance-single;
#DESCRIPTION:;
#CHARTSTYLE:;
#DIFFICULTY:Challenge;
#METER:10;
#RADARVALUES:0.897269,1.000000,0.444173,0.728721,0.454583,736.000000,64.000000,105.000000,0.000000,0.000000,0.000000,0.000000,0.000000,0.897269,1.000000,0.444173,0.728721,0.454583,736.000000,64.000000,105.000000,0.000000,0.000000,0.000000,0.000000,0.000000;
#CREDIT:;
#DISPLAYBPM:180.000000:360.000000;
#NOTES:
0000
0000
0000
0000
,
0000
0000
0000
0000
,
0000
0000
0000
0000
,
0000
0000
0000
0000
,
0000
0000
0000
0000
,
0000
0000
0000
0000
,
1000
0000
1000
0000
0100
0000
1000
0000
0010
0100
0010
0100
0001
0000
0001
0000
,
0100
0000
0001
0000
0010
0100
0010
0100
1000
0000
0000
1100
0000
0000
0220
0000
,
0330
0002
0010
2003
0100
3002
0010
1003
,
0100
1000
0100
1000
0001
0010
0001
0100
0010
0000
0100
0000
0000
0100
0000
0000
,
2002
3003
0000
0000
1001
0000
0001
0100
0020
0000
0000
0000
1030
0001
0010
0001
,
1000
0100
1000
0000
0001
0010
0001
0000
0100
0001
0100
0000
0001
0000
0020
0000
,
0001
0001
0100
0100
1000
1000
0100
0100
,
0031
0000
0000
0000
1100
0000
0000
0000
0011
0000
0000
1000
0100
0000
1000
0000
,
0001
0010
0001
0010
0001
0000
0001
0100
0010
0000
1000
0000
0100
1000
0010
1000
,
0001
0100
1000
0100
0001
0010
1000
0010
,
0001
1010
0011
1010
,
0001
0001
2000
0000
3200
0010
0010
0310
,
0001
1000
0001
1000
0001
0000
0100
0000
0010
0000
1000
0000
0001
0000
1000
0000
,
0100
0010
0001
0000
0100
0010
1000
0000
0001
0000
0021
0000
0000
0000
0130
0000
,
1200
0000
1300
1020
0000
0130
0100
0010
,
1000
0001
0010
0100
0010
0000
0002
0000
0000
0000
0103
0000
0001
0000
0100
0000
,
0020
0000
0030
0000
0101
0000
0000
0010
0000
0000
1100
0000
0000
0010
0000
0000
,
0001
0000
0000
1000
0001
0000
0000
1000
0100
0000
0100
0000
1000
0001
1000
0100
,
0010
0000
0000
1100
0000
0000
1001
0000
0000
0101
0000
0000
0110
0000
0010
0000
,
1000
0001
0100
0010
1000
0001
0100
0010
,
1000
0001
1000
0010
0100
0001
0100
0010
2000
0000
3002
0000
0203
0000
0320
0000
,
1030
0100
1000
0020
0000
0130
0010
0100
,
0001
0000
1000
0000
0100
0000
0010
0000
0000
0010
0100
0000
1000
0100
1000
0000
,
0001
0001
0100
0002
0000
0103
0020
0030
,
1000
0010
1000
0000
0001
0100
0001
0000
2000
0000
3002
0000
0203
0000
0302
0000
,
0023
0000
0031
0000
0002
0203
0320
2030
,
3010
0000
0010
0000
0100
0000
0001
0000
0000
0001
1000
0000
0010
0000
0100
0000
,
0001
1000
0100
1000
0001
0100
0001
0010
,
0100
0000
0100
0000
0100
0000
0100
0000
0100
0000
0010
0000
0001
1000
0001
0000
,
1000
0000
0100
0000
0010
0000
0100
0000
1000
0000
0001
0100
0010
0000
0100
0000
,
0001
0000
0000
0000
0000
0000
0001
0000
0000
0100
0000
0000
0001
0000
0000
0000
0000
0000
1000
0000
0000
0000
0000
0000
0100
0000
0000
0000
0000
0000
0100
0000
0000
0000
0000
0000
0110
0000
0000
0000
0000
0000
0000
0000
0010
0000
0000
0000
,
0001
1000
0001
0010
0000
0100
1000
0001
1000
0100
0000
0010
,
0001
1000
0001
0200
0000
0000
0301
0000
0000
1001
0000
1000
,
0100
0010
0100
1000
0000
0001
0100
0010
1000
0001
0000
1000
,
0001
0010
0100
2000
0000
0000
3100
0000
0000
0012
0000
0000
,
1003
0100
0001
1000
0010
0001
0100
0001
,
0100
0000
1000
0000
0001
0000
0010
0000
1000
0000
0001
0000
1000
0100
1000
0001
,
0020
0000
0000
0000
,
0000
0000
0000
0000
0030
0000
0001
1000
,
0001
1000
0002
0000
0000
0000
0103
0000
,
0000
0001
0100
0000
0200
0000
0000
0000
,
0301
0000
0200
0000
0300
0001
0200
0000
,
0300
0001
0100
0000
0100
0000
0210
0000
,
0000
0302
0000
1003
,
0000
0100
0000
0000
1100
0000
0000
1000
,
0001
0000
0010
0000
0000
0011
0000
0010
,
0001
0002
0203
0320
,
2030
3020
0000
0130
,
0000
0001
0000
0000
0101
0000
0000
1010
,
0000
0000
1001
0000
0000
0110
0000
0000
,
1001
0000
0001
0000
1000
0000
0100
0010
,
0100
0010
0100
1000
0001
0100
0001
1000
,
0010
0000
1000
0000
0001
0000
0010
0000
0001
0000
1000
0000
0001
0100
0001
0100
,
0020
2030
0000
3001
,
0000
0010
0001
0000
0002
0000
0000
0000
,
0013
0000
0200
0000
0300
0010
0002
0000
,
0003
0010
0200
0000
2300
0000
3002
0000
,
0103
0000
0000
0000
1010
0000
0000
0000
1010
0000
0000
0000
,
0101
0000
0000
0000
0101
0000
0000
0000
0001
0000
1000
0000
,
0002
0000
0000
1003
0000
0000
0100
0000
0010
0000
0100
0000
,
1000
0001
0010
0010
,
0100
0100
1100
0000
,
1100
0000
0000
1000
0001
0000
0101
0000
,
0000
0100
0010
0100
,
0001
1000
0001
1000
0200
0000
0000
0000
,
1300
0000
0100
0000
1000
0000
0100
0000
0010
0000
0100
0000
,
0010
0000
0001
0000
0010
0000
0002
0000
0000
2003
0000
0000
,
3020
0000
0000
0000
0000
0000
0030
0000
0000
0000
0010
0000
0000
0010
0000
0000
,
0020
0000
0000
0000
0030
0000
0000
0000
0010
0000
0000
1000
0000
0000
0020
0000
,
0000
0000
1030
0000
0001
0000
1000
0000
0100
0000
1000
0000
0010
0100
0010
0100
,
0002
0000
0000
0000
0103
0010
0100
0020
,
0000
0130
0001
1000
0002
0000
0013
0002
,
0000
1003
0100
1000
0000
1000
0001
0200
,
0000
0000
0301
0000
0001
0000
0100
0000
0001
0000
0000
1000
0000
0000
0200
0000
,
0000
0000
1300
0000
0001
0000
0020
0000
0100
0000
0000
0001
0000
0000
0130
0000
,
0100
1000
0001
0010
0001
0100
0010
1000
,
0100
1000
0001
0010
0001
0100
0010
1000
,
0001
0010
0100
1000
0010
1000
0001
0100
,
0001
1000
0010
0100
0001
0020
0000
0000
,
0130
0000
1000
0000
1100
0000
0000
0000
0100
0000
0000
1100
0000
0000
0110
0000
,
0000
0000
0010
0000
0011
0000
0000
0001
1000
0000
1010
0000
1010
0000
0000
0000
,
0010
0000
0100
0000
0101
0000
0000
0100
0001
0000
0001
0000
0001
1000
0001
1000
,
0002
0000
0000
0000
0023
0000
0000
0000
0230
0000
0000
0300
1000
0100
1000
0100
,
1000
0000
0001
0000
0010
0000
0100
0000
1000
0100
0010
0000
0010
0000
0001
0000
,
0100
0010
1000
0010
0100
0001
0001
0010
,
0000
0000
0100
0000
1100
0000
0000
1000
0010
0000
0100
0000
0001
0000
0100
0000
,
0020
0000
0000
0000
0100
0000
0000
0000
0130
0000
0000
0100
0001
0000
1000
0000
,
0001
0000
0100
0000
0010
0000
1000
0000
0100
0000
1000
0000
0001
0000
0010
0001
,
0100
0001
0010
0100
1100
0000
0011
0000
,
1000
0000
0010
0000
0010
0100
0000
0100
0001
0000
1000
0000
0001
0000
0010
0000
,
0100
0000
0000
0000
0100
0000
0000
0000
0010
0000
0010
0000
0010
0001
1000
0001
,
0010
0000
0100
0000
1000
0000
0000
0001
0100
0000
0100
0000
0001
0000
2000
0000
,
0000
3010
0110
0200
0000
0310
2000
0000
,
3001
1001
0000
0101
0000
1010
0000
0012
,
0000
0000
0013
0000
0100
0000
1000
0000
0000
0100
0000
0000
0100
0010
0100
0000
,
0100
0000
1000
0000
0001
0000
1000
0000
0100
0000
0010
0000
0001
0010
0001
0000
,
0100
0000
0001
1000
0010
0000
0100
0000
0010
1000
0100
0000
0100
0010
0001
1000
,
0002
0000
2003
0000
,
3002
0203
0320
2030
,
3001
0000
0100
0000
0001
0000
1000
0010
0000
0100
0000
0010
0000
1000
0001
0010
,
0100
0000
0100
0000
1000
0100
1000
0001
0200
0000
0010
0000
0310
0000
0000
0000
,
0100
0001
1000
1200
0000
0000
0010
0010
,
0310
0000
0000
0001
0000
0000
1000
0000
0001
0000
1000
0000
0100
0000
0000
0000
,
0010
0001
1000
1020
0000
0000
0100
0100
,
0130
0000
0000
0001
0000
0000
1000
0000
0001
0000
0100
0000
0010
0000
1000
0000
,
0010
0000
0100
0000
0001
0000
0001
0000
1000
0100
1000
0001
0010
0000
0100
0000
,
1000
0000
1000
0000
0001
0100
0001
1000
0100
0000
0000
1100
0000
0000
0022
0000
,
0000
0033
0000
0000
0202
0303
0000
0000
2200
3300
0000
0000
2020
3030
0000
0000
,
0202
0303
0000
0000
0022
0033
0000
0000
2020
3030
0000
0000
2200
3300
0000
0000
,
1000
0100
0010
0001
1000
0010
0100
0001
,
0100
0001
0100
0001
1000
0010
1000
0010
0100
0000
0010
0000
0000
0110
0000
0000
,
2002
0000
0000
0000
,
3003
0000
0000
0000
;

//---------------dance-single - ----------------
#NOTEDATA:;
#CHARTNAME:;
#STEPSTYPE:dance-single;
#DESCRIPTION:;
#CHARTSTYLE:;
#DIFFICULTY:Beginner;
#METER:2;
#RADARVALUES:0.143761,0.243601,0.062462,0.020821,0.000000,133.000000,9.000000,3.000000,0.000000,0.000000,0.000000,0.000000,0.000000,0.143761,0.243601,0.062462,0.020821,0.000000,133.000000,9.000000,3.000000,0.000000,0.000000,0.000000,0.000000,0.000000;
#CREDIT:;
#DISPLAYBPM:180.000000:360.000000;
#NOTES:
0000
0000
0000
0000
,
0000
0000
0000
0000
,
0000
0000
0000
0000
,
0000
0000
0000
0000
,
0000
0000
0000
0000
,
0000
0000
0000
0000
,
1000
0000
0000
0001
,
0000
0000
0000
0000
1000
0000
0000
0010
,
0000
0000
0000
0000
,
1000
0000
0001
0000
,
1001
0000
0000
0000
,
0001
0000
0100
0000
,
0010
0000
0010
0000
,
0010
0010
0010
0000
,
1001
0000
0000
0000
,
1000
0000
0100
0000
,
0010
0000
0010
0000
,
0010
0010
0010
0010
,
0001
0000
0000
0000
,
0001
0000
0100
0000
,
1000
0000
0000
0000
,
1000
0000
0100
0000
,
0001
2000
0000
0000
,
0000
0000
0000
3000
,
0001
0000
0000
0001
0000
0000
0010
0000
,
0000
0000
0000
0000
,
0020
0000
0000
0030
,
0001
0000
0000
0000
,
1000
0000
1000
0000
,
0010
0000
0000
0000
,
1000
0000
1000
0000
,
0100
0000
0000
0000
,
0010
0000
0000
0000
,
0001
0000
0000
0000
,
1000
0001
0000
0000
,
1000
0000
1000
0000
,
0100
0000
0000
0100
0000
0000
0010
0000
,
0000
0000
0000
0000
,
0000
0000
0000
1001
,
0000
0000
0000
0000
,
0000
0000
0000
0110
,
0000
0000
0000
0000
,
0000
0000
0000
0000
,
0000
0000
0000
0000
,
0000
0000
0000
0000
,
0000
0000
0000
1000
,
0000
0000
0000
0000
,
0000
1000
0000
0000
,
0000
1000
0000
0000
,
0000
0000
0000
0001
,
0000
0000
0000
0000
,
0000
0001
0000
0000
,
0000
0001
0000
0000
,
0000
0000
0000
1000
,
0000
0000
0000
0000
,
0000
1000
0000
0000
,
0000
1000
0000
0000
,
0000
0100
0000
0100
,
0000
0100
0000
0100
,
0010
0000
0000
0001
,
0000
0000
0000
0000
,
0000
0001
0000
0000
,
0000
0001
0000
0000
,
0000
0000
0000
0000
,
1000
0000
0000
0000
,
1000
0000
0000
0000
,
1000
0000
0001
0000
,
0000
0000
0100
0000
,
0000
0000
0100
0000
,
0000
0000
0100
0000
,
0100
0000
0100
0000
,
0010
0000
0000
0000
,
0000
0000
0000
0000
,
1001
0000
0000
0000
,
0000
0000
0000
0000
,
0000
0000
0000
0000
,
0000
0000
0000
0000
,
0000
0000
0000
0000
,
0000
0000
0000
0000
,
0000
0000
0000
0000
,
0000
0000
0000
0000
,
0000
0000
0000
0000
,
0000
0000
0000
0000
,
0000
0000
0000
0000
,
0000
0000
0000
0000
,
0001
0000
1000
0000
,
0000
0001
0000
0000
0001
0000
0000
0000
,
1000
0000
1000
0000
,
0100
0010
0100
0000
,
1000
0000
0000
0000
,
1000
0100
0100
0000
,
0010
0000
0000
0000
,
0010
0001
0001
0000
,
1000
0000
0000
0000
,
0001
0000
1000
1000
,
0001
0000
0100
0000
,
0010
0000
1000
0000
,
0001
0000
0000
0000
,
0001
0000
0000
0100
0000
0000
0100
0000
,
0010
0000
0000
0000
0000
0000
0000
0010
,
0000
0000
0000
1000
0000
0000
0000
0000
,
1001
0000
0000
0000
,
0000
0000
0000
0000
,
1000
0000
0000
0000
,
0001
0000
0000
0000
,
1000
0000
1000
0000
,
0001
0001
0001
0000
,
0011
0000
0000
0000
,
0000
0000
0000
0000
,
1010
0000
0000
0000
,
0000
0000
0000
0000
,
1000
0000
0000
0001
,
0000
0000
0000
0000
0100
0000
0000
0020
,
0000
0000
0000
0000
,
0000
0000
0000
0030
,
0010
0000
0010
0000
,
0010
0010
0010
0000
,
1001
0000
0000
0000
;

//---------------dance-single - ----------------
#NOTEDATA:;
#CHARTNAME:;
#STEPSTYPE:dance-single;
#DESCRIPTION:;
#CHARTSTYLE:;
#DIFFICULTY:Easy;
#METER:4;
#RADARVALUES:0.254805,0.487202,0.041641,0.263728,0.000000,213.000000,6.000000,38.000000,0.000000,0.000000,0.000000,0.000000,0.000000,0.254805,0.487202,0.041641,0.263728,0.000000,213.000000,6.000000,38.000000,0.000000,0.000000,0.000000,0.000000,0.000000;
#CREDIT:;
#DISPLAYBPM:180.000000:360.000000;
#NOTES:
0000
0000
0000
0000
,
0000
0000
0000
0000
,
0000
0000
0000
0000
,
0000
0000
0000
0000
,
0000
0000
0000
0000
,
0000
0000
0000
0000
,
1000
2000
3000
0001
,
0002
0000
0003
0000
1000
0000
0000
0020
,
0000
0000
0000
0030
,
0010
0100
0020
0000
,
0030
1000
0000
1000
,
0000
0001
0000
0001
,
0100
0000
0100
0000
,
0010
0010
0010
0000
,
2002
3003
0000
0001
,
0000
1000
0000
1000
,
0100
0000
0100
0000
,
0010
0010
0010
0010
,
0020
0030
0001
0000
,
1000
1000
0100
0000
,
1000
0000
0010
0000
,
0100
0100
0001
0000
,
1000
0000
0100
0000
0000
0100
0000
0000
,
1000
1000
0001
0001
,
0100
0000
0000
0100
0000
0000
0020
0000
,
0000
0000
0000
0000
,
0030
0000
0000
0000
,
0000
0001
0000
0001
,
0000
0100
0000
0100
,
0000
0010
0000
0010
,
0000
1000
0000
1000
,
0000
0001
0000
0001
,
0000
0010
0000
0010
,
0000
0100
0000
0100
,
1000
1000
2000
3000
,
0001
0000
1000
0000
,
0001
0000
0000
0001
0000
0000
0020
0000
,
0000
0000
0000
0000
,
0000
0000
0030
0200
,
0000
0000
0000
0000
,
0000
0000
0300
2002
,
0000
0000
0000
0000
,
0000
0000
0000
0000
,
3003
0000
0000
0000
,
0000
0000
0000
0000
,
0000
0000
0000
1000
,
0000
1000
0000
0000
,
0000
0001
0000
0000
,
0000
0001
0000
0000
,
0000
0000
0000
1000
,
0000
0000
0000
1000
,
0000
0010
0000
0000
,
0000
0010
0000
0000
,
0000
0000
0000
1000
,
0000
0000
1000
0000
,
0000
0100
0000
0000
,
0000
0100
0000
0010
,
0000
0001
0001
0100
,
0100
0010
0010
1000
,
1000
1001
0000
0001
,
0000
0001
0000
0000
,
0000
1000
0000
0000
,
0000
0001
0000
1000
,
0000
0000
0000
0000
,
0001
0000
0000
0000
,
0010
0000
0001
0000
,
0010
0000
0010
0000
,
0000
0000
0001
0000
,
0001
0000
0000
0000
,
0100
0000
0000
0000
,
0100
0000
0001
0000
,
2000
0000
0000
0000
,
0000
0000
0000
0000
,
3001
0000
0000
0000
,
0000
0000
0000
0000
,
0000
0000
0000
0000
,
0000
0000
0000
0000
,
0000
1000
0000
0100
,
0000
1000
0000
0001
,
0000
0010
0000
0001
,
0000
1000
0000
0010
,
0010
0000
0000
0000
0100
0000
0000
0100
,
0000
0000
0000
0000
0100
0000
0000
0010
,
0000
0000
0000
0000
0010
0000
0000
2000
,
0000
0000
0000
0000
0000
3000
0000
0000
,
1000
0000
1000
0000
,
0000
0001
0000
0000
0001
0000
0001
0000
,
1000
0000
0001
0000
,
1000
0100
0020
0030
,
0001
0000
0001
0100
,
0010
0000
0100
0001
,
1000
0000
0100
1000
,
0010
0000
1000
0001
,
0010
0001
0100
0000
,
0001
0001
1000
1000
,
0010
0000
0010
0100
,
0001
1000
0100
0010
,
0001
0000
0001
1000
,
1000
0000
0000
0001
0000
0000
1001
0000
,
1000
0000
0000
0100
0000
0100
0000
0200
,
0000
0000
0000
0320
0000
0000
0030
0000
,
0002
0000
2003
0000
,
3002
0000
2003
0000
,
3020
0000
0000
0030
,
0020
0030
0020
0030
,
0010
0000
0000
0100
0000
0000
0010
0000
,
0010
1000
0001
0100
,
0002
0000
0000
0003
0000
0000
0000
0000
,
0001
0100
0100
0001
,
2000
0000
0000
3000
0000
0000
0000
0000
,
1000
0100
0100
1000
,
0001
0020
0030
1000
,
0020
0000
0030
0000
0001
0000
0000
2002
,
0000
0000
0000
3003
,
0002
0000
2003
0000
,
3002
0203
0320
2030
,
3100
0100
0020
0030
,
1001
0000
0000
0000
;

//---------------dance-single - ----------------
#NOTEDATA:;
#CHARTNAME:;
#STEPSTYPE:dance-single;
#DESCRIPTION:;
#CHARTSTYLE:;
#DIFFICULTY:Medium;
#METER:6;
#RADARVALUES:0.467968,0.655155,0.194326,0.541336,0.024291,366.000000,28.000000,78.000000,0.000000,0.000000,0.000000,0.000000,0.000000,0.467968,0.655155,0.194326,0.541336,0.024291,366.000000,28.000000,78.000000,0.000000,0.000000,0.000000,0.000000,0.000000;
#CREDIT:;
#DISPLAYBPM:180.000000:360.000000;
#NOTES:
0000
0000
0000
0000
,
0000
0000
0000
0000
,
0000
0000
0000
0000
,
0000
0000
0000
0000
,
0000
0000
0000
0000
,
0000
0000
0000
0000
,
1000
2000
3100
0001
,
0002
0000
0000
0000
0103
0000
0000
0000
0010
0000
0000
0100
0000
0000
0020
0000
,
0000
1000
1000
1030
,
1000
0001
1000
0001
0020
0000
0030
0000
,
2002
3003
0000
0000
1001
0000
0000
0000
0002
0000
0000
0000
0103
0000
0000
0000
,
0001
0010
0001
0000
1000
0010
1000
0000
,
0002
0013
2000
3010
,
0002
0203
0320
2030
,
3100
0100
1000
0000
0001
0001
1000
0000
,
0010
0000
0100
0000
0001
0100
0010
0000
,
1000
1001
0001
1001
,
1000
0100
2000
0000
3002
0000
0023
0000
,
0031
0001
0100
0000
0001
0000
0010
0000
,
0100
0000
1000
0000
0001
0010
0000
0010
,
0100
0000
1000
0010
0000
0010
0100
0000
,
0010
0010
0010
0100
,
0001
0000
2000
0000
0000
3002
0000
0000
,
0023
0230
0320
0032
,
1003
0000
0000
1100
0000
0000
0220
0000
,
0000
0000
0000
0330
,
0001
1000
0001
2000
0002
0000
3003
0000
,
1000
0000
1200
0000
0300
1000
0010
0000
,
0001
0000
0201
0000
0300
0001
0010
0000
,
0100
0000
1000
0100
0000
1000
0020
0000
,
1000
0000
0001
0000
1030
0000
1000
0001
,
0010
0000
0011
0000
0001
1000
0001
0000
,
1000
0000
1000
0010
0000
1000
0001
0200
,
0000
0000
0001
0000
0301
0000
1000
0200
,
0000
0000
1300
0000
0010
0100
0010
0000
,
1000
0100
0001
0100
,
1000
0000
0000
0001
0000
0000
0020
0000
,
0000
0000
0000
0000
,
0030
0001
0100
0020
,
0000
0000
0000
0000
,
0030
0010
0100
2002
,
0000
0000
0000
0000
,
0000
0000
0000
0000
,
3003
0000
0000
0000
,
0000
0000
0000
0000
,
0000
0000
0000
1000
,
0000
0100
0000
0000
,
0000
0100
0000
0100
,
0000
0100
0000
0000
,
0000
1000
0000
0001
,
0000
0000
0001
0000
,
0000
0010
0000
0000
,
0020
0000
0000
0030
,
0000
0001
0000
1000
,
0000
0000
1000
0000
,
0000
0000
0001
0000
0000
0001
0000
0000
,
0001
0100
0000
0200
,
0000
0000
0301
1000
0000
0001
0000
1000
,
0000
0001
0000
1000
0000
0001
0010
0100
,
0010
0200
0000
1300
,
0000
0001
0000
0000
,
1000
0001
0000
0001
,
0000
0001
0100
0010
,
1000
0000
0000
0000
1000
0000
0000
0000
0000
0000
0000
0000
,
0001
0000
0000
0000
,
1000
0000
0100
0000
,
0010
0000
0001
0010
,
0001
0000
1100
0000
,
1100
0000
0000
1001
,
0000
0000
0101
0000
,
0102
0000
1003
0000
,
0220
0000
0000
0000
,
0000
0000
0330
0000
,
1001
0000
0000
0000
,
0000
0000
0000
0000
,
0000
0000
0000
0000
,
0000
0000
0000
0000
,
2000
3200
0320
0230
,
2300
3002
0203
0302
,
2003
3020
0230
0320
,
2030
3002
0023
0230
,
2300
0100
3001
1000
,
0002
0100
1003
0010
,
2000
0000
0100
0000
3001
0000
0010
0200
,
0000
0000
0000
0000
0000
0310
0000
0000
,
0001
0000
1000
0000
0001
0000
0000
0000
0001
0000
0000
0100
0000
0000
0010
0000
,
0000
1000
1000
0000
1000
0100
0010
0000
,
0100
0100
0010
0010
,
0002
0023
0230
1300
,
0001
0000
0001
0000
1000
0100
1000
0000
,
0010
0000
0100
0000
0010
0000
0100
0001
,
0000
0000
1000
0000
1000
0000
0000
0000
0100
0000
0000
1000
0000
0000
0001
0000
,
0010
0010
0020
0031
,
1000
0100
1000
1001
,
0002
0103
0110
1001
,
2000
0100
0001
3100
,
0002
0013
1010
0011
,
1000
0000
0100
0000
0010
0100
1000
0000
,
0001
0000
0100
0010
0000
0010
1000
0000
,
0001
0001
0000
0101
0000
0110
0000
1010
,
0000
0010
1000
0200
0000
0000
0300
0000
,
1000
0100
0010
0010
,
0001
0100
0010
0100
,
0020
0000
0100
0000
,
1000
0100
1000
0130
,
1000
0000
0000
1000
0000
0000
0001
0000
0000
0001
0000
0000
1000
0000
0001
0000
,
0010
0000
0010
0000
0010
0100
0100
0000
,
0100
1000
0100
0020
0000
0000
0000
0000
,
0031
0010
0011
0101
,
0100
0001
0100
0020
0000
0000
0000
0000
,
1030
0000
0010
0000
1000
0001
0100
0001
,
1000
2000
3100
0001
,
0002
0000
0000
0000
0103
0000
0000
0000
0100
0000
0000
0001
0000
0000
0020
0000
,
0000
0100
0001
1000
,
0001
1000
0001
1030
,
0001
0010
0001
0000
1000
0100
1000
0000
,
0001
1000
0100
1000
0020
0000
0030
0000
,
2002
0000
0000
0000
,
3003
0000
0000
0000
;
