#VERSION:0.83;
#TITLE:Trash;
#SUBTITLE:;
#ARTIST:Candy House;
#TITLETRANSLIT:;
#SUBTITLETRANSLIT:;
#ARTISTTRANSLIT:;
#GENRE:;
#ORIGIN:;
#CREDIT:;
#BANNER:[Round 4] - Trash.png;
#BACKGROUND:[Round 4] - Trash-bg.png;
#PREVIEWVID:;
#JACKET:[Round 4] - Trash-jacket.png;
#CDIMAGE:;
#DISCIMAGE:;
#LYRICSPATH:;
#CDTITLE:;
#MUSIC:[Round 4] - Trash.ogg;
#OFFSET:-0.060335;
#SAMPLESTART:68.627998;
#SAMPLELENGTH:15.416000;
#SELECTABLE:YES;
#BPMS:0.000=140.000;
#STOPS:;
#DELAYS:;
#WARPS:;
#TIMESIGNATURES:0.000=4=4;
#TICKCOUNTS:0.000=4;
#COMBOS:0.000=1;
#SPEEDS:0.000=1.000=0.000=0;
#SCROLLS:0.000=1.000;
#FAKES:;
#LABELS:0.000=Song Start;
#BGCHANGES:;
#KEYSOUNDS:;
#ATTACKS:
;

//---------------dance-single - ----------------
#NOTEDATA:;
#CHARTNAME:;
#STEPSTYPE:dance-single;
#DESCRIPTION:;
#CHARTSTYLE:;
#DIFFICULTY:Hard;
#METER:8;
#RADARVALUES:0.576658,0.686311,0.468140,0.317982,0.114827,457.000000,404.000000,53.000000,36.000000,3.000000,0.000000,0.000000,0.000000,0.000000,0.576658,0.686311,0.468140,0.317982,0.114827,457.000000,404.000000,53.000000,36.000000,3.000000,0.000000,0.000000,0.000000,0.000000;
#CREDIT:ohaiimian;
#NOTES:
// measure 0
0000
0000
0000
0000
,  // measure 1
0000
0000
0000
0000
,  // measure 2
0000
0000
0000
0000
,  // measure 3
0000
0000
0000
0000
,  // measure 4
0000
0000
0000
0000
,  // measure 5
0001
0100
0010
0100
0001
0010
0100
0100
,  // measure 6
1000
0100
0010
0100
1000
0010
0100
0100
,  // measure 7
0001
0000
0001
0000
1000
0000
1000
0000
0001
1000
0001
1000
0001
1000
0001
1000
,  // measure 8
0001
0000
1000
0000
0001
1000
1001
0000
,  // measure 9
1200
0000
0302
0000
1003
0010
0001
0100
,  // measure 10
0010
0100
1000
0100
0001
0000
0101
0001
,  // measure 11
1000
0100
0001
1000
0010
0001
0100
0010
,  // measure 12
0100
0001
0010
1000
0010
0001
1000
0000
,  // measure 13
0201
0000
2300
0000
3001
0010
1000
0100
,  // measure 14
0010
0100
0001
0100
1000
0000
1100
1000
,  // measure 15
0001
0100
1000
0001
0010
1000
0100
0010
,  // measure 16
0100
0000
0100
0000
0100
0010
1001
0000
,  // measure 17
0021
0000
2030
0000
3001
0100
1000
0010
,  // measure 18
0100
0010
0001
0010
1000
0000
1010
1000
,  // measure 19
0001
0010
1000
0001
0100
1000
0100
0010
,  // measure 20
0100
1000
0010
0001
0010
1000
0001
0000
,  // measure 21
1020
0000
0032
0000
1003
0100
0001
0010
,  // measure 22
0100
0010
1000
0010
0001
0000
0011
0001
,  // measure 23
1000
0010
0001
1000
0100
0001
0010
0100
,  // measure 24
0010
0000
0010
0000
0010
0100
1001
0000
,  // measure 25
0001
0001
0001
0001
,  // measure 26
1000
0100
0010
0001
0100
0010
1000
0100
,  // measure 27
1000
1000
1000
1000
,  // measure 28
0001
0100
0010
1000
0100
0010
0001
0100
,  // measure 29
0010
0000
0000
0000
1001
0000
0000
0000
1000
0010
1000
0000
0100
0000
0100
0000
,  // measure 30
0010
0001
0100
1000
0100
0000
0000
0000
,  // measure 31
0100
0000
0000
0000
1001
0000
0000
0000
0001
0100
0001
0000
0010
0000
0010
0000
,  // measure 32
0100
1000
0001
0100
0200
0000
0300
0000
,  // measure 33
1010
0000
0011
0000
0001
0100
1000
0010
,  // measure 34
0100
0100
0001
0001
0100
0000
0001
0100
,  // measure 35
0101
0000
1100
0000
1000
0010
0001
0100
,  // measure 36
0010
0010
1000
1000
0100
0000
1000
0000
,  // measure 37
2000
0000
0000
0000
3200
0000
0000
0000
0310
0001
0010
0000
0001
0000
0010
0000
,  // measure 38
0002
0000
0000
0000
0203
0000
0000
0000
0310
1000
0010
0000
1000
0000
0010
0000
,  // measure 39
1000
0000
1000
0000
0100
0000
0100
0000
0010
0100
0010
0100
0010
0100
0010
0100
,  // measure 40
0010
0000
0100
0000
0010
0100
0110
0000
,  // measure 41
0021
0000
0000
0000
2030
0000
0000
0000
3001
0100
1000
0000
0010
0000
0100
0000
,  // measure 42
0101
0001
0011
0010
0220
0000
0330
0000
,  // measure 43
1200
0000
0000
0000
0302
0000
0000
0000
1003
0010
0001
0000
0100
0000
0010
0000
,  // measure 44
1010
0010
0110
0100
2002
0000
3003
0000
,  // measure 45
0201
0000
0000
0000
2300
0000
0000
0000
3001
0010
1000
0000
0100
0000
0010
0000
,  // measure 46
0011
0010
0110
0100
2002
0000
3003
0000
,  // measure 47
1020
0000
0000
0000
0032
0000
0000
0000
1003
0100
0001
0000
0010
0000
0100
0000
,  // measure 48
1000
0000
0010
0000
0100
0010
0220
0330
,  // measure 49
0101
0000
0000
0000
1100
0000
0000
0000
0100
1000
0010
0000
0100
0000
1000
0000
,  // measure 50
0001
0100
0010
1000
0001
0001
1000
1000
,  // measure 51
1100
0000
0000
0000
0101
0000
0000
0000
0100
0001
0010
0000
0100
0000
0010
0000
,  // measure 52
1000
0001
0010
0100
1000
1000
0001
0001
,  // measure 53
0011
0000
0000
0000
1010
0000
0000
0000
1000
0100
0010
0000
1000
0000
0001
0000
,  // measure 54
0010
0100
1000
0010
0100
0100
0010
0010
,  // measure 55
0110
0000
0000
0000
1001
0000
0000
0000
0001
1000
0001
0000
0100
0000
0010
0000
,  // measure 56
2000
0000
0001
0000
3001
1000
0001
0000
,  // measure 57
2002
0000
0000
0000
0000
0000
0000
3003
,  // measure 58
0101
0011
1010
1100
2002
3003
0110
0000
,  // measure 59
1001
0000
1000
0000
1100
0000
0100
0000
0010
0001
0010
0000
0100
0000
1000
0000
,  // measure 60
0001
0000
0100
00M0
0100
0000
1000
0000
0020
0000
0000
0000
0130
0000
0010
0000
,  // measure 61
1001
0000
0001
0000
0101
0000
0100
0000
0010
1000
0010
0000
1000
0000
0100
0000
,  // measure 62
1000
0000
0010
0M00
0010
0000
0001
0000
0200
0000
0000
0000
0310
0000
0000
0000
,  // measure 63
1001
0000
0001
0000
0011
0000
0010
0000
0100
1000
0100
0000
0010
0000
0001
0000
,  // measure 64
1000
0000
0100
00M0
0100
0000
0001
0000
0010
0000
0100
0000
1000
0000
0000
0000
;

//---------------dance-single - ----------------
#NOTEDATA:;
#CHARTNAME:;
#STEPSTYPE:dance-single;
#DESCRIPTION:;
#CHARTSTYLE:;
#DIFFICULTY:Medium;
#METER:6;
#RADARVALUES:0.418929,0.428944,0.000000,0.194322,0.000000,332.000000,332.000000,0.000000,22.000000,0.000000,0.000000,0.000000,0.000000,0.000000,0.418929,0.428944,0.000000,0.194322,0.000000,332.000000,332.000000,0.000000,22.000000,0.000000,0.000000,0.000000,0.000000,0.000000;
#CREDIT:ohaiimian;
#NOTES:
// measure 0
0000
0000
0000
0000
,  // measure 1
0000
0000
0000
0000
,  // measure 2
0000
0000
0000
0000
,  // measure 3
0000
0000
0000
0000
,  // measure 4
0000
0000
0000
0000
,  // measure 5
1000
0000
1000
0000
1000
0000
1000
0100
,  // measure 6
0010
0000
0010
0000
0010
0000
0010
0001
,  // measure 7
0100
0100
0001
0001
,  // measure 8
1000
0000
0001
0000
1000
0001
1000
0000
,  // measure 9
0002
0000
0203
0000
0310
1000
0010
1000
,  // measure 10
0100
0000
0100
0010
0001
0000
1000
1000
,  // measure 11
0001
0100
0001
0100
0010
1000
0010
1000
,  // measure 12
0100
0000
0100
0000
0100
0010
0001
0000
,  // measure 13
2000
0000
3200
0000
0310
0001
0010
0001
,  // measure 14
0100
0000
0100
0010
1000
0000
0001
0001
,  // measure 15
1000
0100
1000
0100
0010
0001
0010
0001
,  // measure 16
1000
0000
1000
0000
0001
0100
0020
0000
,  // measure 17
0230
0000
1000
0000
0301
0010
0100
1000
,  // measure 18
0001
0100
0001
0100
0002
0000
0023
0000
,  // measure 19
0130
0010
0100
0010
0100
1000
0100
1000
,  // measure 20
0100
0000
0010
0000
0010
0100
1000
0000
,  // measure 21
0020
0000
0001
0000
1030
0100
0010
0001
,  // measure 22
1000
0010
1000
0010
2000
0000
3200
0000
,  // measure 23
0310
0100
0010
0100
0010
0001
0010
0001
,  // measure 24
0010
0000
0010
0000
0010
0100
2000
0000
,  // measure 25
3001
0001
0001
0001
,  // measure 26
1000
1000
1000
1000
,  // measure 27
0010
0010
0010
0010
,  // measure 28
0100
0100
0100
0100
,  // measure 29
0002
0000
0103
0000
0010
0100
0010
0000
,  // measure 30
1000
0100
1000
0100
2000
0000
3000
0000
,  // measure 31
2000
0000
3010
0000
0100
0010
0100
0000
,  // measure 32
0001
0100
0001
0100
0002
0000
0003
0000
,  // measure 33
0100
0000
0010
0000
1000
0010
1000
0000
,  // measure 34
0100
0010
0100
0010
0100
0000
0010
0000
,  // measure 35
0001
0000
0100
0000
0010
0100
0010
0000
,  // measure 36
0100
0001
0100
0001
0100
0000
0001
0000
,  // measure 37
0010
0000
0100
0000
1000
0100
1000
0000
,  // measure 38
0010
0000
0100
0000
0001
0100
0001
0000
,  // measure 39
0100
0010
0100
0010
1000
0001
1000
0001
,  // measure 40
0010
0000
0010
0000
0010
0100
0010
0000
,  // measure 41
0001
0000
1000
0000
0100
0010
0100
0000
,  // measure 42
0001
1000
0001
1000
0002
0000
0013
0000
,  // measure 43
0100
0000
1000
0000
0001
0100
0001
0000
,  // measure 44
1000
0010
1000
0010
2000
0000
3100
0000
,  // measure 45
0010
0000
0001
0000
1000
0100
1000
0000
,  // measure 46
0001
0010
0001
0010
0002
0000
0003
0000
,  // measure 47
0010
0000
0100
0000
1000
0001
1000
0000
,  // measure 48
0010
0100
0010
0100
0020
0100
0130
0000
,  // measure 49
1000
0000
1000
0000
0001
0100
0001
0000
,  // measure 50
1000
0010
1000
0010
1000
0001
1000
1000
,  // measure 51
0100
0000
0010
0000
0001
0010
0001
0000
,  // measure 52
1000
0100
1000
0100
1000
0010
1000
1000
,  // measure 53
0001
0000
0001
0000
1000
0010
1000
0000
,  // measure 54
0001
0010
0001
0010
0001
1000
0001
0001
,  // measure 55
1000
0000
0010
0000
0100
0001
0100
0000
,  // measure 56
0010
0010
0010
1000
,  // measure 57
0002
0000
0000
0000
,  // measure 58
1000
1000
1000
1000
2000
0000
3003
0000
,  // measure 59
1000
0000
0100
0000
0010
0001
0100
0000
,  // measure 60
0010
1000
0100
0010
0001
0000
0010
0000
,  // measure 61
0100
0000
1000
0000
0010
0100
0001
0000
,  // measure 62
0001
0010
0100
1000
0100
0000
0010
0000
,  // measure 63
0001
0000
0100
0000
0010
1000
0100
0000
,  // measure 64
0010
0001
0100
0010
1000
0001
1000
0000
;

//---------------dance-single - ----------------
#NOTEDATA:;
#CHARTNAME:;
#STEPSTYPE:dance-single;
#DESCRIPTION:;
#CHARTSTYLE:;
#DIFFICULTY:Easy;
#METER:4;
#RADARVALUES:0.285174,0.514733,0.220821,0.097161,0.000000,226.000000,201.000000,25.000000,11.000000,0.000000,0.000000,0.000000,0.000000,0.000000,0.285174,0.514733,0.220821,0.097161,0.000000,226.000000,201.000000,25.000000,11.000000,0.000000,0.000000,0.000000,0.000000,0.000000;
#CREDIT:ohaiimian;
#NOTES:
0000
0000
0000
0000
,
0000
0000
0000
0000
,
0000
0000
0000
0000
,
0000
0000
0000
0000
,
0000
0000
0000
0000
,
0001
0001
0001
0001
,
1000
1000
1000
1000
,
0001
0001
1000
1000
,
0010
0010
0010
0100
,
0001
0000
0001
0000
,
0001
0001
0001
0000
,
0010
0000
0010
0000
,
0010
0010
0010
0000
,
0100
0000
0100
0000
,
0100
0100
0100
0000
,
1000
0000
1000
0000
,
1000
1000
1000
0010
,
1000
0100
0001
0100
,
1000
0100
0100
0010
,
0001
0010
1000
0010
,
0001
0010
0010
0100
,
1000
0100
1000
0010
,
0100
0100
0100
0001
,
0001
0010
0001
0100
,
0001
0001
0001
0100
,
0020
0000
0000
0030
,
2000
0000
0000
3000
,
0002
0000
0000
0003
,
0200
0000
0000
0300
,
0010
0000
0010
0000
,
1000
1000
1000
0000
,
0100
0000
0100
0000
,
0001
0001
0001
0000
,
1000
1000
1000
1000
,
0001
0001
0001
0001
,
0010
0010
0010
0010
,
0100
0100
0100
0100
,
1000
1000
0001
0001
,
1000
1000
0001
0001
,
0100
0100
0010
0010
,
0200
0000
0000
0310
,
1000
0100
0010
0001
,
1000
0001
2000
3000
,
0001
0100
0010
1000
,
0001
1000
0002
0003
,
1000
0010
0100
0001
,
0010
0010
0020
0030
,
0001
0010
0100
1000
,
0100
0100
0200
0300
,
0010
0110
0100
0110
,
0001
1001
1000
1001
,
0100
0110
0010
0110
,
1000
1001
0001
1001
,
1001
1001
0110
0110
,
1001
1001
0110
0110
,
1001
0110
1001
0110
,
1001
1000
1000
1000
,
0020
0000
0000
0030
,
0100
0100
0200
0300
,
0010
1001
0100
1001
,
1000
0110
0001
0110
,
1000
0100
0010
0010
,
0001
0100
0010
0010
,
1000
0010
0100
0100
,
0001
0010
0100
0100
;

//---------------dance-single - ----------------
#NOTEDATA:;
#CHARTNAME:;
#STEPSTYPE:dance-single;
#DESCRIPTION:;
#CHARTSTYLE:;
#DIFFICULTY:Beginner;
#METER:2;
#RADARVALUES:0.160253,0.227887,0.017666,0.052997,0.000000,127.000000,125.000000,2.000000,6.000000,0.000000,0.000000,0.000000,0.000000,0.000000,0.160253,0.227887,0.017666,0.052997,0.000000,127.000000,125.000000,2.000000,6.000000,0.000000,0.000000,0.000000,0.000000,0.000000;
#CREDIT:ohaiimian;
#NOTES:
0000
0000
0000
0000
,
0000
0000
0000
0000
,
0000
0000
0000
0000
,
0000
0000
0000
0000
,
0000
0000
0000
0000
,
1000
0000
0000
0000
,
1000
0000
0000
0000
,
0001
0000
0000
0000
,
0001
0000
0001
0000
,
0100
0000
0100
0000
,
0100
0000
0000
0000
,
0010
0000
0010
0000
,
0010
0000
0000
0000
,
1000
0000
1000
0000
,
1000
0000
0000
0000
,
0001
0000
0001
0000
,
0001
0000
0000
1000
,
0010
0010
0010
0000
,
0100
0100
0100
0000
,
0001
0001
0001
0000
,
1000
1000
1000
0000
,
0001
0000
0100
0000
,
0010
0000
1000
0000
,
0100
0000
0010
0000
,
0001
0001
0001
0000
,
2000
0000
0000
0000
,
0000
0000
3000
0000
,
0002
0000
0000
0000
,
0000
0000
0003
0000
,
1000
0000
0000
0000
,
0001
0000
0000
0000
,
0010
0000
0000
0000
,
0100
0000
0000
0000
,
1000
0000
1000
0000
,
1000
0000
1000
0000
,
0001
0000
0001
0000
,
0001
0000
0001
0000
,
0100
0000
0100
0000
,
0100
0000
0100
0000
,
0010
0000
0010
0000
,
0010
0000
0010
0000
,
1000
1000
1000
0000
,
0001
0001
0001
0000
,
0100
0100
0100
0000
,
0010
0010
0010
0000
,
1000
1000
1000
0000
,
0100
0100
0100
0000
,
0010
0010
0010
0000
,
0001
0001
0001
0000
,
0001
0000
0001
0000
,
1000
1000
1000
1000
,
0010
0000
0010
0000
,
0100
0100
0100
0100
,
1000
0000
1000
0000
,
0010
0010
0010
0010
,
0100
0000
0100
0000
,
0001
0001
0001
0001
,
2002
0000
3003
0000
,
0220
0000
0330
0000
,
1000
0000
1000
0000
,
0100
0100
0100
0000
,
0010
0000
0010
0000
,
0001
0001
0001
0000
,
0001
0000
0100
0000
,
0010
0000
1000
0000
;
