#TITLE:SOS;
#SUBTITLE:;
#ARTIST:Avicii feat. Aloe Blacc;
#TITLETRANSLIT:;
#SUBTITLETRANSLIT:;
#ARTISTTRANSLIT:;
#GENRE:;
#CREDIT:;
#BANNER:[Round 4] - SOS.png;
#BACKGROUND:[Round 4] - SOS-bg.png;
#LYRICSPATH:;
#CDTITLE:;
#MUSIC:[Round 4] - SOS.ogg;
#OFFSET:0.000000;
#SAMPLESTART:39.009205;
#SAMPLELENGTH:19.200005;
#SELECTABLE:YES;
#BPMS:0.000000=100.000000
,81.000000=200.000000
,113.000000=100.000000
,161.000000=200.000000
,225.000000=100.000000
;
#STOPS:
;
#BGCHANGES:;
#KEYSOUNDS:;
#ATTACKS:;

//---------------dance-single - ----------------
#NOTES:
     dance-single:
     :
     Hard:
     8:
     0.392777,0.535189,0.253794,0.084598,0.236875,325.000000,295.000000,30.000000,10.000000,0.000000,0.000000,0.392777,0.535189,0.253794,0.084598,0.236875,325.000000,295.000000,30.000000,10.000000,0.000000,0.000000:
0000
0000
0000
0000
,
0000
0000
0000
0000
,
0000
0000
0000
0000
,
0000
0000
0000
0000
,
0000
0002
0000
2003
,
0200
0000
0000
3000
0000
0000
0000
0000
,
0300
0020
0000
0032
,
2003
0000
0000
0000
,
3000
0000
0000
0000
0001
0000
0000
0001
0000
0000
0001
0000
0000
0000
1000
0000
,
0000
1000
0000
0000
0010
0000
0000
0010
0000
0000
0100
0000
0000
0000
0100
0000
,
0000
0100
0000
0000
0001
0000
0000
0001
0000
0000
0001
0000
0000
0000
0010
0000
,
0000
0010
0000
0000
0100
0000
0000
0100
0000
0000
1000
0000
0000
0000
1000
0000
,
0000
1000
0000
0000
0100
0000
0000
0100
1000
0000
0100
0000
0000
0000
0010
0000
,
0100
0010
0000
0000
0001
0000
0000
0001
1000
0000
0010
0000
0000
0000
0010
0000
,
0100
0010
0000
0000
1000
0000
0000
1000
0001
0000
1000
0000
0000
0000
0100
0000
,
0010
0100
0000
0000
0010
0000
0000
0010
0001
0000
1000
0000
0000
0000
1000
0000
,
0100
1000
0000
0000
0001
0000
0000
0001
0000
0100
0001
0000
1000
0000
0010
1000
,
0001
0000
0100
0000
0000
0000
0000
0000
0001
0000
0000
0000
0000
0000
0001
0000
0000
0000
1000
0000
0100
0000
0000
0000
0020
0000
0000
0030
0001
0000
0010
0000
,
0100
1000
0000
0000
0010
0000
0000
0010
0000
1000
0010
0000
0100
0000
0001
1000
,
0100
0000
0000
0010
0000
0000
0000
0000
0000
0000
0000
0000
0100
0000
0000
0000
0100
0000
0000
0000
0100
0000
0000
0000
0010
0000
0000
0000
0000
0000
0100
0000
0000
1000
0000
0000
0001
0000
0000
0000
0000
0000
0010
0000
0000
0000
0000
0000
,
0001
1000
0000
0000
0011
0000
0000
0000
0000
0000
0011
0000
0000
0000
0001
0000
,
1000
0100
0010
0000
0010
0001
1000
0010
,
0100
0000
1010
0000
0000
1010
0000
1000
,
0001
0000
0010
0000
0100
0010
0001
0000
1000
0000
0010
0000
1000
0000
0001
0000
,
0100
0000
0110
0000
0000
0110
0000
0100
,
0001
0000
1000
0000
0010
0100
0000
0000
0001
0000
1000
0000
0100
0000
0010
0000
,
0001
0000
0110
0000
0000
0110
0000
0001
,
1000
0000
0100
0000
0010
0100
0000
0000
1000
0000
0001
0000
0100
0000
0010
0000
,
0000
0000
1000
0000
1100
0000
0001
0100
,
0110
0000
0000
0000
0010
0000
0000
0010
1000
0000
0010
0000
0000
0000
0010
0000
,
0100
0001
0000
0000
1000
0000
0000
0000
1010
0000
0000
0000
0001
0000
0010
0000
,
0110
0000
0000
0000
0010
0000
0000
0010
0001
0000
0010
0000
0000
0000
0010
0000
,
0100
1000
0000
0000
0001
0000
0000
0000
0101
0000
0000
0000
1000
0000
0100
0000
,
0110
0000
0000
0000
1000
0000
0000
1000
0001
0000
1000
0000
0000
0000
0010
0000
,
0100
0010
0000
0000
1000
0000
0000
0000
1010
0000
0000
0000
0001
0000
0010
0000
,
0110
0000
0000
0000
0001
0000
0000
0001
1000
0000
0001
0000
0000
0000
0100
0000
,
0010
0000
0000
0000
0100
0000
0000
0100
0000
0000
0000
0000
0000
0000
0001
0000
,
0000
0001
0000
0000
1000
0000
0000
1000
0000
0000
0000
0000
0000
0000
0100
0000
,
0000
0100
0000
0000
0010
0000
0000
0010
0000
0000
0000
0000
0000
0000
0001
0000
,
0000
0001
0000
0000
0100
0000
0000
0100
0000
0000
0000
0000
0000
0000
1000
0000
,
0000
1000
0000
0000
0101
0000
0000
0000
0000
0000
0101
0000
0000
0000
0100
0000
,
1000
0100
0010
0000
1000
0001
0010
0100
,
0010
0000
1100
0000
0000
1100
0000
0100
,
0001
0000
0100
0000
0010
0001
1000
0000
0010
0000
0100
0000
0001
0000
1000
0000
,
0100
0000
0011
0000
0000
0011
0000
1000
,
0010
0000
0001
0000
0010
0100
0000
0000
0001
0000
1000
0000
0100
0000
0010
0000
,
0001
0000
1010
0000
0000
1010
0000
0001
,
1000
0000
0010
0000
1000
0100
0000
0000
0010
0000
0001
0000
1000
0000
0001
0000
,
0100
0010
1000
0000
0000
0001
0000
0000
,
1001
0000
0010
0000
1000
0010
0001
1000
,
0100
0000
0010
0000
0000
0100
0000
0000
,
0110
0000
0000
0000
0001
0100
0010
0000
1000
0000
0100
0000
0001
0000
0100
0000
,
0010
0000
0100
0000
0000
0110
0000
0000
,
1100
0000
0000
0000
0010
0001
0000
0000
1000
0000
0010
0000
0001
0000
0010
0000
,
0100
0000
0001
0000
0000
1001
0000
0000
,
1010
0000
0000
0000
0100
0001
0000
0000
0010
0000
0001
0000
1000
0000
0010
0000
,
0000
0200
0000
1000
,
0001
0000
0000
0000
0000
0000
0000
0300
,
0000
0020
0000
0001
,
0200
0000
0000
0000
0000
0000
0000
0300
,
0000
0030
0000
0000
;

//---------------dance-single - ----------------
#NOTES:
     dance-single:
     :
     Medium:
     6:
     0.308179,0.406917,0.135357,0.084598,0.156506,255.000000,239.000000,16.000000,10.000000,0.000000,0.000000,0.308179,0.406917,0.135357,0.084598,0.156506,255.000000,239.000000,16.000000,10.000000,0.000000,0.000000:
0000
0000
0000
0000
,
0000
0000
0000
0000
,
0000
0000
0000
0000
,
0000
0000
0000
0000
,
0000
2000
0000
3002
,
0203
0000
0000
0300
0000
0000
0000
0000
,
0000
0020
0000
2030
,
3002
0000
0000
0000
,
0003
0000
0000
0000
1000
0000
0000
1000
0000
0000
1000
0000
0000
0000
0001
0000
,
0000
0001
0000
0000
0010
0000
0000
0010
0000
0000
0100
0000
0000
0000
0100
0000
,
0000
0100
0000
0000
1000
0000
0000
1000
0000
0000
1000
0000
0000
0000
0010
0000
,
0000
0010
0000
0000
0100
0000
0000
0100
0000
0000
0001
0000
0000
0000
0001
0000
,
0000
0001
0000
0000
0100
0000
0000
0100
0010
0000
0100
0000
0000
0000
0010
0000
,
0100
0010
0000
0000
1000
0000
0000
1000
0010
0000
0100
0000
0000
0000
0100
0000
,
0010
0100
0000
0000
0001
0000
0000
0001
0010
0000
0001
0000
0000
0000
0010
0000
,
0100
0010
0000
0000
0100
0000
0000
0100
1000
0000
0001
0000
0000
0000
0001
0000
,
0100
0001
0000
0000
1000
0000
0000
1000
0000
0100
1000
0000
0001
0000
0010
0000
,
0100
0000
0000
0000
0000
0000
0000
0000
1000
0000
0000
0000
0000
0000
1000
0000
0000
0000
0001
0000
0100
0000
0000
0000
0020
0000
0000
0030
1000
0000
0000
0000
,
0100
0000
0000
0000
0010
0000
0000
0010
0000
0001
0010
0000
0100
0000
1000
0000
,
0001
0000
0200
0000
0310
1000
0001
0010
,
0100
0000
1000
0000
0000
1000
0000
0000
,
1010
0000
0000
0000
0100
0000
0000
0100
,
0010
0000
0001
0000
0000
0001
0000
0000
,
0011
0000
0000
0000
1000
0000
0000
1000
,
0100
0000
0010
0000
0000
0010
0000
0000
,
0110
0000
0000
0000
0001
0000
0000
0001
,
1000
0000
0010
0000
0000
0010
0000
0000
,
0110
1000
0000
1000
,
0000
0000
0001
0000
0101
0000
1000
0100
,
0010
0000
0000
0000
0001
0000
0000
0001
0010
0000
0000
0000
0000
0000
0100
0000
,
1000
0100
0000
0000
0001
0000
0000
0000
0101
0000
0000
0000
1000
0000
0010
0000
,
0100
0000
0000
0000
0010
0000
0000
0010
1000
0000
0000
0000
0000
0000
0001
0000
,
0100
0001
0000
0000
1000
0000
0000
0000
1100
0000
0000
0000
0001
0000
0100
0000
,
0010
0000
0000
0000
1000
0000
0000
1000
0001
0000
0000
0000
0000
0000
0010
0000
,
0100
0010
0000
0000
0001
0000
0000
0000
0011
0000
0000
0000
1000
0000
0010
0000
,
0100
0000
0000
0000
0001
0000
0000
0001
0100
0000
0000
0000
0000
0000
0100
0000
,
0010
0000
0000
0000
0100
0000
0000
0100
0000
0000
0000
0000
0000
0000
0001
0000
,
0000
0001
0000
0000
1000
0000
0000
1000
0000
0000
0000
0000
0000
0000
0100
0000
,
0000
0100
0000
0000
0010
0000
0000
0010
0000
0000
0000
0000
0000
0000
0001
0000
,
0000
0001
0000
0000
1000
0000
0000
1000
0000
0000
0000
0000
0000
0000
0010
0000
,
0000
0010
0000
0000
0100
0000
0000
0000
0000
0000
0100
0000
0000
0000
0000
0000
,
0101
0000
0010
0000
1000
0001
0010
0100
,
0010
0000
0001
0000
0000
0001
0000
0000
,
1100
0000
0001
0000
1000
0010
0100
0001
,
0100
0000
0010
0000
0000
0010
0000
0000
,
1010
0000
0001
0000
1000
0100
0010
0001
,
0000
0000
1000
0000
0000
1000
0000
0000
,
0011
0000
0100
0000
1000
0100
0001
0100
,
0010
0000
0100
0000
0000
0100
0000
0000
,
1001
0000
0010
0000
0001
0010
1000
0010
,
0100
0000
0001
0000
0000
0001
0000
0000
,
0110
0000
1000
0000
0001
0100
0010
0100
,
0001
0000
1000
0000
0000
1000
0000
0000
,
0101
0000
0010
0000
1000
0001
0010
0100
,
0001
0000
0100
0000
0000
0100
0000
0000
,
0011
0000
1000
0000
0100
1000
0001
0100
,
0000
0020
0000
0001
,
1000
0000
0000
0000
0000
0000
0000
0030
,
0000
0200
0000
1000
,
0010
0000
0000
0000
,
0000
0300
0000
0000
0000
0000
0000
0000
;

//---------------dance-single - ----------------
#NOTES:
     dance-single:
     :
     Easy:
     4:
     0.219955,0.303919,0.262254,0.135357,0.000000,182.000000,151.000000,31.000000,16.000000,0.000000,0.000000,0.219955,0.303919,0.262254,0.135357,0.000000,182.000000,151.000000,31.000000,16.000000,0.000000,0.000000:
0000
0000
0000
0000
,
0000
0000
0000
0000
,
0000
0000
0000
0000
,
0000
0000
0000
0000
,
0000
2000
0000
3020
,
0230
0000
0300
0000
,
0000
0002
0000
0023
,
0230
0000
0300
0000
,
0000
1000
0100
0000
,
0001
1000
0010
0000
,
0001
0100
0010
0000
,
1000
0100
0010
0000
,
0001
1000
1010
0000
,
0110
0001
0011
0000
,
0110
1000
1100
0000
,
1001
0100
0110
0000
,
0101
1000
1000
0010
,
0010
0100
0100
0001
,
0001
0010
0010
0001
,
0001
0100
0100
0000
,
0000
0000
1000
0000
0000
1000
0000
0000
,
0100
0000
0010
0000
,
0110
0000
0001
0000
0000
0001
0000
0000
,
0100
0000
1000
0000
,
1010
0000
0100
0000
0000
0100
0000
0000
,
0010
0000
0001
0000
,
1001
0000
0100
0000
0000
0100
0000
0000
,
0010
1000
0000
1000
,
0000
0000
0001
0000
0011
0000
0000
0100
,
1000
0000
0001
0000
0101
0000
0000
0010
,
1000
0000
0001
0000
0011
0000
0000
1000
,
0010
0000
0100
0000
1100
0000
0000
0001
,
0100
0000
0010
0000
1010
0000
0000
0100
,
0001
0000
1000
0000
1001
0000
0000
0100
,
0010
0000
0001
0000
0101
0000
0000
0100
,
1000
0000
0001
0000
0100
0000
0000
0010
,
0100
0000
0000
0000
0020
0000
0000
0030
0000
0000
0000
0000
0000
0000
0002
0000
,
0000
0003
0000
0000
2000
0000
0000
3000
0000
0000
0000
0000
0000
0000
0020
0000
,
0000
0030
0000
0000
0200
0000
0000
0300
0000
0000
0000
0000
0000
0000
0002
0000
,
0000
0003
0000
0000
2000
0000
0000
3000
0000
0000
0000
0000
0000
0000
0200
0000
,
0000
0300
0000
0000
0010
0000
0000
0000
0000
0000
0010
0000
0000
0000
0000
0000
,
0001
0000
0100
0000
,
0110
0000
0001
0000
0000
0001
0000
0000
,
1000
0000
0100
0000
,
0110
0000
0001
0000
0000
0001
0000
0000
,
1100
0000
0010
0000
,
0101
0000
1000
0000
0000
1000
0000
0000
,
0011
0000
0100
0000
,
1010
0000
0100
0000
0000
0100
0000
0000
,
1001
0000
0010
0000
,
1001
0000
0001
0000
0000
0001
0000
0000
,
0110
0000
1000
0000
,
0110
0000
0010
0000
0000
0010
0000
0000
,
1100
0000
0010
0000
,
0101
0000
1000
0000
0000
1000
0000
0000
,
0101
0000
1000
0000
0001
0000
0000
0001
,
0000
0020
0000
0001
,
1000
0000
0000
0000
0000
0000
0000
0030
,
0000
0200
0000
0001
,
1000
0000
0000
0000
0000
0000
0000
0300
;

//---------------dance-single - ----------------
#NOTES:
     dance-single:
     :
     Beginner:
     2:
     0.164362,0.253265,0.203035,0.016920,0.000000,136.000000,112.000000,24.000000,2.000000,0.000000,0.000000,0.164362,0.253265,0.203035,0.016920,0.000000,136.000000,112.000000,24.000000,2.000000,0.000000,0.000000:
// measure 0
0000
0000
0000
0000
,  // measure 1
0000
0000
0000
0000
,  // measure 2
0000
0000
0000
0000
,  // measure 3
0000
0000
0000
0000
,  // measure 4
0000
1000
0000
0010
,  // measure 5
0010
0000
0000
0000
,  // measure 6
0000
0001
0000
0100
,  // measure 7
0100
0000
0000
0000
,  // measure 8
0000
0000
0100
0000
,  // measure 9
1000
0000
0010
0000
,  // measure 10
0001
0000
0010
0000
,  // measure 11
1000
0000
0100
0000
,  // measure 12
0001
0000
1010
0000
,  // measure 13
0110
0000
0011
0000
,  // measure 14
0110
0000
1100
0000
,  // measure 15
1001
0000
0110
0000
,  // measure 16
0101
1000
0000
0010
,  // measure 17
0000
0100
0000
0001
,  // measure 18
0000
0010
0000
0001
,  // measure 19
0000
0100
0000
0000
,  // measure 20
0000
1000
0000
0000
,  // measure 21
0100
0000
0010
0000
,  // measure 22
0001
0001
0000
0000
,  // measure 23
1000
0000
0010
0000
,  // measure 24
0100
0100
0000
0000
,  // measure 25
0010
0000
0001
0000
,  // measure 26
0100
0000
0100
0000
0000
0100
0000
0000
,  // measure 27
0010
0010
0000
1000
,  // measure 28
0000
0001
0001
0000
,  // measure 29
0011
0000
0100
0000
,  // measure 30
1100
1000
1000
0000
,  // measure 31
0101
0000
0010
0000
,  // measure 32
1010
0010
0010
0000
,  // measure 33
0110
0100
0100
0000
,  // measure 34
1001
1000
1000
0000
,  // measure 35
0011
0001
0001
0000
,  // measure 36
1010
1000
0000
0000
,  // measure 37
0001
0001
0000
0000
,  // measure 38
0010
0010
0000
0000
,  // measure 39
0100
0100
0000
0000
,  // measure 40
0000
1000
0000
0000
,  // measure 41
1010
0000
0100
0000
,  // measure 42
0001
0001
0000
0000
,  // measure 43
0011
0000
0100
0000
,  // measure 44
1000
1000
0000
0000
,  // measure 45
0110
0000
0001
0000
,  // measure 46
0100
0100
0000
0000
,  // measure 47
1001
0000
0010
0000
,  // measure 48
0100
0100
0000
0000
,  // measure 49
1010
0000
0100
0000
,  // measure 50
0001
0001
0000
0000
,  // measure 51
1100
0000
0010
0000
,  // measure 52
0100
0100
0000
0000
,  // measure 53
0011
0000
1000
0000
,  // measure 54
0010
0010
0000
0000
,  // measure 55
0110
0000
0100
0000
,  // measure 56
0000
0010
0000
0001
,  // measure 57
0002
0000
0000
0000
0000
0000
0000
0003
,  // measure 58
0000
0100
0000
1000
,  // measure 59
2000
0000
0000
0000
0000
0000
0000
3000
;
